osu file format v4

[General]
AudioFilename: 104-lambada-ranma.mp3
AudioLeadIn: 0
AudioHash: 23813ac2dd5584f089fe0a0aaf4499d6
PreviewTime: -1
Countdown: 1
SampleSet: Normal

[Metadata]
Title:Lambada Ranma
Artist:Unknown
Creator:Alieax
Version:Normal

[Difficulty]
HPDrainRate:5
CircleSize:5
OverallDifficulty:5
SliderMultiplier: 1.4
SliderTickRate: 1

[Events]
//Background and Video events
0,-100000,"ranma_d1[1].jpg"
//Break Periods
//Storyboard Layer 0 (Background)
//Storyboard Layer 1 (Failing)
//Storyboard Layer 2 (Passing)
//Storyboard Layer 3 (Foreground)
//Storyboard Sound Samples
//Background Colour Transformations
3,100,163,162,255

[TimingPoints]
1322,427.644444444444,4,1,0,100

[HitObjects]
64,96,2604,1,0
224,96,4314,1,0
320,96,4741,1,0
320,192,5169,1,0
224,192,5596,1,0
160,64,7733,5,0
128,160,8161,1,0
256,192,8588,1,0
352,192,9016,1,0
160,96,10298,1,0
224,160,11580,1,0
288,160,12008,1,0
352,160,12435,1,0
352,128,13290,5,0
288,128,13717,1,0
256,128,14145,1,0
160,128,15000,1,0
160,192,15427,1,0
160,256,15855,1,0
224,256,16282,1,0
288,256,16710,1,0
352,256,17137,1,0
352,192,17992,1,0
192,96,20129,5,0
160,160,20557,1,0
160,192,20984,1,0
256,192,21411,1,0
192,192,21839,1,0
160,128,23976,5,0
160,224,25258,1,0
224,224,25686,1,0
128,160,26541,1,0
192,160,26968,1,0
288,160,27396,1,0
320,160,27823,1,0
320,256,28251,1,0
128,160,29533,5,0
192,160,30388,1,0
224,224,30815,1,0
160,224,31243,1,0
128,288,31670,1,0
224,288,32098,1,0
160,192,33380,5,0
288,192,34235,1,0
224,192,34662,1,0
128,160,35090,1,0
160,96,37654,5,0
256,128,38082,1,0
128,192,39792,5,0
192,192,40219,1,0
128,64,41074,6,0,B|128:64|512:288|64:320|0:96,1,560
288,96,43639,2,0,B|288:96|192:192,3,140
160,224,45776,2,0,B|160:224|160:288,1,140
256,192,46631,1,0
64,128,47913,1,0
128,128,48340,1,0
192,128,48768,1,0
256,128,49195,1,0
256,192,50050,5,0
64,160,52187,1,0
64,224,52615,1,0
64,96,54752,5,0
128,96,55180,1,0
96,160,58172,5,0
96,224,58599,1,0
96,288,59027,1,0
128,128,62019,5,0
128,192,62446,1,0
128,256,62874,1,0
224,160,64156,5,0
224,224,64583,1,0
256,128,68003,5,0
192,128,68430,1,0
160,192,69285,1,0
224,192,69713,1,0
288,192,70140,1,0
352,192,70568,1,0
320,128,71422,5,0
160,128,72705,1,0
160,192,73560,1,0
160,224,73987,1,0
224,224,75269,1,0
288,224,75697,1,0
256,160,76552,5,0
192,160,76979,1,0
160,160,77407,1,0
128,192,77834,1,0
128,256,78262,1,0
192,256,78689,1,0
256,256,79116,1,0
320,256,79544,1,0
224,192,80399,1,0
128,192,80826,1,0
96,160,81681,1,0
128,128,82109,1,0
224,96,82536,1,0
320,128,82963,1,0
192,192,85101,5,0
128,192,85528,1,0
64,192,85956,1,0
64,256,86383,1,0
128,256,86810,1,0
192,256,88948,1,0
192,192,89803,1,0
128,192,90657,1,0
128,256,91512,1,0
192,256,92367,5,0
256,256,93222,1,0
320,256,94077,1,0
320,192,94932,1,0
256,192,96214,1,0
192,192,97069,1,0
128,192,97924,1,0
128,256,98351,1,0
192,256,99634,1,0
256,256,100489,1,0
256,192,101344,5,0
192,192,102198,1,0
128,192,103053,1,0
128,128,103908,1,0
192,128,105191,1,0
256,128,106045,1,0
320,128,106900,1,0
320,192,107755,1,0
256,192,108610,1,0
192,192,109465,1,0
128,192,110320,1,0
128,256,111175,5,0
192,256,112030,1,0
256,256,113312,1,0
320,256,114167,1,0
384,256,115022,1,0
384,192,115877,1,0
320,192,116732,1,0
128,128,118014,5,0
128,192,118869,1,0
128,256,119724,1,0
256,224,120151,1,0
192,160,121006,5,0
128,224,122288,1,0
128,256,122716,1,0
224,288,123143,1,0
288,256,123571,1,0
128,192,125708,1,0
96,256,126563,1,0
192,128,128700,5,0
192,192,129127,1,0
128,256,129982,1,0
128,192,130410,1,0
192,160,132120,5,0
192,256,132547,1,0
96,128,135539,1,0
96,224,135967,1,0
96,256,136394,1,0
96,96,138959,2,0,B|96:96|480:320|448:96,1,420
128,128,143233,5,0
256,160,143661,1,0
224,256,144088,1,0
96,160,146653,5,0
160,160,147508,1,0
160,256,148362,1,0
96,256,149217,1,0
96,96,150500,5,0
224,96,150927,1,0
160,96,151355,1,0
96,128,153919,5,0
96,224,154347,1,0
96,288,154774,1,0
160,160,157339,5,0
96,192,158194,1,0
160,256,159049,1,0
256,192,160331,1,0
256,256,160758,1,0
160,192,161613,5,0
160,128,162468,1,0
96,128,163323,1,0
96,192,164178,1,0
160,192,165033,1,0
224,192,165888,1,0
288,192,166743,1,0
288,256,167597,1,0
224,256,168452,1,0
224,192,169307,1,0
160,192,170162,5,0
160,256,171444,1,0
96,256,172299,1,0
96,192,172727,1,0
96,128,173154,1,0
160,128,173582,1,0
224,128,174437,5,0
256,128,174864,1,0
320,128,175291,1,0
160,192,176146,1,0
128,192,176574,1,0
96,192,177856,1,0
160,192,178284,5,0
160,192,178711,1,0
256,192,179566,1,0
320,192,180421,1,0
320,128,181276,1,0
256,128,182131,1,0
192,128,182985,1,0
160,128,183413,1,0
160,192,183840,1,0
192,224,184268,5,0
192,256,185123,1,0
192,256,185550,1,0
192,256,185978,1,0
192,256,186405,1,0
256,128,188542,1,0
256,128,188970,1,0
160,160,189397,1,0
160,224,189825,1,0
96,256,190252,5,0
256,192,192389,1,0
256,192,192817,1,0
256,192,193244,1,0
256,192,193672,1,0
128,224,195381,1,0
128,224,195809,1,0
128,224,196236,1,0
128,224,196664,1,0
128,224,197091,1,0
