osu file format v14

[General]
AudioFilename: track.mp3
AudioLeadIn: 2000
PreviewTime: 44646
Countdown: 0
SampleSet: Normal
StackLeniency: 0.7
Mode: 0
LetterboxInBreaks: 0
SkinPreference:Default
WidescreenStoryboard: 0

[Editor]
Bookmarks: 172146
DistanceSpacing: 2
BeatDivisor: 4
GridSize: 4
TimelineZoom: 1.8

[Metadata]
Title:Fekete feher
TitleUnicode:Fekete fehér
Artist:Unique
ArtistUnicode:Unique
Creator:Kazuya
Version:Sunflower
Source:
Tags:hungarian magyar best of kazuya-sama
BeatmapID:606213
BeatmapSetID:266003

[Difficulty]
HPDrainRate:7
CircleSize:4
OverallDifficulty:7
ApproachRate:8
SliderMultiplier:1.78
SliderTickRate:1

[Events]
//Background and Video events
0,0,"bg.jpg",0,0
//Break Periods
//Storyboard Layer 0 (Background)
//Storyboard Layer 1 (Fail)
//Storyboard Layer 2 (Pass)
//Storyboard Layer 3 (Foreground)
//Storyboard Sound Samples

[TimingPoints]
100,454.545454545455,4,2,1,60,1,0
1010,454.545454545455,4,1,1,60,1,0
15555,-100,4,2,1,80,0,0
44646,-100,4,3,1,60,0,0
48282,-100,4,1,1,70,0,1
77373,-100,4,1,1,70,0,0
91919,-100,4,2,1,80,0,0
121010,-100,4,3,1,60,0,0
124646,-100,4,1,1,70,0,1
153737,-100,4,3,1,80,0,0
161010,-100,4,2,1,80,0,0
168282,-100,4,1,1,70,0,1
197373,-100,4,1,1,70,0,0
211919,-100,4,2,1,60,0,0
212373,-100,4,2,1,55,0,0
212828,-100,4,2,1,50,0,0
213282,-100,4,2,1,35,0,0
213737,-100,4,2,1,25,0,0
214191,-100,4,2,1,15,0,0
214646,-100,4,2,1,5,0,0

[Colours]
Combo1 : 218,114,37
Combo2 : 228,207,12
Combo3 : 143,124,112
Combo4 : 117,155,100
SliderBorder : 255,255,255

[HitObjects]
4,120,100,5,8,0:0:0:0:
25,126,213,1,8,0:0:0:0:
46,132,327,1,8,0:0:0:0:
128,64,554,1,10,0:0:0:0:
188,152,781,1,8,0:0:0:0:
280,96,1010,6,0,P|320:108|368:104,1,89,4|0,0:0|0:0,0:0:0:0:
464,60,1464,1,8,0:0:0:0:
500,160,1691,1,0,0:0:0:0:
424,236,1919,2,0,P|348:196|252:216,1,178,0|8,0:0|0:0,0:0:0:0:
175,276,2600,6,0,P|135:295|92:303,1,89
160,168,3055,2,0,P|123:143|93:110,1,89,0|8,0:0|0:0,0:0:0:0:
256,120,3510,1,0,0:0:0:0:
256,120,3737,2,0,P|344:96|428:116,1,178,0|8,0:0|0:0,0:0:0:0:
480,208,4419,6,0,P|436:220|392:216,1,89
213,276,4873,2,0,P|255:264|300:268,1,89,0|8,0:0|0:0,0:0:0:0:
267,370,5328,1,0,0:0:0:0:
267,370,5555,2,0,L|252:192,1,178,0|8,0:0|0:0,0:0:0:0:
164,132,6237,6,0,L|156:44,1,89
75,192,6691,2,0,L|67:280,1,89,0|8,0:0|0:0,0:0:0:0:
153,344,7146,2,0,L|241:336,1,89,0|0,0:0|0:0,0:0:0:0:
375,232,7600,2,0,L|287:240,1,89,0|8,0:0|0:0,0:0:0:0:
436,320,8055,1,0,0:0:0:0:
436,320,8282,6,0,P|481:248|453:160,1,178,4|8,0:0|0:0,0:0:0:0:
373,96,8964,1,0,0:0:0:0:
313,184,9191,2,0,L|133:204,1,178,0|8,0:0|0:0,0:0:0:0:
30,220,9873,1,0,0:0:0:0:
20,200,9987,1,0,0:0:0:0:
20,178,10100,1,0,0:0:0:0:
84,92,10328,2,0,P|124:108|176:104,1,89,0|8,0:0|0:0,0:0:0:0:
256,44,10782,1,0,0:0:0:0:
342,106,11010,2,0,L|368:284,1,178,0|8,0:0|0:0,0:0:0:0:
470,314,11691,6,0,L|458:226,1,89
263,252,12146,2,0,L|275:340,2,89,0|8|0,0:0|0:0|0:0,0:0:0:0:
245,146,12828,2,0,L|68:128,1,178,0|8,0:0|0:0,0:0:0:0:
123,36,13510,6,0,L|212:46,1,89
334,156,13964,2,0,L|245:146,1,89,0|8,0:0|0:0,0:0:0:0:
432,113,14419,2,0,P|440:156|428:205,1,89
384,296,14873,1,8,3:0:0:0:
363,304,14987,1,8,3:0:0:0:
342,311,15100,1,8,0:0:0:0:
256,247,15328,1,8,0:0:0:0:
171,311,15555,5,12,0:0:0:0:
72,272,15782,1,0,0:0:0:0:
48,168,16010,2,0,P|100:132|176:140,1,133.5,8|0,0:0|0:0,0:0:0:0:
218,155,16464,2,0,P|260:167|306:167,1,89,8|0,0:0|0:0,0:0:0:0:
408,136,16919,1,8,0:0:0:0:
496,196,17146,5,0,0:0:0:0:
492,218,17260,1,0,0:0:0:0:
489,240,17373,1,8,0:0:0:0:
471,345,17600,1,0,0:0:0:0:
380,288,17828,2,0,P|336:276|288:284,1,89,8|0,0:0|0:0,0:0:0:0:
198,330,18282,1,8,0:0:0:0:
108,272,18510,2,0,P|116:228|108:184,1,89,0|8,0:0|0:0,0:0:0:0:
54,93,18964,1,0,0:0:0:0:
136,25,19191,5,8,0:0:0:0:
208,104,19419,1,0,0:0:0:0:
308,68,19646,2,0,L|320:212,1,133.5,8|0,0:0|0:0,0:0:0:0:
327,254,20100,2,0,P|365:232|413:228,1,89,8|0,0:0|0:0,0:0:0:0:
254,317,20555,2,0,P|215:338|167:342,1,89,8|0,0:0|0:0,0:0:0:0:
67,316,21010,6,0,L|59:228,1,89,10|0,0:0|0:0,0:0:0:0:
176,132,21464,2,0,L|168:220,1,89,10|0,0:0|0:0,0:0:0:0:
89,91,21919,2,0,P|152:36|249:71,1,178,10|10,0:0|0:0,0:0:0:0:
308,137,22600,1,2,0:0:0:0:
412,112,22828,5,8,0:0:0:0:
472,200,23055,1,0,0:0:0:0:
412,288,23282,2,0,P|348:264|272:284,1,133.5,8|0,0:0|0:0,0:0:0:0:
239,303,23737,2,0,P|179:327|143:327,1,89,8|0,0:0|0:0,0:0:0:0:
56,288,24191,1,8,0:0:0:0:
8,192,24419,5,0,0:0:0:0:
15,171,24532,1,0,0:0:0:0:
23,150,24646,1,8,0:0:0:0:
64,52,24873,1,0,0:0:0:0:
151,111,25100,2,0,P|193:128|236:123,1,89,8|0,0:0|0:0,0:0:0:0:
328,67,25555,2,0,L|340:163,1,89,8|0,0:0|0:0,0:0:0:0:
264,317,26010,2,0,L|252:228,1,89,8|0,0:0|0:0,0:0:0:0:
237,123,26464,5,8,0:0:0:0:
148,64,26691,1,0,0:0:0:0:
72,140,26919,2,0,P|84:180|76:228,1,89,8|0,0:0|0:0,0:0:0:0:
4,304,27373,2,0,L|177:264,1,178,8|8,0:0|0:0,0:0:0:0:
256,192,28055,6,0,P|264:148|256:104,1,89,0|8,0:0|0:0,0:0:0:0:
178,265,28510,2,0,P|170:309|178:353,2,89,0|8|0,0:0|0:0|0:0,0:0:0:0:
256,192,29191,1,8,0:0:0:0:
410,114,29419,1,8,0:0:0:0:
329,267,29646,1,8,0:0:0:0:
306,96,29873,1,8,0:0:0:0:
427,220,30100,6,0,P|438:260|426:312,1,89,4|0,0:0|0:0,0:0:0:0:
329,267,30555,1,8,0:0:0:0:
264,352,30782,1,0,0:0:0:0:
168,304,31010,2,0,L|160:212,1,89
150,109,31464,1,8,0:0:0:0:
240,52,31691,5,0,0:0:0:0:
240,52,31805,1,0,0:0:0:0:
240,52,31919,2,0,P|280:68|336:64,1,89
429,43,32373,1,8,0:0:0:0:
464,144,32600,1,0,0:0:0:0:
416,240,32828,2,0,B|352:240|352:240|296:260|296:260|240:260,1,178,0|8,0:0|0:0,0:0:0:0:
156,196,33510,1,0,0:0:0:0:
68,256,33737,6,0,P|76:299|64:342,1,89
11,173,34191,2,0,P|2:129|14:86,1,89,8|0,0:0|0:0,0:0:0:0:
95,16,34646,1,0,0:0:0:0:
156,104,34873,2,0,P|200:120|256:112,1,89,0|8,0:0|0:0,0:0:0:0:
340,76,35328,1,0,0:0:0:0:
440,112,35555,6,0,L|448:200,1,89
452,223,35896,1,0,0:0:0:0:
456,245,36010,1,8,0:0:0:0:
416,344,36237,2,0,P|368:348|324:336,1,89
256,260,36691,2,0,L|260:208,2,44.5,0|0|8,0:0|0:0|0:0,0:0:0:0:
180,336,37146,5,0,0:0:0:0:
160,346,37260,1,0,0:0:0:0:
138,348,37373,1,0,0:0:0:0:
56,280,37600,1,0,0:0:0:0:
52,258,37714,1,0,0:0:0:0:
48,236,37828,1,8,0:0:0:0:
35,130,38055,1,0,0:0:0:0:
124,72,38282,2,0,P|204:96|312:80,1,178,0|8,0:0|0:0,0:0:0:0:
389,32,38964,5,0,0:0:0:0:
389,32,39078,1,0,0:0:0:0:
389,32,39191,2,0,L|397:128,1,89
407,227,39646,1,8,0:0:0:0:
348,316,39873,1,0,0:0:0:0:
248,280,40100,2,0,L|156:276,1,89
52,272,40555,1,8,0:0:0:0:
52,272,40782,6,0,P|20:192|64:112,1,178
164,92,41464,2,0,P|204:108|268:104,1,89,8|0,0:0|0:0,0:0:0:0:
356,96,41919,1,0,0:0:0:0:
456,132,42146,2,0,L|452:224,1,89,0|8,0:0|0:0,0:0:0:0:
444,327,42600,1,0,0:0:0:0:
355,267,42828,6,0,P|312:252|263:259,1,89
249,265,43169,1,0,0:0:0:0:
229,274,43282,1,8,0:0:0:0:
132,320,43510,2,0,P|88:324|46:309,1,89,0|0,0:0|0:0,0:0:0:0:
4,212,43964,1,0,0:0:0:0:
64,124,44191,1,8,0:0:0:0:
160,168,44419,1,8,0:0:0:0:
179,179,44532,1,8,0:0:0:0:
201,182,44646,1,4,1:0:0:0:
291,124,44873,6,0,L|302:212,1,89,0|0,0:0|0:0,0:0:0:0:
370,295,45328,1,0,3:0:0:0:
378,274,45441,1,0,3:0:0:0:
386,253,45555,1,0,3:0:0:0:
394,232,45669,1,0,3:0:0:0:
402,211,45782,1,0,3:0:0:0:
437,110,46010,1,0,0:0:0:0:
357,39,46237,1,0,0:0:0:0:
292,124,46464,6,0,L|196:132,1,89
91,227,46919,2,0,L|179:234,1,89
286,244,47373,1,8,2:0:0:0:
304,256,47487,1,8,2:0:0:0:
323,267,47600,1,8,2:0:0:0:
418,316,47828,1,10,2:0:0:0:
332,120,48282,6,0,P|288:136|240:128,1,89,4|0,0:0|0:0,0:0:0:0:
144,100,48737,1,8,0:0:0:0:
56,160,48964,1,0,0:0:0:0:
80,264,49191,2,0,P|164:252|252:288,1,178,0|8,0:0|0:0,0:0:0:0:
336,348,49873,1,0,0:0:0:0:
446,322,50100,5,0,0:0:0:0:
302,234,50328,1,0,0:0:0:0:
422,198,50555,1,8,0:0:0:0:
336,348,50782,2,0,L|244:356,1,89
172,280,51237,1,0,0:0:0:0:
72,316,51464,1,8,0:0:0:0:
12,228,51691,6,0,L|24:136,1,89,0|0,0:0|0:0,0:0:0:0:
116,25,52146,2,0,L|127:113,1,89,0|8,0:0|0:0,0:0:0:0:
216,230,52600,2,0,L|227:141,1,89,0|0,0:0|0:0,0:0:0:0:
300,63,53055,1,0,0:0:0:0:
364,148,53282,1,8,0:0:0:0:
468,124,53510,6,0,L|464:36,2,89,0|0|0,0:0|0:0|0:0,0:0:0:0:
432,224,54191,2,0,P|384:224|340:248,1,89,8|0,0:0|0:0,0:0:0:0:
179,325,54646,2,0,P|223:326|264:308,1,89,0|0,0:0|0:0,0:0:0:0:
240,123,55100,2,0,P|195:122|155:140,1,89,8|0,0:0|0:0,0:0:0:0:
330,208,55555,6,0,P|375:209|415:191,1,89,4|0,0:0|0:0,0:0:0:0:
476,104,56010,1,8,0:0:0:0:
388,44,56237,1,0,0:0:0:0:
300,104,56464,2,0,P|232:136|120:120,1,178
32,88,57146,1,0,0:0:0:0:
32,88,57260,1,0,0:0:0:0:
32,88,57373,6,0,L|40:176,1,89
52,283,57828,1,8,0:0:0:0:
140,344,58055,2,0,P|180:348|228:332,1,89
304,260,58510,1,0,0:0:0:0:
404,296,58737,1,8,0:0:0:0:
464,208,58964,6,0,P|484:168|488:120,1,89
310,111,59419,2,0,P|307:66|286:22,1,89,0|8,0:0|0:0,0:0:0:0:
136,116,59873,2,0,P|111:78|71:51,1,89
76,232,60328,1,0,0:0:0:0:
218,339,60555,1,8,0:0:0:0:
384,274,60782,1,0,0:0:0:0:
310,111,61010,6,0,L|220:120,1,89
67,208,61464,2,0,L|155:216,1,89,8|0,0:0|0:0,0:0:0:0:
256,255,61919,1,0,0:0:0:0:
355,216,62146,1,8,3:0:0:0:
364,195,62260,1,8,3:0:0:0:
372,174,62373,1,8,1:0:0:0:
360,68,62600,1,8,1:0:0:0:
264,116,62828,6,0,P|220:128|176:124,1,89,4|0,0:0|0:0,0:0:0:0:
76,92,63282,1,8,0:0:0:0:
28,188,63510,1,0,0:0:0:0:
88,276,63737,2,0,B|144:276|144:276|200:300|200:300|272:296,1,178,0|8,0:0|0:0,0:0:0:0:
368,294,64419,1,0,0:0:0:0:
480,192,64646,5,0,0:0:0:0:
400,64,64873,1,0,0:0:0:0:
256,109,65100,1,8,0:0:0:0:
111,64,65328,2,0,L|100:152,1,89
88,258,65782,1,0,0:0:0:0:
140,352,66010,1,8,0:0:0:0:
244,328,66237,6,0,L|252:240,1,89
340,116,66691,2,0,L|348:204,1,89,0|8,0:0|0:0,0:0:0:0:
428,76,67146,2,0,P|368:24|268:52,1,178
200,116,67828,1,8,0:0:0:0:
100,84,68055,2,0,L|92:176,1,89
86,280,68510,1,0,0:0:0:0:
168,348,68737,2,0,P|212:356|256:348,1,89,8|0,0:0|0:0,0:0:0:0:
407,264,69191,2,0,P|363:256|320:264,1,89
488,308,69646,2,0,P|500:264|488:220,1,89,8|0,0:0|0:0,0:0:0:0:
348,116,70100,6,0,P|303:122|252:120,1,89,4|0,0:0|0:0,0:0:0:0:
156,96,70555,1,8,0:0:0:0:
96,184,70782,1,0,0:0:0:0:
144,280,71010,2,0,P|220:248|316:260,1,178,0|8,0:0|0:0,0:0:0:0:
400,320,71691,1,0,0:0:0:0:
400,320,71805,1,0,0:0:0:0:
400,320,71919,6,0,L|412:228,1,89
424,126,72373,1,8,0:0:0:0:
328,80,72600,2,0,P|284:92|240:88,1,89
140,52,73055,1,0,0:0:0:0:
80,140,73282,1,0,0:0:0:0:
128,236,73510,6,0,P|168:228|216:236,1,89
389,273,73964,2,0,P|345:281|301:273,1,89,0|8,0:0|0:0,0:0:0:0:
475,229,74419,2,0,P|484:270|473:319,1,89
395,156,74873,2,0,P|386:115|397:66,2,89,0|8|0,0:0|0:0|0:0,0:0:0:0:
475,229,75555,5,0,0:0:0:0:
395,300,75782,1,0,0:0:0:0:
304,244,76010,2,0,L|212:240,1,89,8|0,0:0|0:0,0:0:0:0:
109,234,76464,1,8,3:0:0:0:
7,94,76691,1,8,3:0:0:0:
171,147,76919,1,8,0:0:0:0:
7,200,77146,1,8,3:0:0:0:
109,61,77373,6,0,P|148:44|196:44,1,89,4|0,0:0|0:0,0:0:0:0:
296,76,77828,1,8,0:0:0:0:
396,40,78055,1,0,0:0:0:0:
484,100,78282,2,0,L|464:276,1,178,0|8,0:0|0:0,0:0:0:0:
384,348,78964,1,0,0:0:0:0:
362,344,79078,1,0,0:0:0:0:
340,341,79191,1,0,0:0:0:0:
280,252,79419,2,0,P|321:236|368:236,1,89,0|8,0:0|0:0,0:0:0:0:
464,276,79873,1,0,0:0:0:0:
476,170,80100,6,0,L|486:74,1,89
404,12,80555,1,8,0:0:0:0:
316,72,80782,2,0,L|228:80,1,89
84,171,81237,2,0,L|172:179,1,89,0|8,0:0|0:0,0:0:0:0:
256,246,81691,1,0,0:0:0:0:
340,179,81919,6,0,L|516:152,1,178,0|8,0:0|0:0,0:0:0:0:
460,61,82600,2,0,L|360:77,1,89
392,271,83055,2,0,L|479:256,2,89,0|8|0,0:0|0:0|0:0,0:0:0:0:
304,332,83737,2,0,L|120:316,1,178,0|8,0:0|0:0,0:0:0:0:
52,240,84419,1,0,0:0:0:0:
88,140,84646,6,0,P|128:156|176:152,1,89,4|0,0:0|0:0,0:0:0:0:
256,86,85100,1,8,0:0:0:0:
340,153,85328,1,0,0:0:0:0:
423,86,85555,2,0,L|448:264,1,178,0|8,0:0|0:0,0:0:0:0:
396,356,86237,1,0,0:0:0:0:
376,347,86350,1,0,0:0:0:0:
360,331,86464,1,0,0:0:0:0:
284,256,86691,2,0,P|240:260|196:248,1,89,0|8,0:0|0:0,0:0:0:0:
104,196,87146,1,0,0:0:0:0:
189,132,87373,6,0,L|281:124,1,89
360,56,87828,1,8,0:0:0:0:
448,115,88055,2,0,P|435:158|448:200,1,89
504,375,88510,2,0,P|516:332|503:290,1,89,0|8,0:0|0:0,0:0:0:0:
448,200,88964,1,0,0:0:0:0:
360,260,89191,6,0,L|176:280,1,178,0|8,0:0|0:0,0:0:0:0:
76,286,89873,2,0,P|36:264|8:224,1,89
154,124,90328,2,0,P|152:79|169:39,1,89,0|8,0:0|0:0,0:0:0:0:
342,39,90782,2,0,P|359:79|358:124,1,89
501,229,91237,2,0,P|474:264|436:286,1,89,0|8,0:0|0:0,0:0:0:0:
256,192,91691,1,8,0:0:0:0:
75,285,91919,5,6,0:0:0:0:
75,285,92146,2,0,P|44:196|80:124,1,178
131,31,92828,2,0,P|167:63|183:103,1,89
187,271,93282,2,0,P|153:243|136:203,1,89
240,178,93737,5,2,0:0:0:0:
240,178,93964,2,0,L|417:164,1,178
452,63,94646,2,0,P|408:59|363:73,1,89
365,258,95100,2,0,P|407:270|451:266,1,89
417,164,95555,5,2,0:0:0:0:
310,165,95782,1,0,0:0:0:0:
216,112,96010,2,0,P|172:116|128:100,1,89
63,19,96464,2,0,L|78:196,1,178
252,324,97373,5,2,0:0:0:0:
252,324,97600,2,0,L|264:232,1,89
281,130,98055,1,0,0:0:0:0:
281,130,98282,2,0,P|348:84|444:104,1,178
500,188,98964,1,0,0:0:0:0:
464,288,99191,5,8,0:0:0:0:
368,336,99419,1,0,0:0:0:0:
280,276,99646,2,0,P|236:256|196:260,1,89,8|0,0:0|0:0,0:0:0:0:
108,320,100100,2,0,L|96:128,1,178,8|8,0:0|0:0,0:0:0:0:
91,35,100782,5,0,0:0:0:0:
91,35,100896,1,0,0:0:0:0:
91,35,101010,1,8,0:0:0:0:
186,84,101237,2,0,P|228:100|282:96,1,89,0|8,0:0|0:0,0:0:0:0:
372,64,101691,1,0,0:0:0:0:
448,140,101919,2,0,L|440:232,1,89,8|0,0:0|0:0,0:0:0:0:
338,340,102373,2,0,L|330:251,1,89,8|0,0:0|0:0,0:0:0:0:
319,145,102828,5,8,0:0:0:0:
224,96,103055,2,0,P|179:108|128:104,1,89,0|8,0:0|0:0,0:0:0:0:
40,60,103510,1,0,0:0:0:0:
40,60,103737,2,0,L|60:248,1,178,8|8,0:0|0:0,0:0:0:0:
119,326,104419,2,0,P|149:291|164:251,1,89,0|8,0:0|0:0,0:0:0:0:
181,74,104873,2,0,P|151:107|135:148,1,89,0|8,0:0|0:0,0:0:0:0:
164,252,105328,1,0,0:0:0:0:
256,372,105555,5,8,0:0:0:0:
384,292,105782,1,8,0:0:0:0:
332,149,106010,1,8,0:0:0:0:
181,149,106237,1,8,0:0:0:0:
128,292,106464,6,0,L|40:280,1,89,4|0,0:0|0:0,0:0:0:0:
4,179,106919,1,8,0:0:0:0:
83,107,107146,1,0,0:0:0:0:
181,149,107373,2,0,P|260:180|356:164,1,178,0|8,0:0|0:0,0:0:0:0:
450,128,108055,5,0,0:0:0:0:
450,128,108169,1,0,0:0:0:0:
450,128,108282,2,0,L|446:224,1,89
440,324,108737,1,8,0:0:0:0:
340,360,108964,1,0,0:0:0:0:
276,274,109191,2,0,P|232:266|187:268,1,89
166,272,109532,1,0,0:0:0:0:
144,275,109646,1,8,0:0:0:0:
57,338,109873,1,0,0:0:0:0:
57,338,109987,1,0,0:0:0:0:
57,338,110100,6,0,L|49:202,1,133.5
48,182,110555,1,8,0:0:0:0:
116,100,110782,2,0,P|158:111|208:108,1,89
308,88,111237,1,0,0:0:0:0:
412,64,111464,2,0,L|420:156,1,89,8|0,0:0|0:0,0:0:0:0:
420,260,111919,6,0,P|376:244|328:248,1,89,0|0,0:0|0:0,0:0:0:0:
314,255,112260,1,0,0:0:0:0:
295,266,112373,1,8,0:0:0:0:
208,328,112600,2,0,L|120:320,1,89
2,224,113055,2,0,L|90:216,1,89,0|8,0:0|0:0,0:0:0:0:
192,180,113510,5,0,0:0:0:0:
201,160,113623,1,0,0:0:0:0:
211,140,113737,1,0,0:0:0:0:
257,44,113964,1,0,0:0:0:0:
278,52,114078,1,0,0:0:0:0:
300,51,114191,1,8,0:0:0:0:
404,24,114419,1,0,0:0:0:0:
492,84,114646,2,0,L|480:268,1,178,0|8,0:0|0:0,0:0:0:0:
412,344,115328,5,0,0:0:0:0:
412,344,115441,1,0,0:0:0:0:
412,344,115555,2,0,L|324:332,1,89
256,249,116010,1,8,0:0:0:0:
185,328,116237,1,0,0:0:0:0:
86,284,116464,1,0,0:0:0:0:
98,178,116691,1,0,0:0:0:0:
202,156,116919,1,8,0:0:0:0:
256,249,117146,6,0,L|348:240,1,89
493,160,117600,2,0,L|404:151,1,89,0|8,0:0|0:0,0:0:0:0:
340,66,118055,1,0,0:0:0:0:
256,132,118282,1,0,0:0:0:0:
160,84,118510,2,0,L|144:172,1,89,0|8,0:0|0:0,0:0:0:0:
124,276,118964,1,0,0:0:0:0:
212,336,119191,6,0,P|254:323|308:328,1,89
320,332,119532,1,0,0:0:0:0:
341,340,119646,1,8,0:0:0:0:
444,368,119873,2,0,L|452:276,1,89
461,173,120328,1,8,0:0:0:0:
345,38,120555,1,8,0:0:0:0:
167,38,120782,1,8,0:0:0:0:
157,58,120896,1,8,0:0:0:0:
147,78,121010,5,4,1:0:0:0:
111,178,121237,2,0,L|200:188,1,89
305,203,121691,1,0,0:0:0:0:
313,223,121805,1,0,0:0:0:0:
318,245,121919,1,0,0:0:0:0:
315,266,122032,1,0,0:0:0:0:
305,286,122146,1,0,0:0:0:0:
224,356,122373,1,0,0:0:0:0:
136,296,122600,1,0,0:0:0:0:
92,198,122828,6,0,P|130:187|180:198,1,89
349,244,123282,2,0,P|306:254|263:245,1,89
305,146,123737,1,8,0:0:0:0:
326,142,123850,1,8,0:0:0:0:
348,137,123964,1,8,0:0:0:0:
452,112,124191,1,10,2:0:0:0:
452,112,124646,6,0,L|460:200,1,89,4|0,0:0|0:0,0:0:0:0:
472,307,125100,1,8,0:0:0:0:
384,368,125328,1,0,0:0:0:0:
324,280,125555,2,0,P|260:244|148:260,1,178,0|8,0:0|0:0,0:0:0:0:
64,304,126237,1,0,0:0:0:0:
8,164,126464,5,0,0:0:0:0:
128,72,126691,1,0,0:0:0:0:
256,153,126919,1,8,0:0:0:0:
384,72,127146,2,0,L|408:160,1,89
442,259,127600,1,0,0:0:0:0:
368,336,127828,1,8,0:0:0:0:
264,312,128055,6,0,L|256:220,1,89
155,99,128510,2,0,L|147:187,1,89,0|8,0:0|0:0,0:0:0:0:
43,309,128964,2,0,L|35:220,1,89
24,114,129419,1,0,0:0:0:0:
80,23,129646,1,8,0:0:0:0:
155,99,129873,6,0,L|144:204,2,89,0|0|0,0:0|0:0|0:0,0:0:0:0:
232,24,130555,2,0,P|276:16|324:24,1,89,8|0,0:0|0:0,0:0:0:0:
405,179,131010,2,0,P|361:185|317:177,1,89
491,138,131464,2,0,P|499:181|489:224,1,89,8|0,0:0|0:0,0:0:0:0:
403,376,131919,6,0,P|394:332|404:289,1,89,4|0,0:0|0:0,0:0:0:0:
490,225,132373,1,8,0:0:0:0:
404,162,132600,1,0,0:0:0:0:
304,200,132828,2,0,B|248:200|248:200|180:224|180:224|128:224,1,178,0|8,0:0|0:0,0:0:0:0:
23,220,133510,1,0,0:0:0:0:
23,220,133623,1,0,0:0:0:0:
23,220,133737,6,0,P|16:176|24:132,1,89
88,48,134191,1,8,0:0:0:0:
184,96,134419,2,0,P|226:107|280:104,1,89
376,84,134873,1,0,0:0:0:0:
436,172,135100,1,8,0:0:0:0:
369,256,135328,6,0,L|273:264,1,89
107,304,135782,2,0,L|195:311,1,89,0|8,0:0|0:0,0:0:0:0:
31,380,136237,2,0,P|-1:300|39:220,1,178
124,160,136919,2,0,P|167:166|216:164,1,89,8|0,0:0|0:0,0:0:0:0:
316,140,137373,5,0,0:0:0:0:
404,200,137600,1,0,0:0:0:0:
356,296,137828,2,0,P|312:284|260:288,1,89,8|0,0:0|0:0,0:0:0:0:
168,320,138282,1,0,0:0:0:0:
72,272,138510,1,8,3:0:0:0:
65,251,138623,1,8,3:0:0:0:
57,230,138737,1,8,0:0:0:0:
19,130,138964,1,8,3:0:0:0:
100,60,139191,6,0,P|145:75|208:68,1,89
292,56,139646,1,8,0:0:0:0:
380,116,139873,1,0,0:0:0:0:
468,56,140100,2,0,L|428:232,1,178,0|8,0:0|0:0,0:0:0:0:
336,284,140782,1,0,0:0:0:0:
182,327,141009,5,0,0:0:0:0:
264,208,141236,1,0,0:0:0:0:
274,361,141463,1,8,0:0:0:0:
182,241,141691,2,0,L|166:154,1,89
152,47,142146,1,0,0:0:0:0:
256,92,142373,1,8,0:0:0:0:
361,78,142600,6,0,L|369:169,1,89
253,285,143055,2,0,L|245:196,1,89,0|8,0:0|0:0,0:0:0:0:
168,327,143510,2,0,P|244:379|328:343,1,178
384,268,144191,1,8,0:0:0:0:
336,172,144419,6,0,P|296:180|248:176,1,89
176,96,144873,1,0,0:0:0:0:
248,16,145100,2,0,P|291:8|335:18,1,89,8|0,0:0|0:0,0:0:0:0:
176,96,145555,2,0,P|133:103|90:92,1,89
288,116,146010,2,0,P|296:159|288:203,1,89,8|0,0:0|0:0,0:0:0:0:
210,363,146464,6,0,P|202:319|209:275,1,89,4|0,0:0|0:0,0:0:0:0:
288,203,146919,1,8,0:0:0:0:
367,275,147146,1,0,0:0:0:0:
468,240,147373,2,0,P|504:152|472:80,1,178,0|8,0:0|0:0,0:0:0:0:
397,157,148055,1,0,0:0:0:0:
397,157,148169,1,0,0:0:0:0:
397,157,148282,6,0,P|352:164|304:148,1,89
220,96,148737,1,8,0:0:0:0:
120,132,148964,2,0,L|128:224,1,89
139,327,149419,1,0,0:0:0:0:
236,372,149646,1,8,0:0:0:0:
324,312,149873,6,0,P|368:320|412:312,1,89
408,134,150328,2,0,P|364:126|320:134,1,89,0|8,0:0|0:0,0:0:0:0:
166,222,150782,2,0,P|209:229|253:221,1,89
92,144,151237,2,0,P|48:136|4:143,2,89,0|8|0,0:0|0:0|0:0,0:0:0:0:
166,222,151919,5,0,0:0:0:0:
260,172,152146,1,0,0:0:0:0:
320,260,152373,2,0,L|416:252,1,89,8|0,0:0|0:0,0:0:0:0:
496,128,152828,1,8,3:0:0:0:
376,36,153055,1,8,3:0:0:0:
256,128,153282,1,8,0:0:0:0:
136,36,153510,1,8,3:0:0:0:
16,128,153737,6,0,L|24:216,1,89,4|0,0:0|0:0,0:0:0:0:
80,307,154191,1,2,0:0:0:0:
164,240,154419,1,0,0:0:0:0:
182,227,154532,1,0,0:0:0:0:
204,224,154646,1,0,0:0:0:0:
226,227,154760,1,0,0:0:0:0:
246,236,154873,1,0,0:0:0:0:
337,291,155100,1,2,0:0:0:0:
442,268,155328,6,0,L|454:176,1,89
352,44,155782,2,0,L|340:132,1,89,0|2,0:0|0:0,0:0:0:0:
328,240,156237,2,0,L|312:292,1,44.5
197,282,156464,2,0,L|184:240,1,44.5
172,165,156691,1,0,0:0:0:0:
256,99,156919,1,2,0:0:0:0:
340,165,157146,6,0,L|430:156,1,89
256,99,157600,2,0,L|167:86,1,89,0|2,0:0|0:0,0:0:0:0:
63,61,158055,1,0,0:0:0:0:
56,82,158169,1,0,0:0:0:0:
48,103,158282,1,0,0:0:0:0:
42,124,158396,1,0,0:0:0:0:
35,145,158510,1,0,0:0:0:0:
61,248,158737,1,2,0:0:0:0:
148,309,158964,6,0,P|192:299|240:303,1,89
340,325,159419,1,0,0:0:0:0:
401,237,159646,1,2,0:0:0:0:
384,132,159873,2,0,L|376:80,1,44.5
270,15,160100,2,0,L|262:67,1,44.5
247,134,160328,1,0,0:0:0:0:
170,209,160555,1,2,0:0:0:0:
72,164,160782,1,0,0:0:0:0:
0,243,161010,5,12,0:0:0:0:
64,328,161237,1,0,0:0:0:0:
85,321,161350,1,0,0:0:0:0:
106,326,161464,1,8,0:0:0:0:
208,356,161691,1,0,0:0:0:0:
284,280,161919,5,8,0:0:0:0:
224,192,162146,1,0,0:0:0:0:
203,200,162260,1,0,0:0:0:0:
182,193,162373,1,8,0:0:0:0:
112,112,162600,1,0,0:0:0:0:
192,40,162828,5,8,0:0:0:0:
284,96,163055,1,0,0:0:0:0:
302,109,163169,1,0,0:0:0:0:
324,112,163282,1,8,0:0:0:0:
428,88,163510,1,0,0:0:0:0:
488,176,163737,5,8,0:0:0:0:
428,264,163964,1,0,0:0:0:0:
407,256,164078,1,0,0:0:0:0:
385,260,164191,1,8,0:0:0:0:
284,296,164419,1,0,0:0:0:0:
196,236,164646,5,8,0:0:0:0:
96,272,164873,1,0,0:0:0:0:
86,252,164987,1,0,0:0:0:0:
77,232,165100,1,8,0:0:0:0:
35,133,165328,1,0,0:0:0:0:
104,52,165555,5,8,0:0:0:0:
192,112,165782,1,0,0:0:0:0:
210,125,165896,1,0,0:0:0:0:
232,128,166010,1,8,0:0:0:0:
323,73,166237,6,0,L|335:173,1,89
484,256,166691,2,0,L|496:156,1,89
359,284,167146,1,0,0:0:0:0:
256,255,167373,1,8,0:0:0:0:
248,276,167487,1,8,0:0:0:0:
241,297,167600,1,8,0:0:0:0:
164,372,167828,1,10,0:0:0:0:
16,220,168282,6,0,L|8:120,1,89,4|0,0:0|0:0,0:0:0:0:
76,48,168737,1,8,0:0:0:0:
164,108,168964,1,0,0:0:0:0:
252,48,169191,2,0,P|328:20|432:40,1,178,0|8,0:0|0:0,0:0:0:0:
512,98,169873,1,0,0:0:0:0:
424,252,170100,5,0,0:0:0:0:
256,192,170328,1,0,0:0:0:0:
88,252,170555,1,8,0:0:0:0:
0,98,170782,2,0,P|44:112|92:104,1,89
184,64,171237,1,0,0:0:0:0:
256,143,171464,1,8,0:0:0:0:
352,96,171691,6,0,L|364:4,1,89
456,160,172146,2,0,L|468:252,1,89,0|8,0:0|0:0,0:0:0:0:
320,347,172600,2,0,L|332:255,1,89
256,183,173055,1,0,0:0:0:0:
168,244,173282,1,8,0:0:0:0:
92,168,173510,6,0,P|83:119|96:80,2,89
168,244,174191,2,0,L|256:252,1,89,8|0,0:0|0:0,0:0:0:0:
400,359,174646,2,0,L|312:351,1,89
336,175,175100,2,0,L|424:183,1,89,8|0,0:0|0:0,0:0:0:0:
304,52,175555,6,0,L|216:44,1,89,4|0,0:0|0:0,0:0:0:0:
112,16,176010,1,8,0:0:0:0:
52,104,176237,1,0,0:0:0:0:
112,192,176464,2,0,P|180:160|284:176,1,178,0|8,0:0|0:0,0:0:0:0:
372,228,177146,1,0,0:0:0:0:
372,228,177260,1,0,0:0:0:0:
372,228,177373,6,0,L|380:140,1,89
392,32,177828,1,8,0:0:0:0:
294,75,178055,2,0,P|246:91|202:83,1,89
104,64,178510,1,0,0:0:0:0:
44,152,178737,1,8,0:0:0:0:
125,221,178964,6,0,L|133:317,1,89
277,205,179419,2,0,L|285:109,1,89,0|8,0:0|0:0,0:0:0:0:
213,279,179873,2,0,P|333:289|372:241,1,178
411,157,180555,2,0,L|423:57,1,89,8|0,0:0|0:0,0:0:0:0:
324,24,181010,5,0,0:0:0:0:
256,106,181237,1,0,0:0:0:0:
188,24,181464,1,8,0:0:0:0:
90,68,181691,2,0,L|101:157,1,89,8|0,0:0|0:0,0:0:0:0:
121,269,182146,1,8,3:0:0:0:
127,290,182260,1,8,3:0:0:0:
132,311,182373,1,8,0:0:0:0:
256,359,182600,1,8,0:0:0:0:
376,300,182828,6,0,L|388:204,1,89,4|0,0:0|0:0,0:0:0:0:
396,106,183282,1,8,0:0:0:0:
296,144,183510,1,0,0:0:0:0:
232,56,183737,2,0,P|168:32|67:74,1,178,0|8,0:0|0:0,0:0:0:0:
12,160,184419,1,0,0:0:0:0:
88,300,184646,5,0,0:0:0:0:
108,156,184873,1,0,0:0:0:0:
3,259,185100,1,8,0:0:0:0:
150,238,185328,2,0,L|240:232,1,89
327,172,185782,1,0,0:0:0:0:
400,251,186010,1,8,0:0:0:0:
491,196,186237,6,0,P|502:151|491:106,1,89
338,23,186691,2,0,P|326:67|337:112,1,89,0|8,0:0|0:0,0:0:0:0:
434,65,187146,2,0,L|242:81,1,178
150,67,187828,1,8,0:0:0:0:
58,121,188055,6,0,P|42:73|48:33,2,89
130,200,188737,2,0,L|226:208,1,89,8|0,0:0|0:0,0:0:0:0:
344,333,189191,2,0,L|248:325,1,89
398,218,189646,2,0,L|494:226,1,89,8|0,0:0|0:0,0:0:0:0:
387,78,190100,6,0,L|291:70,1,89,4|0,0:0|0:0,0:0:0:0:
204,20,190555,1,0,0:0:0:0:
116,80,190782,1,0,0:0:0:0:
32,13,191010,2,0,L|52:201,1,178,0|8,0:0|0:0,0:0:0:0:
69,295,191691,1,0,0:0:0:0:
69,295,191805,1,0,0:0:0:0:
69,295,191919,6,0,P|109:280|157:288,1,89
256,317,192373,1,8,0:0:0:0:
355,278,192600,2,0,L|368:176,1,89
356,84,193055,1,0,0:0:0:0:
256,46,193282,1,8,0:0:0:0:
156,84,193510,6,0,P|168:124|152:172,1,89
57,317,193964,2,0,P|45:277|61:229,1,89,0|8,0:0|0:0,0:0:0:0:
231,275,194419,2,0,P|189:288|146:276,1,89
284,163,194873,2,0,P|325:149|368:161,2,89,0|8|0,0:0|0:0|0:0,0:0:0:0:
231,275,195555,5,0,0:0:0:0:
132,200,195782,1,0,0:0:0:0:
12,236,196010,2,0,L|4:136,1,89,8|0,0:0|0:0,0:0:0:0:
52,32,196464,1,8,3:0:0:0:
140,120,196691,1,8,3:0:0:0:
256,74,196919,1,8,0:0:0:0:
372,120,197146,1,8,3:0:0:0:
460,32,197373,6,0,L|476:124,1,89,4|0,0:0|0:0,0:0:0:0:
500,224,197828,1,8,0:0:0:0:
412,284,198055,1,0,0:0:0:0:
320,230,198282,2,0,B|272:208|272:208|148:220,1,178,0|8,0:0|0:0,0:0:0:0:
40,216,198964,5,0,0:0:0:0:
33,194,199078,1,0,0:0:0:0:
28,173,199191,1,0,0:0:0:0:
64,72,199419,2,0,P|104:85|160:80,1,89,0|8,0:0|0:0,0:0:0:0:
256,65,199873,1,0,0:0:0:0:
361,82,200100,2,0,L|384:264,1,178,0|8,0:0|0:0,0:0:0:0:
298,324,200782,6,0,L|278:228,1,89
166,100,201237,2,0,L|184:187,1,89,0|8,0:0|0:0,0:0:0:0:
280,237,201691,1,0,0:0:0:0:
368,176,201919,2,0,P|404:88|366:19,1,178
296,99,202600,6,0,P|252:111|208:107,1,89
108,72,203055,1,0,0:0:0:0:
20,132,203282,2,0,L|12:224,1,89,8|0,0:0|0:0,0:0:0:0:
8,328,203737,2,0,P|68:296|184:308,1,178,0|8,0:0|0:0,0:0:0:0:
256,374,204419,1,0,0:0:0:0:
336,303,204646,6,0,L|432:292,1,89,4|0,0:0|0:0,0:0:0:0:
484,204,205100,1,8,0:0:0:0:
436,108,205328,1,0,0:0:0:0:
336,144,205555,2,0,P|248:176|156:160,1,178,0|8,0:0|0:0,0:0:0:0:
68,120,206237,5,0,0:0:0:0:
64,143,206350,1,0,0:0:0:0:
60,165,206464,1,0,0:0:0:0:
45,271,206691,2,0,P|84:256|149:263,1,89,0|8,0:0|0:0,0:0:0:0:
236,276,207146,1,0,0:0:0:0:
324,216,207373,2,0,L|504:196,1,178
440,108,208055,6,0,L|344:100,1,89
176,136,208510,2,0,L|264:143,1,89
120,40,208964,1,0,0:0:0:0:
120,40,209191,2,0,L|96:216,1,178,0|8,0:0|0:0,0:0:0:0:
79,322,209873,6,0,P|117:344|175:342,1,89
350,345,210328,2,0,P|394:344|433:322,1,89,0|8,0:0|0:0,0:0:0:0:
300,192,210782,2,0,P|256:184|212:192,1,89
124,252,211237,1,8,2:0:0:0:
344,80,211464,1,8,0:0:0:0:
388,252,211691,1,8,2:0:0:0:
168,80,211918,5,4,1:0:0:0:
256,192,212032,12,0,214646,0:0:0:0:
