osu file format v14

[General]
AudioFilename: track.mp3
AudioLeadIn: 2000
PreviewTime: 44646
Countdown: 0
SampleSet: Soft
StackLeniency: 0.7
Mode: 0
LetterboxInBreaks: 0
SkinPreference:Default
WidescreenStoryboard: 0

[Editor]
Bookmarks: 14873,42373,169191,175100
DistanceSpacing: 1.2
BeatDivisor: 4
GridSize: 4
TimelineZoom: 1.8

[Metadata]
Title:Fekete feher
TitleUnicode:Fekete fehér
Artist:Unique
ArtistUnicode:Unique
Creator:Kazuya
Version:Medium
Source:
Tags:hungarian magyar best of kazuya-sama
BeatmapID:672037
BeatmapSetID:266003

[Difficulty]
HPDrainRate:3
CircleSize:3
OverallDifficulty:3
ApproachRate:5
SliderMultiplier:1
SliderTickRate:1

[Events]
//Background and Video events
0,0,"bg.jpg",0,0
//Break Periods
//Storyboard Layer 0 (Background)
//Storyboard Layer 1 (Fail)
//Storyboard Layer 2 (Pass)
//Storyboard Layer 3 (Foreground)
//Storyboard Sound Samples

[TimingPoints]
100,454.545454545455,4,2,1,60,1,0
1010,454.545454545455,4,1,1,60,1,0
15555,-100,4,2,1,80,0,0
44646,-100,4,3,1,60,0,0
48282,-100,4,1,1,70,0,1
77373,-100,4,1,1,70,0,0
91919,-100,4,2,1,80,0,0
121010,-100,4,3,1,60,0,0
124646,-100,4,1,1,70,0,1
153737,-100,4,3,1,80,0,0
161010,-100,4,2,1,80,0,0
168282,-100,4,1,1,70,0,1
197373,-100,4,1,1,70,0,0
211919,-100,4,2,1,60,0,0
212373,-100,4,2,1,55,0,0
212828,-100,4,2,1,50,0,0
213282,-100,4,2,1,35,0,0
213737,-100,4,2,1,25,0,0
214191,-100,4,2,1,15,0,0
214646,-100,4,2,1,5,0,0

[Colours]
Combo1 : 218,114,37
Combo2 : 228,207,12
Combo3 : 143,124,112
Combo4 : 117,155,100
SliderBorder : 255,255,255

[HitObjects]
140,300,1010,6,0,L|132:196,1,100,4|8,0:0|0:0,0:0:0:0:
132,80,1919,2,0,P|184:96|244:92,1,100,0|8,0:0|0:0,0:0:0:0:
285,73,2600,2,0,P|324:56|449:65,1,150,0|8,0:0|0:0,0:0:0:0:
488,164,3737,2,0,L|480:276,1,100,0|8,0:0|0:0,0:0:0:0:
476,323,4419,6,0,P|424:303|332:307,1,150,0|8,0:0|0:0,0:0:0:0:
212,324,5555,2,0,L|108:312,1,100
60,284,6237,2,0,P|72:236|68:184,1,100,2|2,2:0|2:0,0:0:0:0:
44,68,7146,2,0,L|156:64,1,100,2|2,2:0|2:0,0:0:0:0:
256,108,8055,1,2,2:0:0:0:
256,108,8282,6,0,P|306:117|368:112,1,100,4|0,0:0|0:0,0:0:0:0:
472,88,9191,2,0,L|480:196,1,100,0|8,0:0|0:0,0:0:0:0:
480,248,9873,2,0,P|424:236|332:280,1,150,0|8,0:0|0:0,0:0:0:0:
240,336,11010,2,0,L|128:324,1,100,0|8,0:0|0:0,0:0:0:0:
83,309,11691,2,0,P|55:253|79:173,1,150,0|8,0:0|0:0,0:0:0:0:
172,96,12828,6,0,P|217:106|280:104,1,100,0|8,0:0|0:0,0:0:0:0:
324,80,13510,2,0,P|372:72|424:80,1,100,2|2,2:0|2:0,0:0:0:0:
504,168,14419,1,2,2:0:0:0:
444,272,14873,2,0,P|416:272|384:280,1,50
337,294,15328,2,0,P|312:298|287:298,1,50,0|4,0:0|0:0,0:0:0:0:
172,264,16010,5,0,0:0:0:0:
64,316,16464,2,0,L|60:204,1,100
56,96,17373,1,0,0:0:0:0:
152,24,17828,1,0,0:0:0:0:
208,130,18282,2,0,P|256:146|316:142,1,100
412,88,19191,5,0,0:0:0:0:
488,180,19646,1,0,0:0:0:0:
392,252,20100,2,0,P|340:240|288:244,1,100,0|0,0:0|0:0,0:0:0:0:
184,292,21010,2,0,P|131:295|84:280,1,100,2|2,0:0|0:0,0:0:0:0:
12,188,21919,1,2,0:0:0:0:
84,92,22373,2,0,L|72:40,2,50,2|2|0,0:0|0:0|0:0,0:0:0:0:
110,209,23282,5,0,0:0:0:0:
220,160,23737,2,0,P|252:144|328:156,1,100,0|0,0:0|0:0,0:0:0:0:
423,200,24646,1,0,0:0:0:0:
372,308,25100,2,0,P|341:300|316:304,1,50,0|0,0:0|0:0,0:0:0:0:
264,315,25555,2,0,P|216:323|152:319,1,100,0|0,0:0|0:0,0:0:0:0:
52,280,26464,5,0,0:0:0:0:
44,160,26919,2,0,L|40:104,2,50,0|0|2,0:0|0:0|0:0,0:0:0:0:
52,280,27828,2,0,P|80:279|104:288,1,50,2|2,0:0|0:0,0:0:0:0:
216,324,28510,2,0,P|239:331|264:330,1,50,2|0,0:0|0:0,0:0:0:0:
316,304,28964,2,0,L|324:188,1,100,2|2,0:0|0:0,0:0:0:0:
280,92,29873,1,2,0:0:0:0:
280,92,30100,6,0,P|229:103|172:100,1,100,4|8,0:0|0:0,0:0:0:0:
61,96,31010,2,0,L|57:200,1,100,0|8,0:0|0:0,0:0:0:0:
56,256,31691,2,0,P|104:244|204:284,1,150,0|8,0:0|0:0,0:0:0:0:
304,332,32828,2,0,L|416:320,1,100,0|8,0:0|0:0,0:0:0:0:
460,300,33510,6,0,P|480:224|456:152,1,150,0|8,0:0|0:0,0:0:0:0:
376,72,34646,1,0,0:0:0:0:
280,144,35100,2,0,L|288:200,2,50,8|0|0,0:0|0:0|0:0,0:0:0:0:
208,48,36010,1,8,0:0:0:0:
208,48,36237,2,0,P|144:26|56:36,1,150,0|8,0:0|0:0,0:0:0:0:
12,144,37373,6,0,L|20:256,1,100,0|8,0:0|0:0,0:0:0:0:
100,332,38282,2,0,P|140:320|208:328,1,100,0|8,0:0|0:0,0:0:0:0:
255,342,38964,2,0,P|304:356|411:350,1,150,0|8,0:0|0:0,0:0:0:0:
484,264,40100,2,0,L|492:160,1,100,0|8,0:0|0:0,0:0:0:0:
495,104,40782,6,0,P|456:80|339:88,1,150,0|8,0:0|0:0,0:0:0:0:
256,150,41919,1,0,0:0:0:0:
156,80,42373,2,0,L|164:24,2,50,8|0|0,0:0|0:0|0:0,0:0:0:0:
140,199,43282,1,8,0:0:0:0:
140,199,43510,2,0,P|216:188|288:232,1,150,0|8,0:0|0:0,0:0:0:0:
352,316,44646,5,0,0:0:0:0:
460,264,45100,1,2,0:0:0:0:
492,148,45555,1,0,0:0:0:0:
396,76,46010,2,0,P|368:84|336:80,1,50,2|0,0:0|0:0,0:0:0:0:
289,70,46464,2,0,P|245:54|173:62,1,100,0|2,0:0|0:0,0:0:0:0:
86,112,47373,2,0,L|71:60,2,50,8|8|2,0:0|0:0|2:0,0:0:0:0:
112,228,48282,6,0,P|160:224|224:240,1,100,4|8,0:0|0:0,0:0:0:0:
324,272,49191,2,0,P|372:282|422:278,1,100,0|8,0:0|0:0,0:0:0:0:
480,173,50100,2,0,P|454:161|428:161,1,50
373,156,50555,2,0,P|348:154|325:143,1,50,8|0,0:0|0:0,0:0:0:0:
212,104,51237,2,0,P|183:99|156:104,1,50
104,120,51691,6,0,L|96:8,2,100,2|2|2,2:0|2:0|2:0,0:0:0:0:
112,240,53055,2,0,P|140:248|164:248,1,50,2|8,2:0|0:0,0:0:0:0:
220,236,53510,2,0,P|264:224|368:244,1,150,2|8,2:0|0:0,0:0:0:0:
464,310,54646,2,0,L|480:198,1,100,2|8,2:0|0:0,0:0:0:0:
444,96,55555,6,0,P|392:104|344:96,1,100,4|8,0:0|0:0,0:0:0:0:
240,40,56464,2,0,P|190:32|141:40,1,100,0|8,0:0|0:0,0:0:0:0:
30,84,57373,1,0,0:0:0:0:
30,84,57600,2,0,P|16:132|32:184,1,100
128,248,58510,2,0,P|158:247|188:256,1,50
236,264,58964,6,0,L|228:152,2,100,2|2|2,2:0|2:0|2:0,0:0:0:0:
328,340,60328,2,0,P|356:331|400:336,1,50,2|0,2:0|0:0,0:0:0:0:
492,296,61010,1,2,2:0:0:0:
448,184,61464,1,8,0:0:0:0:
448,184,61691,2,0,P|392:152|296:168,1,150,2|8,2:0|0:0,0:0:0:0:
216,236,62828,6,0,L|96:248,1,100,0|8,0:0|0:0,0:0:0:0:
12,188,63737,2,0,L|20:88,1,100,0|8,0:0|0:0,0:0:0:0:
132,44,64646,2,0,P|161:47|184:44,1,50
240,32,65100,2,0,P|264:29|289:32,1,50,8|0,0:0|0:0,0:0:0:0:
400,80,65782,2,0,L|404:132,1,50,0|8,0:0|0:0,0:0:0:0:
410,190,66237,6,0,P|452:204|518:194,2,100,2|2|2,2:0|2:0|2:0,0:0:0:0:
296,152,67600,2,0,P|264:144|236:148,1,50,2|8,2:0|0:0,0:0:0:0:
188,156,68055,2,0,P|112:172|36:152,1,150,2|8,2:0|0:0,0:0:0:0:
71,39,69191,2,0,P|120:32|171:39,1,100,2|8,2:0|0:0,0:0:0:0:
284,76,70100,6,0,P|328:88|384:84,1,100,4|8,0:0|0:0,0:0:0:0:
488,28,71010,2,0,L|496:131,1,100,0|8,0:0|0:0,0:0:0:0:
500,188,71691,2,0,P|448:184|400:204,1,100,2|2,2:0|2:0,0:0:0:0:
304,268,72600,1,2,2:0:0:0:
192,224,73055,2,0,P|160:215|128:216,1,50,2|8,2:0|0:0,0:0:0:0:
84,208,73510,6,0,L|76:88,2,100,2|2|2,2:0|2:0|2:0,0:0:0:0:
88,328,74873,2,0,P|128:312|196:320,1,100,2|0,2:0|2:0,0:0:0:0:
304,324,75782,2,0,L|308:272,1,50,2|8,2:0|0:0,0:0:0:0:
360,244,76237,2,0,L|364:192,1,50,2|2,2:0|2:0,0:0:0:0:
300,92,76919,2,0,P|273:100|240:96,1,50,8|0,0:0|0:0,0:0:0:0:
193,86,77373,6,0,P|146:76|73:82,1,100,4|8,0:0|0:0,0:0:0:0:
0,156,78282,2,0,L|4:264,1,100,0|8,0:0|0:0,0:0:0:0:
6,316,78964,2,0,P|42:340|146:336,1,150,0|8,0:0|0:0,0:0:0:0:
184,224,80100,2,0,L|200:108,1,100
209,66,80782,2,0,P|247:46|369:62,1,150,0|8,0:0|0:0,0:0:0:0:
420,151,81919,2,0,L|428:259,2,100,0|8|0,0:0|0:0|0:0,0:0:0:0:
352,52,83282,6,0,P|324:56|292:56,1,50,8|0,0:0|0:0,0:0:0:0:
244,48,83737,2,0,P|205:38|132:44,1,100,0|8,0:0|0:0,0:0:0:0:
42,101,84646,5,4,0:0:0:0:
8,216,85100,1,8,0:0:0:0:
92,302,85555,2,0,P|140:290|204:298,1,100,0|8,0:0|0:0,0:0:0:0:
248,310,86237,2,0,P|292:326|400:330,1,150,0|8,0:0|0:0,0:0:0:0:
478,245,87373,2,0,L|486:137,1,100
486,85,88055,6,0,P|432:52|336:68,1,150,0|8,0:0|0:0,0:0:0:0:
244,120,89191,2,0,P|190:122|136:112,1,100,0|8,0:0|0:0,0:0:0:0:
88,96,89873,2,0,L|80:212,1,100,2|2,2:0|2:0,0:0:0:0:
104,314,90782,1,2,2:0:0:0:
221,288,91237,2,0,L|285:280,1,50,8|8,3:0|0:0,0:0:0:0:
316,243,91691,2,0,L|380:235,1,50,8|6,3:0|0:0,0:0:0:0:
419,209,92146,6,0,P|456:156|419:78,1,150
320,27,93282,1,0,0:0:0:0:
274,138,93737,1,2,0:0:0:0:
274,138,93964,2,0,P|214:170|122:158,1,150
44,84,95100,1,0,0:0:0:0:
0,196,95555,5,2,0:0:0:0:
88,278,96010,2,0,P|118:276|148:286,1,50
194,299,96464,2,0,P|238:311|302:311,1,100
388,240,97373,2,0,L|392:184,1,50,2|0,0:0|0:0,0:0:0:0:
284,136,98055,2,0,L|280:185,1,50
180,252,98737,6,0,L|183:301,2,50,0|0|10,0:0|0:0|0:0,0:0:0:0:
76,192,99646,2,0,L|72:142,1,50,8|0,0:0|0:0,0:0:0:0:
68,84,100100,2,0,P|104:68|184:80,1,100,8|8,0:0|0:0,0:0:0:0:
256,148,101010,1,10,0:0:0:0:
376,140,101464,2,0,L|380:192,1,50,8|0,0:0|0:0,0:0:0:0:
384,248,101919,2,0,P|330:240|272:260,1,100,8|8,0:0|0:0,0:0:0:0:
176,300,102828,5,10,0:0:0:0:
104,204,103282,1,8,0:0:0:0:
172,104,103737,2,0,P|221:109|276:104,1,100,8|8,0:0|0:0,0:0:0:0:
330,92,104419,2,0,P|379:87|429:93,1,100,2|2,0:0|0:0,0:0:0:0:
508,184,105328,1,2,0:0:0:0:
508,184,105555,2,0,L|500:284,1,100,10|10,0:0|0:0,0:0:0:0:
404,356,106464,5,4,0:0:0:0:
308,284,106919,1,8,0:0:0:0:
192,316,107373,2,0,L|84:324,1,100,0|8,0:0|0:0,0:0:0:0:
32,316,108055,2,0,P|8:244|32:176,1,150,0|8,0:0|0:0,0:0:0:0:
120,96,109191,1,0,0:0:0:0:
216,168,109646,1,8,0:0:0:0:
312,96,110100,6,0,P|354:108|416:104,1,100,0|8,0:0|0:0,0:0:0:0:
464,80,110782,2,0,L|480:252,1,150,0|8,0:0|0:0,0:0:0:0:
416,332,111919,2,0,P|366:320|308:328,1,100,0|8,0:0|0:0,0:0:0:0:
261,344,112600,2,0,P|216:357|113:356,1,150,0|8,0:0|0:0,0:0:0:0:
20,280,113737,5,0,0:0:0:0:
92,184,114191,1,8,0:0:0:0:
204,228,114646,2,0,L|216:128,1,100,0|8,0:0|0:0,0:0:0:0:
225,69,115328,2,0,P|269:49|381:69,1,150,0|8,0:0|0:0,0:0:0:0:
472,120,116464,1,0,0:0:0:0:
436,236,116919,1,8,0:0:0:0:
436,236,117146,6,0,P|360:208|272:220,1,150,0|8,0:0|0:0,0:0:0:0:
176,244,118282,1,0,0:0:0:0:
168,124,118737,2,0,L|164:64,2,50,8|0|0,0:0|0:0|0:0,0:0:0:0:
176,244,119646,1,8,0:0:0:0:
176,244,119873,2,0,P|224:232|320:264,1,150,0|8,0:0|0:0,0:0:0:0:
412,340,121010,5,4,1:0:0:0:
472,236,121464,1,2,0:0:0:0:
376,164,121919,1,0,0:0:0:0:
280,236,122373,2,0,L|220:228,1,50,2|0,0:0|0:0,0:0:0:0:
176,204,122828,2,0,P|164:156|180:108,1,100,0|2,0:0|0:0,0:0:0:0:
280,44,123737,2,0,L|348:40,2,50,8|8|10,3:0|3:0|2:0,0:0:0:0:
180,108,124646,6,0,L|80:112,1,100,4|8,0:0|0:0,0:0:0:0:
28,220,125555,2,0,L|128:224,1,100,0|8,0:0|0:0,0:0:0:0:
228,291,126464,2,0,L|284:295,1,50
329,326,126919,2,0,L|385:330,1,50,8|0,0:0|0:0,0:0:0:0:
456,236,127600,2,0,P|453:207|460:180,1,50,0|8,0:0|0:0,0:0:0:0:
476,129,128055,6,0,P|488:82|484:21,2,100,2|2|2,2:0|2:0|2:0,0:0:0:0:
376,196,129419,2,0,P|346:202|312:200,1,50,2|8,2:0|0:0,0:0:0:0:
268,184,129873,2,0,P|220:172|120:184,1,150,2|8,2:0|0:0,0:0:0:0:
20,248,131010,1,2,2:0:0:0:
92,344,131464,1,8,0:0:0:0:
208,312,131919,6,0,L|312:304,1,100,4|8,0:0|0:0,0:0:0:0:
368,200,132828,2,0,L|264:192,1,100,0|8,0:0|0:0,0:0:0:0:
148,184,133737,1,0,0:0:0:0:
148,184,133964,2,0,P|136:128|148:88,1,100
256,36,134873,2,0,P|284:44|324:44,1,50,0|8,0:0|0:0,0:0:0:0:
364,36,135328,6,0,P|396:26|468:24,2,100,2|2|2,2:0|2:0|2:0,0:0:0:0:
292,132,136691,2,0,L|284:192,1,50,2|8,2:0|0:0,0:0:0:0:
216,280,137373,1,2,2:0:0:0:
100,248,137828,1,8,0:0:0:0:
100,248,138055,2,0,P|72:176|100:112,1,150,2|8,2:0|0:0,0:0:0:0:
188,32,139191,6,0,P|234:49|304:40,1,100,4|8,0:0|0:0,0:0:0:0:
404,40,140100,2,0,L|408:144,1,100,0|8,0:0|0:0,0:0:0:0:
412,260,141010,2,0,P|382:256|360:264,1,50
307,283,141464,2,0,P|282:289|258:285,1,50,8|0,0:0|0:0,0:0:0:0:
160,216,142146,2,0,L|156:160,1,50,0|8,0:0|0:0,0:0:0:0:
150,106,142600,6,0,P|104:88|38:94,2,100,2|2|2,2:0|2:0|2:0,0:0:0:0:
256,160,143964,2,0,P|281:166|312:164,1,50,2|8,2:0|0:0,0:0:0:0:
360,140,144419,2,0,L|368:296,1,150,2|8,2:0|0:0,0:0:0:0:
256,335,145555,1,2,2:0:0:0:
144,289,146010,1,8,0:0:0:0:
208,188,146464,6,0,P|256:192|308:176,1,100,4|8,0:0|0:0,0:0:0:0:
408,116,147373,2,0,L|416:216,1,100,0|8,0:0|0:0,0:0:0:0:
419,276,148055,2,0,P|371:272|315:296,1,100,2|2,2:0|2:0,0:0:0:0:
220,352,148964,1,2,2:0:0:0:
124,280,149419,2,0,P|128:248|120:224,1,50,2|8,2:0|0:0,0:0:0:0:
100,176,149873,6,0,P|92:124|104:76,2,100,2|2|2,2:0|2:0|2:0,0:0:0:0:
180,264,151237,2,0,P|228:260|280:280,1,100,2|2,2:0|2:0,0:0:0:0:
387,323,152146,2,0,L|395:271,1,50,2|8,2:0|0:0,0:0:0:0:
438,232,152600,2,0,L|446:180,1,50,2|2,2:0|2:0,0:0:0:0:
384,80,153282,2,0,P|353:86|316:84,1,50,8|8,0:0|3:0,0:0:0:0:
275,79,153737,6,0,P|231:67|163:71,1,100,4|2,1:0|0:0,0:0:0:0:
64,108,154646,2,0,L|68:208,1,100,0|2,0:0|0:0,0:0:0:0:
72,268,155328,2,0,P|116:296|216:296,1,150,0|2,0:0|0:0,0:0:0:0:
315,236,156464,2,0,L|419:228,1,100,0|2,0:0|0:0,0:0:0:0:
470,205,157146,6,0,P|494:129|470:65,1,150,0|2,0:0|0:0,0:0:0:0:
356,28,158282,2,0,L|252:20,2,100,0|2|0,0:0|0:0|0:0,0:0:0:0:
471,65,159646,2,0,L|475:125,1,50,2|0,0:0|0:0,0:0:0:0:
476,175,160100,2,0,P|424:171|376:187,1,100,0|2,0:0|0:0,0:0:0:0:
276,248,161010,6,0,L|168:256,1,100,12|8,0:0|0:0,0:0:0:0:
68,204,161919,2,0,L|60:100,1,100,8|8,0:0|0:0,0:0:0:0:
144,19,162828,1,8,0:0:0:0:
208,120,163282,1,8,0:0:0:0:
312,60,163737,2,0,L|320:160,1,100,8|8,0:0|0:0,0:0:0:0:
328,280,164646,5,8,0:0:0:0:
220,332,165100,1,8,0:0:0:0:
120,264,165555,2,0,L|112:160,1,100,8|8,0:0|0:0,0:0:0:0:
107,104,166237,2,0,P|67:88|-1:92,2,100,2|2|2,2:0|2:0|2:0,0:0:0:0:
316,320,168282,6,0,L|420:324,1,100,4|8,0:0|0:0,0:0:0:0:
488,228,169191,2,0,L|480:124,1,100,0|8,0:0|0:0,0:0:0:0:
372,76,170100,2,0,P|341:80|320:76,1,50
268,52,170555,2,0,P|243:48|218:52,1,50,8|0,0:0|0:0,0:0:0:0:
128,132,171237,2,0,L|120:188,1,50,0|8,0:0|0:0,0:0:0:0:
92,232,171691,6,0,P|41:249|-4:244,2,100,2|2|2,2:0|2:0|2:0,0:0:0:0:
192,165,173055,2,0,P|218:161|252:168,1,50,2|8,2:0|0:0,0:0:0:0:
296,188,173510,2,0,P|368:200|444:188,1,150,2|8,2:0|0:0,0:0:0:0:
419,71,174646,2,0,P|371:63|319:71,1,100,2|8,2:0|0:0,0:0:0:0:
217,132,175555,6,0,L|213:244,1,100,4|8,0:0|0:0,0:0:0:0:
208,352,176464,2,0,P|247:366|312:360,1,100,0|8,0:0|0:0,0:0:0:0:
412,308,177373,1,0,0:0:0:0:
412,308,177600,2,0,L|420:204,1,100
360,104,178510,2,0,P|330:99|308:104,1,50,0|8,0:0|0:0,0:0:0:0:
252,120,178964,6,0,L|244:12,2,100,2|2|2,2:0|2:0|2:0,0:0:0:0:
336,206,180328,2,0,L|340:266,1,50,2|8,2:0|0:0,0:0:0:0:
257,344,181010,1,2,2:0:0:0:
160,276,181464,1,8,0:0:0:0:
160,276,181691,2,0,L|152:120,1,150,2|8,2:0|0:0,0:0:0:0:
40,83,182828,6,0,L|44:183,1,100,4|8,0:0|0:0,0:0:0:0:
52,304,183737,2,0,P|104:296|164:316,1,100,0|8,0:0|0:0,0:0:0:0:
256,361,184646,2,0,L|316:365,1,50
364,349,185100,2,0,L|424:353,1,50,8|0,0:0|0:0,0:0:0:0:
480,252,185782,2,0,P|473:222|476:200,1,50,0|8,0:0|0:0,0:0:0:0:
484,144,186237,6,0,P|492:88|484:44,2,100,2|2|2,2:0|2:0|2:0,0:0:0:0:
399,229,187600,2,0,P|372:226|343:237,1,50,2|8,2:0|0:0,0:0:0:0:
296,258,188055,2,0,P|240:274|144:270,1,150,2|8,2:0|0:0,0:0:0:0:
40,220,189191,1,0,0:0:0:0:
92,112,189646,1,8,0:0:0:0:
208,144,190100,6,0,P|257:155|312:152,1,100,4|8,0:0|0:0,0:0:0:0:
412,96,191010,2,0,L|416:200,1,100,0|8,0:0|0:0,0:0:0:0:
416,256,191691,2,0,P|364:252|316:272,1,100,2|2,2:0|2:0,0:0:0:0:
216,328,192600,1,2,2:0:0:0:
116,260,193055,2,0,L|112:208,1,50,2|8,2:0|0:0,0:0:0:0:
105,150,193510,6,0,P|61:130|-3:142,2,100,2|2|2,2:0|2:0|2:0,0:0:0:0:
196,228,194873,2,0,P|241:248|290:242,1,100,2|2,2:0|2:0,0:0:0:0:
339,133,195782,2,0,P|315:125|279:125,1,50,2|8,2:0|0:0,0:0:0:0:
230,128,196237,2,0,P|205:126|181:118,1,50,2|2,2:0|2:0,0:0:0:0:
76,60,196919,6,0,L|79:10,2,50,8|8|4,0:0|3:0|0:0,0:0:0:0:
68,180,197828,1,8,0:0:0:0:
140,276,198282,2,0,P|186:262|240:272,1,100,0|8,0:0|0:0,0:0:0:0:
292,293,198964,2,0,P|344:316|440:312,1,150,0|8,0:0|0:0,0:0:0:0:
500,212,200100,2,0,L|496:112,1,100,0|8,0:0|0:0,0:0:0:0:
491,52,200782,6,0,P|447:32|336:44,1,150,0|8,0:0|0:0,0:0:0:0:
256,120,201919,2,0,L|148:104,2,100,0|8|0,0:0|0:0|0:0,0:0:0:0:
360,180,203282,2,0,L|364:236,1,50,8|0,0:0|0:0,0:0:0:0:
366,290,203737,2,0,P|314:286|258:306,1,100,0|8,0:0|0:0,0:0:0:0:
160,351,204646,5,4,0:0:0:0:
64,280,205100,1,8,0:0:0:0:
96,164,205555,2,0,P|144:178|196:172,1,100,0|8,0:0|0:0,0:0:0:0:
248,149,206237,2,0,P|292:137|400:149,1,150,0|8,0:0|0:0,0:0:0:0:
455,251,207373,2,0,P|410:267|351:259,1,100,0|8,0:0|0:0,0:0:0:0:
301,246,208055,6,0,P|225:238|153:262,1,150,0|8,0:0|0:0,0:0:0:0:
52,320,209191,2,0,L|44:220,1,100,0|8,0:0|0:0,0:0:0:0:
43,160,209873,2,0,P|83:144|147:148,1,100,2|2,2:0|2:0,0:0:0:0:
251,188,210782,2,0,P|300:190|347:173,2,100,2|2|2,2:0|2:0|2:0,0:0:0:0:
256,192,211919,12,0,214646,0:0:0:0:
