osu file format v14

[General]
AudioFilename: track.mp3
AudioLeadIn: 2000
PreviewTime: 44646
Countdown: 0
SampleSet: None
StackLeniency: 0.7
Mode: 0
LetterboxInBreaks: 0
SkinPreference:Default
WidescreenStoryboard: 0

[Editor]
Bookmarks: 14873,169191,175100
DistanceSpacing: 1.2
BeatDivisor: 4
GridSize: 4
TimelineZoom: 1.8

[Metadata]
Title:Fekete feher
TitleUnicode:Fekete fehér
Artist:Unique
ArtistUnicode:Unique
Creator:Kazuya
Version:Heavy
Source:
Tags:hungarian magyar best of kazuya-sama
BeatmapID:607637
BeatmapSetID:266003

[Difficulty]
HPDrainRate:5
CircleSize:3.5
OverallDifficulty:5
ApproachRate:7
SliderMultiplier:1.44
SliderTickRate:1

[Events]
//Background and Video events
0,0,"bg.jpg",0,0
//Break Periods
//Storyboard Layer 0 (Background)
//Storyboard Layer 1 (Fail)
//Storyboard Layer 2 (Pass)
//Storyboard Layer 3 (Foreground)
//Storyboard Sound Samples

[TimingPoints]
100,454.545454545455,4,2,1,60,1,0
1010,454.545454545455,4,1,1,60,1,0
15555,-100,4,2,1,80,0,0
44646,-100,4,3,1,60,0,0
48282,-100,4,1,1,70,0,1
77373,-100,4,1,1,70,0,0
91919,-100,4,2,1,80,0,0
121010,-100,4,3,1,60,0,0
124646,-100,4,1,1,70,0,1
153737,-100,4,3,1,80,0,0
161010,-100,4,2,1,80,0,0
168282,-100,4,1,1,70,0,1
197373,-100,4,1,1,70,0,0
211919,-100,4,2,1,60,0,0
212373,-100,4,2,1,55,0,0
212828,-100,4,2,1,50,0,0
213282,-100,4,2,1,35,0,0
213737,-100,4,2,1,25,0,0
214191,-100,4,2,1,15,0,0
214646,-100,4,2,1,5,0,0

[Colours]
Combo1 : 218,114,37
Combo2 : 228,207,12
Combo3 : 143,124,112
Combo4 : 117,155,100
SliderBorder : 255,255,255

[HitObjects]
48,328,1010,6,0,L|52:244,1,72,4|0,0:0|0:0,0:0:0:0:
56,170,1464,1,8,0:0:0:0:
115,105,1691,1,0,0:0:0:0:
188,152,1919,2,0,P|256:172|328:152,1,144,0|8,0:0|0:0,0:0:0:0:
376,84,2600,6,0,L|368:12,1,72
447,133,3055,2,0,L|455:205,1,72,0|8,0:0|0:0,0:0:0:0:
464,291,3510,1,0,0:0:0:0:
380,268,3737,2,0,P|316:240|240:256,1,144,0|8,0:0|0:0,0:0:0:0:
173,301,4419,6,0,P|141:313|93:309,1,72
126,229,4873,2,0,P|99:207|79:163,1,72,0|8,0:0|0:0,0:0:0:0:
108,92,5328,1,0,0:0:0:0:
108,92,5555,2,0,L|252:76,1,144,0|8,0:0|0:0,0:0:0:0:
336,60,6237,6,0,P|336:96|316:132,1,72
252,262,6691,2,0,P|251:226|267:194,1,72,0|8,0:0|0:0,0:0:0:0:
336,248,7146,2,0,L|196:212,1,144
126,163,7828,1,8,0:0:0:0:
179,95,8055,1,0,0:0:0:0:
265,102,8282,6,0,L|337:122,1,72,4|0,0:0|0:0,0:0:0:0:
416,92,8737,1,8,0:0:0:0:
464,164,8964,1,0,0:0:0:0:
416,236,9191,2,0,P|352:224|284:260,1,144,0|8,0:0|0:0,0:0:0:0:
225,322,9873,6,0,L|205:252,1,72
104,155,10328,2,0,L|123:224,1,72,0|8,0:0|0:0,0:0:0:0:
206,253,10782,1,0,0:0:0:0:
260,185,11010,2,0,P|320:144|392:168,1,144,0|8,0:0|0:0,0:0:0:0:
444,224,11691,6,0,P|452:260|444:296,1,72
365,260,12146,2,0,P|353:295|329:322,1,72,0|8,0:0|0:0,0:0:0:0:
256,364,12600,1,0,0:0:0:0:
181,321,12828,2,0,L|32:296,1,144,0|8,0:0|0:0,0:0:0:0:
18,213,13510,6,0,L|92:226,1,72
227,184,13964,2,0,L|156:171,1,72,0|8,0:0|0:0,0:0:0:0:
295,132,14419,2,0,L|437:155,1,144
512,252,15100,1,8,0:0:0:0:
409,319,15328,1,8,0:0:0:0:
288,304,15555,6,0,P|253:311|218:310,1,72,4|0,0:0|0:0,0:0:0:0:
160,244,16010,2,0,B|104:240|104:240|50:251,1,108
16,228,16464,2,0,P|-4:160|32:96,2,144,0|0|0,0:0|0:0|0:0,0:0:0:0:
93,266,17600,1,0,0:0:0:0:
164,216,17828,2,0,P|200:220|244:208,1,72
316,184,18282,1,0,0:0:0:0:
388,136,18510,2,0,P|420:124|468:128,2,72,0|0|0,0:0|0:0|0:0,0:0:0:0:
316,184,19191,5,0,0:0:0:0:
256,121,19419,1,0,0:0:0:0:
181,164,19646,2,0,P|128:168|80:136,1,108
56,108,20100,2,0,L|48:184,1,72
80,260,20555,2,0,P|112:272|152:272,1,72
228,236,21010,2,0,L|304:232,1,72,2|0,0:0|0:0,0:0:0:0:
410,151,21464,2,0,L|338:154,1,72,2|0,0:0|0:0,0:0:0:0:
468,87,21919,2,0,P|496:152|464:216,1,144,2|2,0:0|0:0,0:0:0:0:
396,264,22600,1,2,0:0:0:0:
324,216,22828,5,0,0:0:0:0:
244,248,23055,1,0,0:0:0:0:
172,200,23282,2,0,L|96:192,1,72
31,140,23737,2,0,P|31:68|83:20,2,144,0|0|0,0:0|0:0|0:0,0:0:0:0:
100,192,24873,1,0,0:0:0:0:
172,144,25100,2,0,P|208:136|248:140,1,72
300,204,25555,2,0,L|280:60,2,144,0|0|0,0:0|0:0|0:0,0:0:0:0:
312,290,26691,5,0,0:0:0:0:
240,340,26919,2,0,L|168:332,1,72
111,268,27373,2,0,P|131:196|111:132,1,144
45,75,28055,2,0,L|189:91,1,144
256,144,28737,1,0,0:0:0:0:
323,91,28964,2,0,L|467:75,2,144,0|0|0,0:0|0:0|0:0,0:0:0:0:
256,144,30100,6,0,L|248:224,1,72,4|0,0:0|0:0,0:0:0:0:
196,284,30555,1,8,0:0:0:0:
116,252,30782,1,0,0:0:0:0:
68,324,31010,2,0,L|56:176,1,144,0|8,0:0|0:0,0:0:0:0:
48,94,31691,1,0,0:0:0:0:
132,116,31919,6,0,P|168:128|212:124,1,72
284,100,32373,1,8,0:0:0:0:
356,148,32600,1,0,0:0:0:0:
428,100,32828,2,0,L|440:256,1,144,0|8,0:0|0:0,0:0:0:0:
440,330,33510,6,0,P|376:360|296:344,1,144
232,304,34191,2,0,P|196:292|160:296,1,72,8|0,0:0|0:0,0:0:0:0:
78,313,34646,1,0,0:0:0:0:
48,232,34873,2,0,L|56:152,1,72,0|8,0:0|0:0,0:0:0:0:
108,92,35328,1,0,0:0:0:0:
188,124,35555,6,0,P|256:144|328:124,1,144,0|8,0:0|0:0,0:0:0:0:
399,80,36237,2,0,L|391:8,1,72
461,142,36691,2,0,L|453:214,1,72,0|8,0:0|0:0,0:0:0:0:
440,299,37146,1,0,0:0:0:0:
364,340,37373,6,0,P|328:344|280:332,1,72
228,280,37828,1,8,0:0:0:0:
148,312,38055,1,0,0:0:0:0:
68,280,38282,2,0,B|48:212|48:212|72:140,1,144,0|8,0:0|0:0,0:0:0:0:
111,66,38964,1,0,0:0:0:0:
184,112,39191,6,0,P|256:124|328:112,1,144,0|8,0:0|0:0,0:0:0:0:
404,76,39873,1,0,0:0:0:0:
476,124,40100,2,0,L|464:200,1,72
448,280,40555,1,8,0:0:0:0:
400,352,40782,6,0,P|352:368|264:348,1,144
200,288,41464,2,0,P|208:252|200:216,1,72,8|0,0:0|0:0,0:0:0:0:
161,141,41919,1,0,0:0:0:0:
89,188,42146,2,0,L|5:192,2,72,0|8|0,0:0|0:0|0:0,0:0:0:0:
161,141,42828,6,0,L|304:128,1,144,0|8,0:0|0:0,0:0:0:0:
376,177,43510,2,0,L|448:169,1,72
318,240,43964,2,0,L|246:248,1,72,0|8,0:0|0:0,0:0:0:0:
172,292,44419,2,0,L|176:336,2,36,8|8|4,0:0|0:0|1:0,0:0:0:0:
104,239,44873,6,0,L|98:167,1,72,0|2,0:0|0:0,0:0:0:0:
152,100,45328,1,0,0:0:0:0:
224,148,45555,1,0,0:0:0:0:
296,100,45782,2,0,L|292:28,2,72,0|2|0,0:0|0:0|0:0,0:0:0:0:
304,188,46464,2,0,P|248:236|172:220,1,144,0|2,0:0|0:0,0:0:0:0:
80,88,47373,2,0,L|88:44,2,36,0|0|0,0:0|0:0|0:0,0:0:0:0:
64,173,47828,1,10,2:0:0:0:
186,305,48282,6,0,P|254:323|323:303,1,144,4|8,0:0|0:0,0:0:0:0:
323,80,49191,2,0,P|254:60|186:79,1,144,0|8,0:0|0:0,0:0:0:0:
117,131,49873,1,0,0:0:0:0:
49,184,50100,2,0,P|33:150|33:112,2,72,0|0|8,0:0|0:0|0:0,0:0:0:0:
124,228,50782,2,0,L|200:236,1,72
256,172,51237,1,0,0:0:0:0:
316,235,51464,1,8,0:0:0:0:
388,188,51691,6,0,L|391:116,1,72,0|0,0:0|0:0,0:0:0:0:
472,209,52146,2,0,L|475:280,1,72,0|8,0:0|0:0,0:0:0:0:
420,347,52600,2,0,P|364:316|280:328,1,144
212,368,53282,1,8,0:0:0:0:
154,304,53510,2,0,L|78:312,2,72,0|0|0,0:0|0:0|0:0,0:0:0:0:
233,270,54191,2,0,P|253:238|256:200,1,72,8|0,0:0|0:0,0:0:0:0:
213,86,54646,2,0,P|193:116|188:151,1,72
323,151,55100,2,0,P|318:116|299:86,1,72,8|0,0:0|0:0,0:0:0:0:
256,204,55555,6,0,P|321:236|389:207,1,144,4|8,0:0|0:0,0:0:0:0:
432,140,56237,1,0,0:0:0:0:
504,188,56464,2,0,L|496:340,1,144,0|8,0:0|0:0,0:0:0:0:
424,380,57146,1,0,0:0:0:0:
352,332,57373,2,0,L|276:320,1,72
212,268,57828,1,8,0:0:0:0:
244,188,58055,2,0,P|284:160|388:180,1,144
448,216,58737,1,8,0:0:0:0:
504,150,58964,6,0,L|512:78,1,72,0|0,0:0|0:0,0:0:0:0:
448,216,59419,2,0,L|440:288,1,72,0|8,0:0|0:0,0:0:0:0:
388,356,59873,2,0,P|344:320|252:328,1,144
180,356,60555,2,0,P|144:364|96:360,1,72,8|0,0:0|0:0,0:0:0:0:
32,323,61010,1,0,0:0:0:0:
8,240,61237,1,0,0:0:0:0:
80,192,61464,1,8,0:0:0:0:
152,240,61691,2,0,P|216:252|304:232,1,144,0|0,0:0|0:0,0:0:0:0:
364,188,62373,2,0,L|372:112,1,72,8|0,0:0|0:0,0:0:0:0:
324,44,62828,6,0,P|400:32|448:76,1,144,4|8,0:0|0:0,0:0:0:0:
188,44,63737,2,0,P|112:32|64:76,1,144,0|8,0:0|0:0,0:0:0:0:
34,154,64419,1,0,0:0:0:0:
88,224,64646,2,0,P|120:212|156:216,1,72
240,241,65100,1,8,0:0:0:0:
320,275,65328,2,0,P|355:279|388:267,1,72
456,213,65782,1,0,0:0:0:0:
472,128,66010,1,8,0:0:0:0:
404,72,66237,6,0,P|365:69|328:80,1,72,0|0,0:0|0:0,0:0:0:0:
193,133,66691,2,0,P|229:136|264:128,1,72,0|8,0:0|0:0,0:0:0:0:
222,52,67146,2,0,L|237:203,1,144
244,280,67828,1,8,0:0:0:0:
196,352,68055,2,0,P|164:364|116:360,2,72,0|0|0,0:0|0:0|0:0,0:0:0:0:
244,280,68737,2,0,L|256:204,1,72,8|0,0:0|0:0,0:0:0:0:
172,88,69191,2,0,L|184:160,1,72
328,160,69646,2,0,L|339:88,1,72,8|0,0:0|0:0,0:0:0:0:
255,209,70100,6,0,P|303:244|385:226,1,144,4|8,0:0|0:0,0:0:0:0:
444,168,70782,1,0,0:0:0:0:
404,91,71010,2,0,P|356:56|274:74,1,144,0|8,0:0|0:0,0:0:0:0:
216,132,71691,2,0,P|180:140|140:136,1,72
58,136,72146,2,0,L|52:220,1,72,0|8,0:0|0:0,0:0:0:0:
72,292,72600,2,0,P|136:320|204:296,1,144
256,228,73282,1,8,0:0:0:0:
309,296,73510,6,0,P|316:332|304:372,1,72,0|0,0:0|0:0,0:0:0:0:
256,228,73964,2,0,P|249:192|261:152,1,72,0|8,0:0|0:0,0:0:0:0:
336,120,74419,2,0,L|188:100,1,144
124,52,75100,1,8,0:0:0:0:
52,100,75328,1,0,0:0:0:0:
72,184,75555,5,0,0:0:0:0:
156,204,75782,2,0,L|136:280,2,72,0|8|0,0:0|0:0|0:0,0:0:0:0:
184,124,76464,2,0,P|232:96|328:116,1,144,0|8,0:0|0:0,0:0:0:0:
388,157,77146,1,0,0:0:0:0:
472,136,77373,6,0,L|476:212,1,72,4|0,0:0|0:0,0:0:0:0:
480,295,77828,1,8,0:0:0:0:
428,364,78055,1,0,0:0:0:0:
356,316,78282,2,0,L|204:304,1,144,0|8,0:0|0:0,0:0:0:0:
144,252,78964,6,0,L|72:256,1,72
216,204,79419,2,0,L|288:200,1,72,0|8,0:0|0:0,0:0:0:0:
364,160,79873,1,0,0:0:0:0:
300,102,80100,2,0,P|244:78|148:102,1,144,0|8,0:0|0:0,0:0:0:0:
90,136,80782,6,0,L|94:224,1,72
172,244,81237,2,0,L|176:332,1,72,0|8,0:0|0:0,0:0:0:0:
256,347,81691,1,0,0:0:0:0:
316,284,81919,2,0,P|376:252|452:272,1,144,0|8,0:0|0:0,0:0:0:0:
504,204,82600,6,0,L|492:116,1,72
415,16,83055,2,0,L|405:87,1,72,0|8,0:0|0:0,0:0:0:0:
393,173,83510,1,0,0:0:0:0:
321,125,83737,2,0,P|261:97|169:113,1,144,0|8,0:0|0:0,0:0:0:0:
108,144,84419,1,0,0:0:0:0:
54,77,84646,6,0,L|66:225,1,144,4|8,0:0|0:0,0:0:0:0:
74,307,85328,1,0,0:0:0:0:
144,256,85555,2,0,P|192:228|288:236,1,144,0|8,0:0|0:0,0:0:0:0:
344,288,86237,2,0,P|360:256|364:220,1,72
332,84,86691,2,0,P|315:116|311:151,1,72,0|8,0:0|0:0,0:0:0:0:
398,142,87146,1,0,0:0:0:0:
398,56,87373,2,0,P|334:76|250:64,1,144,0|8,0:0|0:0,0:0:0:0:
176,40,88055,6,0,P|144:32|100:40,1,72
37,90,88510,2,0,L|41:178,1,72,0|8,0:0|0:0,0:0:0:0:
44,248,88964,1,0,0:0:0:0:
124,216,89191,2,0,P|180:184|260:192,1,144,0|8,0:0|0:0,0:0:0:0:
328,240,89873,6,0,L|335:311,1,72
400,187,90328,2,0,L|407:115,1,72,0|8,0:0|0:0,0:0:0:0:
328,81,90782,2,0,P|256:93|184:81,1,144
70,42,91464,1,8,0:0:0:0:
0,142,91691,1,8,0:0:0:0:
64,243,91919,5,6,0:0:0:0:
134,192,92146,2,0,P|175:168|272:176,1,144
340,224,92828,2,0,L|344:296,1,72
417,176,93282,2,0,L|421:104,1,72
352,52,93737,1,2,0:0:0:0:
272,84,93964,2,0,P|184:104|120:92,1,144
88,21,94646,2,0,L|72:176,1,144
140,324,95555,5,2,0:0:0:0:
220,356,95782,1,0,0:0:0:0:
292,308,96010,2,0,P|324:296|368:300,1,72
432,348,96464,2,0,L|444:196,1,144
332,72,97373,1,2,0:0:0:0:
260,120,97600,2,0,P|225:132|180:124,1,72
108,104,98055,1,0,0:0:0:0:
36,152,98282,2,0,L|48:304,1,144
100,364,98964,1,0,0:0:0:0:
172,316,99191,5,0,0:0:0:0:
256,338,99419,1,0,0:0:0:0:
316,276,99646,2,0,P|308:240|316:200,1,72
392,169,100100,2,0,L|224:149,1,144
180,100,100782,1,0,0:0:0:0:
99,131,101010,1,0,0:0:0:0:
60,54,101237,2,0,L|42:207,1,144
112,250,101919,2,0,L|120:334,1,72
202,209,102373,2,0,L|210:125,1,72
219,51,102828,5,0,0:0:0:0:
300,80,103055,2,0,P|352:104|444:96,1,144
497,36,103737,2,0,L|481:208,1,144
420,238,104419,2,0,L|426:309,1,72
343,197,104873,2,0,L|351:105,1,72
320,44,105328,1,0,0:0:0:0:
245,87,105555,2,0,P|181:115|89:99,1,144
28,76,106237,1,0,0:0:0:0:
4,160,106464,6,0,L|8:244,1,72,4|0,0:0|0:0,0:0:0:0:
12,318,106919,1,8,0:0:0:0:
76,376,107146,1,0,0:0:0:0:
138,316,107373,2,0,P|202:288|282:300,1,144,0|8,0:0|0:0,0:0:0:0:
356,324,108055,1,0,0:0:0:0:
428,276,108282,6,0,L|444:132,1,144,0|8,0:0|0:0,0:0:0:0:
404,56,108964,1,0,0:0:0:0:
332,104,109191,2,0,P|288:128|184:112,1,144,0|8,0:0|0:0,0:0:0:0:
117,86,109873,1,0,0:0:0:0:
57,148,110100,6,0,P|88:208|72:280,1,144,0|8,0:0|0:0,0:0:0:0:
1,329,110782,2,0,L|177:321,1,144
212,268,111464,2,0,L|284:264,1,72,8|0,0:0|0:0,0:0:0:0:
316,183,111919,6,0,L|168:191,1,144,0|8,0:0|0:0,0:0:0:0:
100,144,112600,2,0,P|92:108|104:72,1,72
172,191,113055,2,0,P|180:227|168:263,1,72,0|8,0:0|0:0,0:0:0:0:
104,316,113510,1,0,0:0:0:0:
104,316,113737,6,0,L|248:308,1,144,0|8,0:0|0:0,0:0:0:0:
320,260,114419,1,0,0:0:0:0:
400,292,114646,2,0,L|406:147,1,144,0|8,0:0|0:0,0:0:0:0:
409,62,115328,1,0,0:0:0:0:
328,92,115555,6,0,P|256:104|184:92,1,144,0|8,0:0|0:0,0:0:0:0:
108,56,116237,1,0,0:0:0:0:
28,88,116464,2,0,L|20:168,1,72
13,246,116919,1,8,0:0:0:0:
80,300,117146,6,0,L|88:376,1,72
172,264,117600,2,0,L|180:188,1,72,0|8,0:0|0:0,0:0:0:0:
188,106,118055,1,0,0:0:0:0:
268,139,118282,1,0,0:0:0:0:
347,104,118510,2,0,L|340:16,2,72,0|8|0,0:0|0:0|0:0,0:0:0:0:
348,192,119191,6,0,P|276:180|212:216,1,144,0|8,0:0|0:0,0:0:0:0:
176,288,119873,2,0,P|180:324|172:360,1,72
97,244,120328,2,0,P|92:207|101:172,1,72,0|8,0:0|0:0,0:0:0:0:
156,108,120782,2,0,L|148:64,2,36,8|8|12,0:0|0:0|0:0,0:0:0:0:
204,180,121237,6,0,P|237:191|288:188,1,72,0|2,0:0|0:0,0:0:0:0:
352,156,121691,1,0,0:0:0:0:
406,224,121919,1,0,0:0:0:0:
488,196,122146,2,0,L|500:104,2,72,0|2|0,0:0|0:0|0:0,0:0:0:0:
464,279,122828,2,0,P|404:248|316:268,1,144,0|2,0:0|0:0,0:0:0:0:
256,303,123510,1,0,0:0:0:0:
198,239,123737,2,0,L|164:196,2,36,8|8|8,0:0|0:0|0:0,0:0:0:0:
256,304,124191,1,12,0:0:0:0:
326,79,124646,6,0,P|258:61|189:81,1,144,4|8,0:0|0:0,0:0:0:0:
189,304,125555,2,0,P|258:324|326:305,1,144,0|8,0:0|0:0,0:0:0:0:
395,253,126237,1,0,0:0:0:0:
463,200,126464,2,0,P|479:234|479:272,2,72,0|0|8,0:0|0:0|0:0,0:0:0:0:
388,156,127146,2,0,L|312:148,1,72
256,212,127601,1,0,0:0:0:0:
196,149,127828,1,8,0:0:0:0:
124,196,128055,6,0,L|121:268,1,72,0|0,0:0|0:0,0:0:0:0:
40,175,128510,2,0,L|37:104,1,72,0|8,0:0|0:0,0:0:0:0:
92,37,128964,2,0,P|148:68|232:56,1,144
300,16,129646,1,8,0:0:0:0:
358,80,129874,2,0,L|434:72,2,72,0|0|0,0:0|0:0|0:0,0:0:0:0:
279,114,130555,2,0,P|259:146|256:184,1,72,8|0,0:0|0:0,0:0:0:0:
299,298,131010,2,0,P|319:268|324:233,1,72
189,233,131464,2,0,P|194:268|213:298,1,72,8|0,0:0|0:0,0:0:0:0:
256,180,131919,6,0,P|191:148|123:177,1,144,4|8,0:0|0:0,0:0:0:0:
80,244,132601,1,0,0:0:0:0:
3,203,132828,2,0,L|11:51,1,144,0|8,0:0|0:0,0:0:0:0:
83,12,133510,1,0,0:0:0:0:
160,52,133737,2,0,L|236:64,1,72
300,116,134192,1,8,0:0:0:0:
268,196,134419,2,0,P|228:224|124:204,1,144
64,168,135101,1,8,0:0:0:0:
8,234,135328,6,0,L|0:306,1,72,0|0,0:0|0:0,0:0:0:0:
64,168,135783,2,0,L|72:96,1,72,0|8,0:0|0:0,0:0:0:0:
124,28,136237,2,0,P|168:64|260:56,1,144
332,28,136919,2,0,P|368:20|416:24,1,72,8|0,0:0|0:0,0:0:0:0:
480,61,137374,1,0,0:0:0:0:
504,144,137601,1,0,0:0:0:0:
432,192,137828,1,8,0:0:0:0:
360,144,138055,2,0,P|296:132|208:152,1,144,0|0,0:0|0:0,0:0:0:0:
148,196,138737,2,0,L|140:272,1,72,8|0,0:0|0:0,0:0:0:0:
188,340,139192,6,0,P|112:352|64:308,1,144,4|8,0:0|0:0,0:0:0:0:
324,340,140101,2,0,P|400:352|448:308,1,144,0|8,0:0|0:0,0:0:0:0:
478,230,140783,1,0,0:0:0:0:
424,160,141010,2,0,P|392:172|356:168,1,72
272,143,141464,1,8,0:0:0:0:
192,109,141692,2,0,P|157:105|124:117,1,72
56,171,142146,1,0,0:0:0:0:
40,256,142374,1,8,0:0:0:0:
108,312,142601,6,0,P|147:315|184:304,1,72,0|0,0:0|0:0,0:0:0:0:
319,251,143055,2,0,P|283:248|248:256,1,72,0|8,0:0|0:0,0:0:0:0:
290,332,143510,2,0,L|275:181,1,144
268,104,144192,1,8,0:0:0:0:
316,32,144419,2,0,P|348:20|396:24,2,72,0|0|0,0:0|0:0|0:0,0:0:0:0:
268,104,145101,2,0,L|256:180,1,72,8|0,0:0|0:0,0:0:0:0:
340,296,145555,2,0,L|328:224,1,72
184,224,146010,2,0,L|173:296,1,72,8|0,0:0|0:0,0:0:0:0:
257,175,146464,6,0,P|209:140|127:158,1,144,4|8,0:0|0:0,0:0:0:0:
68,216,147146,1,0,0:0:0:0:
108,293,147374,2,0,P|156:328|238:310,1,144,0|8,0:0|0:0,0:0:0:0:
296,252,148055,2,0,P|332:244|372:248,1,72
454,248,148510,2,0,L|460:164,1,72,0|8,0:0|0:0,0:0:0:0:
440,92,148964,2,0,P|376:64|308:88,1,144
256,156,149646,1,8,0:0:0:0:
203,88,149874,6,0,P|196:52|208:12,1,72,0|0,0:0|0:0,0:0:0:0:
256,156,150328,2,0,P|263:192|251:232,1,72,0|8,0:0|0:0,0:0:0:0:
176,264,150783,2,0,L|324:284,1,144
388,332,151464,1,8,0:0:0:0:
460,284,151692,1,0,0:0:0:0:
440,200,151919,1,0,0:0:0:0:
356,180,152146,2,0,L|376:104,2,72,0|8|0,0:0|0:0|0:0,0:0:0:0:
328,260,152828,2,0,P|280:288|184:268,1,144,0|8,0:0|0:0,0:0:0:0:
124,227,153510,1,0,0:0:0:0:
120,140,153737,6,0,L|116:56,2,72,4|0|2,1:0|0:0|0:0,0:0:0:0:
124,227,154419,1,0,0:0:0:0:
128,312,154646,2,0,P|160:336|260:332,1,144,0|2,0:0|0:0,0:0:0:0:
336,292,155328,6,0,P|344:328|336:364,1,72
264,246,155782,2,0,P|256:210|264:174,1,72,0|2,0:0|0:0,0:0:0:0:
329,120,156237,1,0,0:0:0:0:
329,120,156464,2,0,P|261:140|169:124,1,144,0|2,0:0|0:0,0:0:0:0:
112,92,157146,6,0,L|116:12,1,72
32,128,157600,2,0,L|36:208,1,72,0|2,0:0|0:0,0:0:0:0:
40,286,158055,1,0,0:0:0:0:
116,244,158282,2,0,P|184:216|268:232,1,144,0|2,0:0|0:0,0:0:0:0:
332,260,158964,1,0,0:0:0:0:
406,216,159191,5,0,0:0:0:0:
488,244,159419,2,0,L|492:320,2,72,0|2|0,0:0|0:0|0:0,0:0:0:0:
480,158,160100,2,0,P|404:166|332:146,1,144,0|2,0:0|0:0,0:0:0:0:
256,120,160782,1,0,0:0:0:0:
172,149,161010,6,0,P|144:212|172:288,1,144,12|8,0:0|0:0,0:0:0:0:
224,344,161691,1,0,0:0:0:0:
296,296,161919,2,0,L|440:284,1,144,8|8,0:0|0:0,0:0:0:0:
508,232,162600,2,0,P|516:192|508:160,1,72,0|8,0:0|0:0,0:0:0:0:
391,92,163055,2,0,P|383:132|391:164,1,72,0|8,0:0|0:0,0:0:0:0:
455,41,163510,1,0,0:0:0:0:
455,41,163737,2,0,P|391:65|307:49,1,144,8|8,0:0|0:0,0:0:0:0:
237,22,164419,6,0,L|244:96,1,72,0|8,0:0|0:0,0:0:0:0:
118,147,164873,2,0,L|125:73,1,72,0|8,0:0|0:0,0:0:0:0:
49,190,165328,1,0,0:0:0:0:
49,190,165555,2,0,P|117:174|189:190,1,144,8|8,0:0|0:0,0:0:0:0:
240,259,166237,6,0,L|228:115,2,144
244,344,167373,2,0,P|220:348|204:344,2,36,8|8|8,0:0|0:0|0:0,0:0:0:0:
316,296,167828,1,10,0:0:0:0:
434,168,168282,6,0,B|416:136|432:100|432:100|388:96|378:59,1,144,4|8,0:0|0:0,0:0:0:0:
134,59,169191,2,0,B|124:96|80:100|80:100|96:136|76:172,1,144,0|8,0:0|0:0,0:0:0:0:
55,252,169873,1,0,0:0:0:0:
92,330,170100,2,0,P|57:337|20:330,2,72,0|0|8,0:0|0:0|0:0,0:0:0:0:
160,276,170782,2,0,L|168:196,1,72
177,118,171237,1,0,0:0:0:0:
256,152,171464,1,8,0:0:0:0:
335,118,171691,6,0,L|340:44,1,72
432,148,172146,2,0,L|437:222,1,72,0|8,0:0|0:0,0:0:0:0:
497,282,172600,2,0,P|433:254|337:274,1,144
280,293,173282,1,8,0:0:0:0:
220,228,173510,2,0,P|211:190|216:152,2,72
280,293,174191,2,0,L|292:368,1,72,8|0,0:0|0:0,0:0:0:0:
381,260,174646,2,0,L|393:185,1,72
283,107,175100,2,0,L|295:182,1,72,8|0,0:0|0:0,0:0:0:0:
345,50,175555,6,0,P|281:70|197:58,1,144,4|8,0:0|0:0,0:0:0:0:
124,32,176237,1,0,0:0:0:0:
56,85,176464,2,0,P|40:149|56:229,1,144
92,302,177146,1,0,0:0:0:0:
173,272,177373,2,0,P|204:260|261:268,1,72
328,272,177828,1,8,0:0:0:0:
408,240,178055,2,0,L|424:92,1,144
376,24,178737,1,8,0:0:0:0:
316,84,178964,6,0,P|280:80|244:84,1,72
172,200,179419,2,0,P|208:204|244:200,1,72,0|8,0:0|0:0,0:0:0:0:
124,133,179873,2,0,L|136:285,1,144
144,364,180555,2,0,P|177:351|228:360,1,72,8|0,0:0|0:0,0:0:0:0:
298,370,181010,1,0,0:0:0:0:
368,320,181237,1,0,0:0:0:0:
348,236,181464,1,0,0:0:0:0:
264,216,181691,2,0,P|208:240|124:232,1,144
48,196,182373,2,0,L|40:120,1,72,8|0,0:0|0:0,0:0:0:0:
60,40,182828,6,0,P|128:24|200:40,1,144,4|8,0:0|0:0,0:0:0:0:
452,40,183737,2,0,P|384:24|312:40,1,144,0|8,0:0|0:0,0:0:0:0:
256,105,184419,1,0,0:0:0:0:
188,158,184646,2,0,P|152:164|116:156,1,72
44,112,185100,1,8,0:0:0:0:
0,187,185328,2,0,L|4:264,1,72
8,345,185782,1,0,0:0:0:0:
87,380,186010,1,8,0:0:0:0:
128,304,186237,6,0,P|161:307|200:304,1,72
288,200,186691,2,0,P|254:196|216:200,1,72
336,268,187146,2,0,L|320:116,1,144
256,67,187828,1,0,0:0:0:0:
172,92,188055,2,0,P|136:100|100:96,2,72
256,67,188737,2,0,L|256:148,1,72,8|0,0:0|0:0,0:0:0:0:
330,235,189191,2,0,B|338:199|338:199|331:164,1,72
181,164,189646,2,0,B|174:199|174:199|182:235,1,72,8|0,0:0|0:0,0:0:0:0:
256,139,190100,6,0,P|180:144|116:120,1,144,4|8,0:0|0:0,0:0:0:0:
48,69,190782,1,0,0:0:0:0:
128,35,191010,2,0,P|204:30|268:54,1,144,0|8,0:0|0:0,0:0:0:0:
336,105,191691,2,0,P|368:116|408:116,1,72
492,108,192146,2,0,L|500:188,1,72,0|8,0:0|0:0,0:0:0:0:
452,252,192600,2,0,P|392:220|312:236,1,144
256,291,193282,1,0,0:0:0:0:
196,228,193510,6,0,L|188:156,1,72
77,236,193964,2,0,L|69:308,1,72,0|8,0:0|0:0,0:0:0:0:
12,373,194419,2,0,P|72:341|160:353,1,144
228,372,195100,2,0,P|262:379|316:380,1,72,8|0,0:0|0:0,0:0:0:0:
378,345,195555,1,0,0:0:0:0:
436,281,195782,2,0,P|471:288|507:290,2,72,8|0|0,0:0|0:0|0:0,0:0:0:0:
356,248,196464,2,0,P|284:232|212:236,1,144,0|8,0:0|0:0,0:0:0:0:
130,256,197146,1,0,0:0:0:0:
60,204,197373,6,0,L|52:128,1,72,4|0,0:0|0:0,0:0:0:0:
100,60,197828,1,8,0:0:0:0:
172,108,198055,1,0,0:0:0:0:
252,76,198282,2,0,P|316:56|396:72,1,144
463,117,198964,2,0,L|471:41,1,72
386,154,199419,2,0,L|394:230,1,72,0|8,0:0|0:0,0:0:0:0:
400,312,199873,1,0,0:0:0:0:
320,280,200100,2,0,P|256:260|172:272,1,144,0|8,0:0|0:0,0:0:0:0:
108,316,200782,6,0,P|97:282|100:244,1,72
32,192,201237,2,0,P|39:157|61:125,1,72,0|8,0:0|0:0,0:0:0:0:
128,74,201691,1,0,0:0:0:0:
196,128,201919,2,0,P|260:148|344:136,1,144
412,100,202600,6,0,L|420:24,1,72
482,151,203055,2,0,L|490:227,1,72,0|8,0:0|0:0,0:0:0:0:
444,296,203510,1,0,0:0:0:0:
369,253,203737,2,0,P|315:231|225:237,1,144,0|8,0:0|0:0,0:0:0:0:
150,267,204419,1,0,0:0:0:0:
76,224,204646,6,0,L|68:144,1,72,4|0,0:0|0:0,0:0:0:0:
116,80,205100,1,8,0:0:0:0:
197,111,205328,1,0,0:0:0:0:
236,34,205555,2,0,L|256:176,1,144,0|8,0:0|0:0,0:0:0:0:
326,228,206237,2,0,P|342:192|338:156,1,72
172,160,206691,2,0,P|170:195|186:228,1,72,0|8,0:0|0:0,0:0:0:0:
256,279,207146,1,0,0:0:0:0:
256,279,207373,2,0,P|328:264|396:276,1,144,0|8,0:0|0:0,0:0:0:0:
471,320,208055,6,0,L|479:244,1,72
415,189,208510,2,0,L|423:113,1,72,0|8,0:0|0:0,0:0:0:0:
384,40,208964,1,0,0:0:0:0:
312,88,209191,2,0,P|248:112|172:100,1,144,0|8,0:0|0:0,0:0:0:0:
109,45,209873,6,0,P|93:77|97:129,1,72
129,252,210328,2,0,P|145:220|141:168,1,72,0|8,0:0|0:0,0:0:0:0:
68,304,210782,2,0,P|132:280|216:296,1,144
288,324,211464,1,8,0:0:0:0:
364,280,211691,1,8,0:0:0:0:
256,192,211919,12,0,214646,0:0:0:0:
