osu file format v14

[General]
AudioFilename: writing.mp3
AudioLeadIn: 1000
PreviewTime: 118613
Countdown: 0
SampleSet: Normal
StackLeniency: 0.7
Mode: 0
LetterboxInBreaks: 0
WidescreenStoryboard: 0

[Editor]
DistanceSpacing: 1.4
BeatDivisor: 4
GridSize: 4
TimelineZoom: 1.5

[Metadata]
Title:Writing on the Walls
TitleUnicode:Writing on the Walls
Artist:Underoath
ArtistUnicode:Underoath
Creator:pishifat
Version:Hard
Source:
Tags:define the great line post hardcore punk metal
BeatmapID:660150
BeatmapSetID:292733

[Difficulty]
HPDrainRate:6
CircleSize:3.8
OverallDifficulty:7
ApproachRate:8
SliderMultiplier:1.4
SliderTickRate:1

[Events]
//Background and Video events
0,0,"noise.jpg",0,0
//Break Periods
2,160634,175336
//Storyboard Layer 0 (Background)
//Storyboard Layer 1 (Fail)
//Storyboard Layer 2 (Pass)
//Storyboard Layer 3 (Foreground)
//Storyboard Sound Samples

[TimingPoints]
1304,326.086956521739,4,1,1,50,1,0
22173,-90.9090909090909,4,1,1,50,0,1
32282,-100,4,1,1,50,0,0
32608,-90.9090909090909,4,1,1,50,0,1
42717,-100,4,1,1,50,0,1
43043,-111.111111111111,4,1,1,45,0,0
44021,-133.333333333333,4,1,1,45,0,0
44673,-105.263157894737,4,1,1,45,0,0
49238,-133.333333333333,4,1,1,45,0,0
49809,-105.263157894737,4,1,1,45,0,0
54456,-133.333333333333,4,1,1,45,0,0
55026,-105.263157894737,4,1,1,45,0,0
59673,-133.333333333333,4,1,1,45,0,0
60325,-105.263157894737,4,1,1,45,0,0
63912,-133.333333333333,4,1,1,45,0,0
64238,-166.666666666667,4,1,1,45,0,0
64890,-105.263157894737,4,1,1,45,0,0
65217,-200,4,1,1,45,0,0
68151,-133.333333333333,4,1,1,45,0,0
68803,-111.111111111111,4,1,1,45,0,0
69130,-95.2380952380952,4,1,1,45,0,0
74347,-133.333333333333,4,1,1,45,0,0
74673,-166.666666666667,4,1,1,45,0,0
75325,-133.333333333333,4,1,1,45,0,0
75651,-200,4,1,1,45,0,0
77282,-133.333333333333,4,1,1,45,0,0
77608,-200,4,1,1,45,0,0
78586,-133.333333333333,4,1,1,45,0,0
79238,-111.111111111111,4,1,1,45,0,0
79564,-95.2380952380952,4,1,1,45,0,0
84782,-100,4,1,1,45,0,0
85597,-105.263157894737,4,2,22,45,0,0
89021,-105.263157894737,4,2,22,5,0,0
89347,-105.263157894737,4,2,22,45,0,0
89510,-105.263157894737,4,2,22,5,0,0
89836,-105.263157894737,4,2,22,45,0,0
89999,-100,4,1,1,45,0,0
90814,-105.263157894737,4,1,1,45,0,0
93912,-103.092783505155,4,1,1,45,0,0
95217,-100,4,1,1,45,0,0
96032,-105.263157894737,4,1,1,45,0,0
100434,-100,4,1,1,45,0,0
101249,-105.263157894737,4,1,1,45,0,0
116249,-100,4,1,1,45,0,0
118695,-111.111111111111,4,1,1,45,0,0
119673,-133.333333333333,4,1,1,45,0,0
120325,-111.111111111111,4,1,1,45,0,0
122282,-133.333333333333,4,1,1,45,0,0
122934,-111.111111111111,4,1,1,45,0,0
124890,-133.333333333333,4,1,1,45,0,0
126032,-111.111111111111,4,1,1,45,0,0
130108,-133.333333333333,4,1,1,45,0,0
130760,-111.111111111111,4,1,1,45,0,0
135325,-133.333333333333,4,1,1,45,0,0
135977,-111.111111111111,4,1,1,45,0,0
139564,-105.263157894737,4,1,1,45,0,0
144782,-125,4,1,1,45,0,0
145434,-105.263157894737,4,1,1,45,0,0
147390,-125,4,1,1,45,0,0
148043,-105.263157894737,4,1,1,45,0,0
176086,-95.2380952380954,4,1,1,60,0,0
176901,-117.647058823529,4,1,1,60,0,0
177390,-95.2380952380954,4,1,1,60,0,0
186521,-95.2380952380954,4,1,1,45,0,0
187825,-95.2380952380954,4,1,1,30,0,0
189130,-95.2380952380954,4,1,1,15,0,0
190434,-95.2380952380954,4,1,1,5,0,0

[Colours]
Combo1 : 158,159,177
Combo2 : 169,180,160
Combo3 : 189,172,181
Combo4 : 171,157,143
SliderBorder : 90,95,120
SliderTrackOverride : 20,20,20

[HitObjects]
90,302,21521,5,2,0:3:0:0:
90,302,21684,1,2,0:0:0:0:
170,240,21847,1,8,0:0:0:0:
185,329,22010,1,2,0:0:0:0:
288,262,22173,6,0,B|325:253|325:253|380:250,1,77.0000023498536,6|2,0:0|0:0,0:0:0:0:
461,272,22499,1,2,0:0:0:0:
504,156,22662,1,8,0:0:0:0:
404,169,22825,2,0,L|317:161,1,77.0000023498536,0|2,0:0|0:0,0:0:0:0:
248,100,23151,2,0,B|209:89|209:89|142:83,1,77.0000023498536,2|0,0:0|0:0,0:0:0:0:
79,121,23477,5,0,0:0:0:0:
158,181,23640,1,2,0:0:0:0:
38,212,23803,2,0,L|25:309,1,77.0000023498536,8|0,0:0|0:0,0:0:0:0:
119,329,24130,1,2,0:0:0:0:
251,178,24456,1,2,0:0:0:0:
309,369,24782,6,0,B|348:380|348:380|399:383,2,77.0000023498536,2|2|2,0:0|0:0|0:0,0:0:0:0:
244,263,25271,2,0,L|132:251,1,77.0000023498536,8|0,0:0|0:0,0:0:0:0:
68,269,25597,1,2,0:0:0:0:
105,176,25760,2,0,B|92:137|92:137|61:84,1,77.0000023498536,2|0,0:0|0:0,0:0:0:0:
4,34,26086,6,0,L|103:27,1,77.0000023498536,0|2,0:0|0:0,0:0:0:0:
197,66,26412,1,8,0:0:0:0:
295,50,26575,2,0,B|398:61,2,77.0000023498536,0|0|0,0:0|0:0|0:0,0:0:0:0:
229,154,27064,2,0,B|261:175|261:175|300:213,1,77.0000023498536,8|2,0:0|0:0,0:0:0:0:
379,290,27390,6,0,L|370:204,1,77.0000023498536,8|2,0:0|0:0,0:0:0:0:
284,301,27717,2,0,L|292:377,1,77.0000023498536,8|2,0:0|0:0,0:0:0:0:
206,250,28043,1,8,0:0:0:0:
95,305,28206,2,0,L|3:296,1,77.0000023498536,8|2,0:0|0:0,0:0:0:0:
116,211,28532,1,8,0:0:0:0:
206,250,28695,6,0,B|240:232|240:232|273:205,1,77.0000023498536,2|2,0:0|0:0,0:0:0:0:
346,110,29021,2,0,L|453:115,1,77.0000023498536,8|2,0:0|0:0,0:0:0:0:
491,215,29347,2,0,L|405:209,1,77.0000023498536,8|2,0:0|0:0,0:0:0:0:
333,302,29673,2,0,L|437:312,1,77.0000023498536,8|2,0:0|0:0,0:0:0:0:
330,214,29999,6,0,B|294:200|294:200|257:177,1,77.0000023498536,8|2,0:0|0:0,0:0:0:0:
206,69,30325,2,0,B|110:75,1,77.0000023498536,8|2,0:0|0:0,0:0:0:0:
19,16,30651,1,8,0:0:0:0:
61,131,30814,2,0,B|56:171|56:171|36:226,1,77.0000023498536,8|2,0:0|0:0,0:0:0:0:
61,327,31140,1,8,0:0:0:0:
151,285,31303,6,0,L|235:290,1,77.0000023498536,2|2,0:0|0:0,0:0:0:0:
307,194,31630,2,0,B|221:188,1,77.0000023498536,8|2,0:0|0:0,0:0:0:0:
164,112,31956,1,2,0:3:0:0:
72,72,32119,1,2,0:0:0:0:
162,6,32282,2,0,L|243:11,1,70,0|2,0:0|0:0,0:0:0:0:
304,108,32608,6,0,B|343:118|343:118|396:123,1,77.0000023498536,6|2,0:0|0:0,0:0:0:0:
473,86,32934,1,2,0:0:0:0:
428,200,33097,1,8,0:0:0:0:
482,284,33260,2,0,L|475:368,1,77.0000023498536,0|2,0:0|0:0,0:0:0:0:
389,309,33586,2,0,P|330:278|305:273,1,77.0000023498536,2|0,0:0|0:0,0:0:0:0:
227,313,33912,6,0,L|142:315,1,77.0000023498536,0|2,0:0|0:0,0:0:0:0:
35,359,34238,1,8,0:0:0:0:
75,267,34401,1,0,0:0:0:0:
56,168,34564,2,0,L|150:160,1,77.0000023498536,2|0,0:0|0:0,0:0:0:0:
223,204,34890,2,0,P|245:165|251:127,1,77.0000023498536,2|0,0:0|0:0,0:0:0:0:
207,17,35217,6,0,B|173:10|173:10|121:6,2,77.0000023498536,2|2|2,0:0|0:0|0:0,0:0:0:0:
324,54,35706,2,0,L|410:49,1,77.0000023498536,8|0,0:0|0:0,0:0:0:0:
492,90,36032,1,2,0:0:0:0:
417,193,36195,2,0,L|319:200,1,77.0000023498536,2|0,0:0|0:0,0:0:0:0:
243,225,36521,5,0,0:0:0:0:
187,308,36684,1,2,0:0:0:0:
122,203,36847,2,0,P|83:195|35:191,1,77.0000023498536,8|0,0:0|0:0,0:0:0:0:
92,102,37173,1,2,0:0:0:0:
243,225,37499,1,2,0:0:0:0:
281,32,37825,6,0,L|365:36,1,77.0000023498536,8|2,0:0|0:0,0:0:0:0:
406,148,38151,2,0,L|315:145,1,77.0000023498536,8|2,0:0|0:0,0:0:0:0:
211,110,38477,1,8,0:0:0:0:
243,224,38640,2,0,B|277:239|277:239|319:248,1,77.0000023498536,8|2,0:0|0:0,0:0:0:0:
439,235,38967,1,8,0:0:0:0:
392,323,39130,6,0,L|304:333,1,77.0000023498536,2|2,0:0|0:0,0:0:0:0:
198,293,39456,2,0,B|159:288|159:288|93:285,1,77.0000023498536,8|2,0:0|0:0,0:0:0:0:
44,189,39782,2,0,L|134:193,1,77.0000023498536,8|2,0:0|0:0,0:0:0:0:
228,133,40108,2,0,P|267:117|312:111,1,77.0000023498536,8|2,0:0|0:0,0:0:0:0:
383,203,40434,6,0,L|294:197,1,77.0000023498536,8|2,0:0|0:0,0:0:0:0:
215,281,40760,2,0,L|291:286,1,77.0000023498536,8|2,0:0|0:0,0:0:0:0:
409,322,41086,1,8,0:0:0:0:
383,203,41249,2,0,B|389:165|389:165|405:127,1,77.0000023498536,8|2,0:0|0:0,0:0:0:0:
477,30,41575,1,8,0:0:0:0:
378,49,41738,6,0,L|289:53,1,77.0000023498536,2|2,0:0|0:0,0:0:0:0:
183,17,42064,2,0,P|119:8|79:12,1,77.0000023498536,8|2,0:0|0:0,0:0:0:0:
40,83,42390,1,2,0:3:0:0:
130,125,42553,1,2,0:0:0:0:
35,187,42717,2,0,L|41:262,1,70,8|2,0:0|0:0,0:0:0:0:
106,343,43043,6,0,P|142:309|236:326,1,125.999996154785,6|0,0:0|3:0,0:0:0:0:
300,373,43532,2,0,L|311:244,1,125.999996154785,6|0,0:0|3:0,0:0:0:0:
436,291,44021,2,0,B|410:267|405:240|405:240|393:232|393:232|381:181|320:165,1,157.500006008148,6|0,0:0|3:0,0:0:0:0:
252,182,44673,5,2,0:3:0:0:
110,82,44999,2,0,B|180:77,1,66.4999982242585,8|0,0:0|0:0,0:0:0:0:
240,19,45325,1,2,0:3:0:0:
252,182,45651,6,0,B|256:227|256:227|248:247|248:247|266:279|264:334,1,132.999996448517,0|2,0:0|0:3,0:0:0:0:
163,170,46303,2,0,P|127:164|79:160,1,66.4999982242585,8|0,0:0|0:0,0:0:0:0:
12,178,46630,1,2,0:3:0:0:
36,349,46956,5,0,0:0:0:0:
96,286,47119,1,8,0:0:0:0:
137,279,47200,1,8,0:0:0:0:
181,271,47282,2,0,L|234:280,3,33.2499991121292,8|8|8|8,0:0|0:0|0:0|0:0,0:0:0:0:
254,291,47608,2,0,L|303:290,3,33.2499991121292,8|8|8|8,0:3|0:3|0:3|0:3,0:0:0:0:
327,307,47934,2,0,L|450:315,1,99.7499973363877,8|8,0:0|0:0,0:0:0:0:
426,313,48260,6,0,P|391:266|394:193,1,132.999996448517,6|0,0:0|0:0,0:0:0:0:
482,233,48749,2,0,B|498:187|498:187|494:83,1,132.999996448517,6|0,0:0|0:0,0:0:0:0:
393,194,49238,2,0,B|328:188|328:188|313:194|313:194|273:182|231:207,1,157.500006008148,10|0,0:0|0:0,0:0:0:0:
200,282,49890,5,2,0:3:0:0:
145,117,50217,2,0,B|112:107|112:107|57:100,1,66.4999982242585,0|0,0:0|0:0,0:0:0:0:
14,159,50543,1,2,0:3:0:0:
97,7,50869,5,0,0:0:0:0:
173,47,51032,1,8,0:0:0:0:
216,43,51113,1,8,0:0:0:0:
259,40,51195,2,0,L|315:49,3,33.2499991121292,8|8|8|8,0:0|0:0|0:0|0:0,0:0:0:0:
329,67,51521,1,2,0:0:0:0:
341,82,52173,5,0,0:0:0:0:
270,131,52336,1,8,0:0:0:0:
346,171,52499,2,0,L|356:229,3,33.2499991121292,8|8|8|8,0:0|0:0|0:0|0:0,0:0:0:0:
341,245,52825,1,8,0:0:0:0:
289,314,52988,1,2,0:0:0:0:
254,234,53151,2,0,P|222:225|172:220,1,66.4999982242585,8|2,0:0|0:0,0:0:0:0:
102,279,53477,6,0,B|114:222|114:222|110:140,1,132.999996448517,6|8,0:0|0:0,0:0:0:0:
31,89,53967,2,0,P|58:68|153:61,1,132.999996448517,6|2,0:0|0:0,0:0:0:0:
219,178,54456,2,0,L|385:188,1,157.500006008148,10|0,0:0|0:0,0:0:0:0:
459,167,55108,5,2,0:3:0:0:
347,299,55434,2,0,L|268:304,1,66.4999982242585,8|0,0:0|0:0,0:0:0:0:
196,284,55760,1,2,0:3:0:0:
294,141,56086,6,0,P|241:98|166:111,1,132.999996448517,2|2,0:2|0:3,0:0:0:0:
73,239,56738,2,0,L|66:158,1,66.4999982242585,8|0,0:0|0:0,0:0:0:0:
42,89,57064,1,2,0:3:0:0:
168,206,57390,5,0,0:0:0:0:
158,299,57553,1,8,0:0:0:0:
190,328,57635,1,8,0:0:0:0:
224,354,57717,2,0,L|270:359,3,33.2499991121292,8|8|8|8,0:0|0:0|0:0|0:0,0:0:0:0:
295,337,58043,2,0,L|332:335,3,33.2499991121292,8|8|8|8,0:0|0:0|0:3|0:3,0:0:0:0:
361,305,58369,2,0,L|415:311,3,33.2499991121292,4|8|8|8,0:3|0:3|0:3|0:3,0:0:0:0:
434,323,58695,6,0,P|465:313|502:288,1,66.4999982242585,14|0,0:0|0:0,0:0:0:0:
505,208,59021,1,8,0:0:0:0:
403,183,59184,2,0,B|368:180|368:180|349:182|349:182|311:161|257:179,1,132.999996448517,6|2,0:0|0:0,0:0:0:0:
220,264,59673,2,0,L|236:91,1,157.500006008148,10|0,0:0|0:0,0:0:0:0:
205,25,60325,5,2,0:3:0:0:
145,187,60651,2,0,P|134:220|99:266,1,66.4999982242585,8|0,0:0|0:0,0:0:0:0:
41,288,60977,1,2,0:3:0:0:
114,333,61140,1,0,0:0:0:0:
197,309,61303,5,2,0:0:0:0:
274,348,61467,2,0,L|357:355,1,66.4999982242585,0|2,0:0|0:3,0:0:0:0:
378,275,61793,1,0,0:0:0:0:
378,275,61956,2,0,L|283:268,1,66.4999982242585,8|0,0:0|0:0,0:0:0:0:
265,197,62282,1,2,0:3:0:0:
185,162,62445,1,0,0:0:0:0:
97,221,62608,6,0,L|44:218,3,33.2499991121292,8|8|8|8,0:0|0:0|0:0|0:0,0:0:0:0:
32,201,62934,2,0,P|15:142|15:107,1,66.4999982242585,8|2,0:0|0:0,0:0:0:0:
46,56,63260,1,8,0:3:0:0:
115,106,63423,1,4,0:3:0:0:
191,66,63586,1,8,0:0:0:0:
239,137,63749,1,2,0:0:0:0:
329,86,63912,6,0,B|393:82,1,52.5000020027161,6|0,0:0|0:0,0:0:0:0:
465,116,64238,2,0,P|447:157|438:213,1,83.9999974365235,8|2,0:0|0:3,0:0:0:0:
325,316,64890,6,0,L|237:322,1,66.4999982242585,10|0,0:0|0:0,0:0:0:0:
220,244,65217,2,0,P|202:132|180:111,2,140,2|2|2,0:3|0:3|0:3,0:0:0:0:
61,324,66847,5,2,0:0:0:0:
61,324,67010,1,0,0:0:0:0:
144,362,67173,2,0,L|297:374,1,140,2|2,0:3|0:3,0:0:0:0:
437,316,68151,6,0,P|409:320|370:324,1,52.5000020027161,2|0,0:0|0:0,0:0:0:0:
314,240,68477,1,8,0:0:0:0:
235,284,68640,1,0,0:0:0:0:
186,208,68803,2,0,P|126:186|97:183,1,62.9999980773926,2|0,0:3|0:0,0:0:0:0:
30,117,69130,6,0,L|130:102,1,73.4999977569581,12|2,0:0|0:0,0:0:0:0:
182,54,69456,1,0,0:0:0:0:
266,97,69619,1,2,0:0:0:0:
375,54,69782,2,0,L|448:62,1,73.4999977569581,8|2,0:0|0:0,0:0:0:0:
406,147,70108,1,0,0:0:0:0:
429,239,70271,1,2,0:0:0:0:
322,189,70434,6,0,B|284:182|284:182|240:177,1,73.4999977569581,8|2,0:0|0:0,0:0:0:0:
196,271,70760,2,0,L|282:265,1,73.4999977569581,0|2,0:0|0:0,0:0:0:0:
363,336,71086,1,8,0:0:0:0:
277,384,71249,1,2,0:0:0:0:
183,361,71412,1,0,0:0:0:0:
85,375,71575,1,2,0:0:0:0:
120,262,71738,6,0,B|125:224|125:224|121:164,1,73.4999977569581,8|2,0:0|0:0,0:0:0:0:
86,100,72064,1,0,0:0:0:0:
180,111,72227,1,2,0:0:0:0:
279,48,72390,2,0,B|318:46|318:46|380:55,1,73.4999977569581,8|2,0:0|0:0,0:0:0:0:
398,133,72717,1,0,0:0:0:0:
490,108,72880,1,2,0:0:0:0:
435,213,73043,6,0,L|444:272,3,36.749998878479,8|8|8|8,0:0|0:0|0:0|0:0,0:0:0:0:
473,284,73369,2,0,B|481:325|481:325|483:374,1,73.4999977569581,8|2,0:0|0:0,0:0:0:0:
396,337,73695,1,8,0:3:0:0:
313,369,73858,1,4,0:3:0:0:
274,289,74021,1,8,0:0:0:0:
186,276,74184,1,2,0:0:0:0:
260,198,74347,6,0,L|329:191,1,52.5000020027161,6|0,0:0|0:0,0:0:0:0:
365,120,74673,2,0,P|373:84|398:41,1,83.9999974365235,8|2,0:0|0:3,0:0:0:0:
216,125,75325,6,0,L|145:128,1,52.5000020027161,10|0,0:0|0:0,0:0:0:0:
118,197,75651,2,0,P|165:239|161:319,2,140,2|2|2,0:3|0:3|0:3,0:0:0:0:
268,288,77282,6,0,L|325:294,1,52.5000020027161,2|0,0:0|0:0,0:0:0:0:
391,231,77608,2,0,P|441:199|521:215,1,140,2|2,0:3|0:3,0:0:0:0:
347,356,78586,6,0,L|339:287,1,52.5000020027161,2|2,0:0|0:0,0:0:0:0:
292,191,78912,1,8,0:0:0:0:
391,231,79075,1,8,0:0:0:0:
434,151,79238,2,0,P|438:109|436:80,1,62.9999980773926,0|2,0:3|0:0,0:0:0:0:
347,11,79564,5,12,0:0:0:0:
288,86,79727,2,0,L|129:96,1,146.999995513916,2|2,0:0|0:0,0:0:0:0:
27,128,80217,1,8,0:0:0:0:
100,188,80380,2,0,B|120:200|161:201|161:201|175:213|175:213|205:213|236:233,1,146.999995513916,2|2,0:0|0:0,0:0:0:0:
315,320,80869,5,8,0:0:0:0:
403,285,81032,2,0,B|436:285|436:285|491:279,2,73.4999977569581,2|0|2,0:0|0:0|0:0,0:0:0:0:
325,197,81521,1,8,0:0:0:0:
237,233,81684,2,0,P|194:297|179:380,1,146.999995513916,2|2,0:0|0:0,0:0:0:0:
103,274,82173,5,8,0:0:0:0:
156,195,82336,2,0,L|165:31,1,146.999995513916,2|2,0:0|0:0,0:0:0:0:
281,37,82825,1,8,0:0:0:0:
244,125,82988,2,0,B|205:130|205:130|190:127|190:127|170:133|132:141|85:90,1,146.999995513916,2|2,0:0|0:0,0:0:0:0:
47,4,83477,5,8,0:0:0:0:
9,91,83640,2,0,L|2:171,2,73.4999977569581,2|0|2,0:0|0:0|0:0,0:0:0:0:
126,31,84130,2,0,P|163:25|216:22,1,73.4999977569581,8|2,0:0|0:0,0:0:0:0:
284,64,84456,2,0,P|324:79|365:86,1,73.4999977569581,2|0,0:0|0:0,0:0:0:0:
469,64,84782,5,6,0:0:0:0:
469,64,84945,2,0,L|465:152,1,70,2|0,0:0|0:0,0:0:0:0:
417,235,85271,2,0,L|423:329,1,70,2|0,0:0|0:0,0:0:0:0:
341,285,85597,2,0,P|323:251|285:214,2,66.4999982242585,0|0|0,0:0|0:0|0:0,0:0:0:0:
319,368,86086,5,0,0:0:0:0:
244,292,86249,2,0,L|169:288,1,66.4999982242585,8|0,0:0|0:0,0:0:0:0:
70,308,86575,1,8,0:0:0:0:
70,308,86738,2,0,B|78:272|78:272|83:219,1,66.4999982242585,8|0,0:0|0:0,0:0:0:0:
74,154,87064,1,2,0:0:0:0:
74,154,87227,1,2,0:0:0:0:
175,184,87390,5,8,0:0:0:0:
212,106,87553,2,0,P|257:75|344:98,1,132.999996448517,2|2,0:0|0:0,0:0:0:0:
296,256,88206,2,0,B|296:291|296:291|307:348,2,66.4999982242585,0|0|0,0:0|0:0|0:0,0:0:0:0:
333,178,88695,5,0,0:0:0:0:
417,242,88858,2,0,B|329:236|329:236|315:228|315:228|219:219,2,199.499994672775,8|8|8,0:0|0:0|0:0,0:0:0:0:
464,343,89999,5,6,0:0:0:0:
464,343,90162,2,0,L|367:348,1,70,2|0,0:0|0:0,0:0:0:0:
290,303,90488,2,0,L|211:310,1,70,2|0,0:0|0:0,0:0:0:0:
113,265,90814,2,0,P|115:231|120:198,2,66.4999982242585,0|2|0,0:0|0:3|0:0,0:0:0:0:
154,355,91303,5,2,0:3:0:0:
154,355,91630,1,2,0:3:0:0:
154,355,91956,1,2,0:3:0:0:
154,355,92282,1,2,0:3:0:0:
70,332,92445,1,0,0:0:0:0:
37,251,92608,6,0,L|24:175,1,66.4999982242585,2|0,0:3|0:0,0:0:0:0:
116,217,92934,2,0,L|103:141,1,66.4999982242585,2|0,0:3|0:0,0:0:0:0:
194,184,93260,2,0,L|181:108,1,66.4999982242585,2|0,0:3|0:0,0:0:0:0:
269,152,93586,2,0,L|256:76,1,66.4999982242585,2|2,0:3|0:0,0:0:0:0:
265,75,93830,1,2,0:0:0:0:
272,60,93912,6,0,P|305:51|366:52,1,67.9000016059113,10|2,0:0|0:0,0:0:0:0:
407,103,94238,2,0,P|384:157|380:190,1,67.9000016059113,2|2,0:0|0:0,0:0:0:0:
396,273,94564,1,8,0:0:0:0:
322,224,94727,1,2,0:0:0:0:
315,312,94890,2,0,P|262:331|228:338,1,67.9000016059113,2|2,0:0|0:0,0:0:0:0:
140,312,95217,5,6,0:0:0:0:
140,312,95380,2,0,L|37:303,1,70,2|0,0:0|0:0,0:0:0:0:
5,222,95706,1,2,0:0:0:0:
127,209,95869,1,12,0:0:0:0:
92,129,96032,2,0,L|10:119,2,66.4999982242585,0|0|0,0:0|0:0|0:0,0:0:0:0:
180,91,96521,6,0,P|183:56|191:9,2,66.4999982242585,4|0|0,0:0|0:0|0:0,0:0:0:0:
224,257,97173,2,0,P|220:298|214:337,2,66.4999982242585,12|0|0,0:0|0:0|0:0,0:0:0:0:
267,182,97662,6,0,L|347:177,1,66.4999982242585,2|4,0:0|0:0,0:0:0:0:
417,204,97988,1,2,0:0:0:0:
483,148,98151,1,2,0:0:0:0:
451,317,98477,2,0,L|526:311,2,66.4999982242585,12|0|0,0:0|0:0|0:0,0:0:0:0:
369,286,98967,2,0,P|336:277|294:275,1,66.4999982242585,2|4,0:3|0:0,0:0:0:0:
235,327,99293,5,2,0:0:0:0:
313,362,99456,1,2,0:0:0:0:
305,192,99782,2,0,L|247:183,3,33.2499991121292,8|8|8|8,0:0|0:0|0:0|0:0,0:0:0:0:
232,215,100108,2,0,P|195:223|159:227,1,66.4999982242585,8|2,0:0|0:0,0:0:0:0:
56,194,100434,5,2,0:0:0:0:
56,194,100597,2,0,L|47:274,1,70,2|0,0:0|0:0,0:0:0:0:
111,356,100923,1,2,0:0:0:0:
212,308,101086,1,12,0:0:0:0:
279,361,101249,2,0,B|308:375|308:375|349:384,2,66.4999982242585,0|0|0,0:0|0:0|0:0,0:0:0:0:
295,276,101738,6,0,L|370:266,2,66.4999982242585,4|0|0,0:0|0:0|0:0,0:0:0:0:
122,260,102390,2,0,L|35:269,2,66.4999982242585,12|0|0,0:0|0:0|0:0,0:0:0:0:
180,195,102880,6,0,P|190:160|193:117,1,66.4999982242585,2|4,0:0|0:0,0:0:0:0:
166,47,103206,1,2,0:0:0:0:
107,111,103369,1,2,0:0:0:0:
270,45,103695,2,0,B|301:37|301:37|347:31,1,66.4999982242585,12|0,0:0|0:0,0:0:0:0:
314,125,104021,1,0,0:0:0:0:
314,125,104184,6,0,L|400:131,1,66.4999982242585,2|4,0:3|0:0,0:0:0:0:
465,117,104510,1,2,0:0:0:0:
512,44,104673,1,2,0:0:0:0:
475,212,104999,2,0,L|470:251,3,33.2499991121292,8|8|8|8,0:0|0:0|0:0|0:0,0:0:0:0:
490,283,105325,2,0,P|502:316|506:348,1,66.4999982242585,8|2,0:0|0:0,0:0:0:0:
405,311,105651,5,2,0:0:0:0:
405,311,105814,2,0,L|327:304,1,66.4999982242585,2|0,0:0|0:0,0:0:0:0:
267,226,106140,1,2,0:0:0:0:
226,324,106303,1,12,0:0:0:0:
167,259,106467,2,0,B|163:225|163:225|154:184,2,66.4999982242585,0|0|0,0:0|0:0|0:0,0:0:0:0:
141,341,106956,6,0,L|65:344,2,66.4999982242585,4|0|0,0:0|0:0|0:0,0:0:0:0:
267,226,107608,2,0,L|350:224,2,66.4999982242585,12|0|0,0:0|0:0|0:0,0:0:0:0:
185,253,108097,6,0,B|151:252|151:252|118:248,1,66.4999982242585,2|4,0:0|0:0,0:0:0:0:
61,183,108423,1,2,0:0:0:0:
33,265,108586,1,2,0:0:0:0:
143,131,108912,2,0,B|126:99|126:99|96:62,2,66.4999982242585,12|0|0,0:0|0:0|0:0,0:0:0:0:
288,228,109564,6,0,B|371:237,2,66.4999982242585,4|0|0,0:0|0:0|0:0,0:0:0:0:
271,55,110217,2,0,B|308:35|308:35|361:24,2,66.4999982242585,12|0|0,0:0|0:0|0:0,0:0:0:0:
407,160,110869,5,6,0:0:0:0:
407,160,111032,2,0,B|441:160|441:160|477:166,1,66.4999982242585,2|0,0:0|0:0,0:0:0:0:
510,263,111358,1,2,0:0:0:0:
410,304,111521,1,12,0:0:0:0:
466,369,111684,2,0,B|537:375,2,66.4999982242585,0|0|0,0:0|0:0|0:0,0:0:0:0:
365,327,112173,6,0,L|272:320,2,66.4999982242585,4|0|0,0:0|0:0|0:0,0:0:0:0:
396,157,112825,2,0,L|312:153,2,66.4999982242585,12|0|0,0:0|0:0|0:0,0:0:0:0:
241,80,113477,6,0,P|206:84|158:98,2,66.4999982242585,4|0|0,0:0|0:0|0:0,0:0:0:0:
273,250,114130,2,0,P|239:244|196:232,2,66.4999982242585,12|0|0,0:0|0:0|0:0,0:0:0:0:
350,211,114619,6,0,L|430:206,1,66.4999982242585,2|4,0:0|0:0,0:0:0:0:
477,267,114945,1,2,0:0:0:0:
477,267,115108,2,0,B|446:280|446:280|408:301,1,66.4999982242585,2|0,0:0|0:0,0:0:0:0:
347,376,115434,2,0,L|189:364,1,132.999996448517,12|0,0:0|0:0,0:0:0:0:
140,321,115923,1,2,0:0:0:0:
140,321,116005,1,2,0:0:0:0:
140,321,116086,5,10,0:0:0:0:
59,243,116249,2,0,L|54:154,1,70,10|0,0:0|0:0,0:0:0:0:
142,96,116575,2,0,L|152:15,1,70,10|0,0:0|0:0,0:0:0:0:
166,216,117064,6,0,L|171:263,4,35,8|8|8|8|8,0:0|0:0|0:0|0:0|0:0,0:0:0:0:
187,272,117499,2,0,L|179:394,2,93.3333333333333,8|8|8,0:3|0:3|0:0,0:0:0:0:
201,286,118695,6,0,P|250:317|331:310,1,125.999996154785,6|0,0:0|0:0,0:0:0:0:
278,223,119184,2,0,B|270:174|270:174|277:144|277:144|271:91,1,125.999996154785,6|0,0:0|0:0,0:0:0:0:
179,202,119673,2,0,L|166:380,1,157.500006008148,6|2,0:0|0:3,0:0:0:0:
122,290,120325,6,0,P|94:255|65:231,1,62.9999980773926,0|2,0:0|0:0,0:0:0:0:
27,180,120651,2,0,L|34:129,3,31.4999990386963,8|8|8|8,0:3|0:3|0:3|0:3,0:0:0:0:
59,110,120977,2,0,L|55:65,3,31.4999990386963,4|4|4|0,0:3|0:3|0:3|0:0,0:0:0:0:
84,42,121303,6,0,P|110:34|152:29,1,62.9999980773926,6|0,0:0|0:0,0:0:0:0:
237,72,121630,1,8,0:0:0:0:
155,129,121793,2,0,P|235:123|304:141,1,125.999996154785,6|2,0:0|0:0,0:0:0:0:
387,178,122282,2,0,P|326:139|336:43,1,157.500006008148,10|2,0:0|0:3,0:0:0:0:
402,35,122934,6,0,L|398:114,1,62.9999980773926,0|0,0:0|0:0,0:0:0:0:
401,189,123260,2,0,P|416:182|450:175,2,41.9999987182618,8|8|0,0:0|0:0|0:0,0:0:0:0:
359,260,123586,2,0,B|339:248|339:248|297:235,2,41.9999987182618,8|4|0,0:3|0:3|0:0,0:0:0:0:
383,334,123912,6,0,P|319:297|254:315,1,125.999996154785,6|0,0:0|0:0,0:0:0:0:
177,345,124401,2,0,L|103:347,2,62.9999980773926,0|0|2,0:0|0:0|0:0,0:0:0:0:
207,247,124890,2,0,B|169:245|133:238|133:238|106:244|106:244|88:237|44:234,2,157.500006008148,6|0|0,0:0|0:0|0:0,0:0:0:0:
306,122,126195,2,0,P|283:170|278:202,1,62.9999980773926,0|2,0:0|0:0,0:0:0:0:
313,279,126521,6,0,L|454:274,1,125.999996154785,12|0,0:0|0:0,0:0:0:0:
392,185,127010,2,0,P|382:140|445:66,1,125.999996154785,8|2,0:0|0:0,0:0:0:0:
351,116,127499,2,0,B|319:120|319:120|270:121,1,62.9999980773926,2|0,0:0|0:0,0:0:0:0:
212,88,127825,6,0,B|166:79|166:79|81:86,1,125.999996154785,0|0,0:0|0:0,0:0:0:0:
212,190,128477,2,0,L|255:197,3,31.4999990386963,8|8|8|8,0:0|0:0|0:0|0:0,0:0:0:0:
281,209,128803,2,0,L|325:206,3,31.4999990386963,8|8|8|8,0:0|0:0|0:0|0:0,0:0:0:0:
351,226,129130,6,0,P|302:241|222:301,1,125.999996154785,6|0,0:0|0:0,0:0:0:0:
168,365,129619,2,0,L|22:369,1,125.999996154785,6|0,0:0|0:0,0:0:0:0:
137,282,130108,2,0,B|147:259|148:227|148:227|157:209|157:209|143:167|172:128,1,157.500006008148,6|2,0:0|0:3,0:0:0:0:
234,181,130760,6,0,L|317:192,1,62.9999980773926,0|2,0:0|0:0,0:0:0:0:
377,165,131086,2,0,L|381:116,3,31.4999990386963,8|8|8|8,0:0|0:0|0:3|0:3,0:0:0:0:
354,92,131412,2,0,L|350:51,3,31.4999990386963,8|4|4|4,0:3|3:0|3:0|3:0,0:0:0:0:
328,19,131738,6,0,P|299:10|246:6,1,62.9999980773926,6|0,0:0|0:0,0:0:0:0:
152,40,132064,1,8,0:0:0:0:
253,93,132227,2,0,P|292:166|267:225,1,125.999996154785,6|2,0:0|0:0,0:0:0:0:
175,193,132717,2,0,L|180:281,1,62.9999980773926,10|0,0:0|0:0,0:0:0:0:
228,320,133043,6,0,L|270:323,3,31.4999990386963,2|8|8|8,0:0|0:0|0:0|0:0,0:0:0:0:
296,297,133369,2,0,L|336:305,3,31.4999990386963,8|8|8|8,0:0|0:0|0:0|0:0,0:0:0:0:
367,286,133695,2,0,L|402:301,3,31.4999990386963,8|8|0|0,0:3|0:3|0:0|0:0,0:0:0:0:
440,294,134021,2,0,L|471:316,3,31.4999990386963,8|8|8|8,0:0|0:0|0:0|0:0,0:0:0:0:
488,350,134347,6,0,L|479:200,1,125.999996154785,6|0,0:0|0:0,0:0:0:0:
387,174,134836,2,0,P|358:148|376:43,1,125.999996154785,6|0,0:0|0:0,0:0:0:0:
431,108,135325,2,0,B|356:121|356:121|331:134|331:134|254:145,1,157.500006008148,6|2,0:0|0:3,0:0:0:0:
206,101,135977,6,0,L|140:93,1,62.9999980773926,0|2,0:0|0:0,0:0:0:0:
205,185,136303,1,8,0:0:0:0:
120,213,136467,1,2,0:0:0:0:
191,275,136630,2,0,L|263:282,1,62.9999980773926,10|0,0:3|0:0,0:0:0:0:
333,242,136956,6,0,B|363:236|363:236|418:232,1,62.9999980773926,6|2,0:3|0:0,0:0:0:0:
484,279,137282,1,8,0:0:0:0:
417,326,137445,2,0,B|371:332|371:332|340:348|340:348|288:356,1,125.999996154785,2|2,0:0|0:3,0:0:0:0:
228,307,137934,2,0,P|194:297|147:291,1,62.9999980773926,0|2,0:0|0:3,0:0:0:0:
73,330,138260,5,8,0:0:0:0:
97,251,138423,2,0,L|105:116,1,125.999996154785,2|0,0:0|0:0,0:0:0:0:
155,189,138912,2,0,B|185:195|185:195|230:198,1,62.9999980773926,0|2,0:0|0:0,0:0:0:0:
320,147,139238,1,8,0:0:0:0:
294,231,139401,1,2,0:0:0:0:
403,129,139564,6,0,P|441:118|534:160,1,132.999996448517,6|0,0:0|0:0,0:0:0:0:
479,68,140053,2,0,B|435:50|435:50|342:35,1,132.999996448517,6|0,0:0|0:0,0:0:0:0:
280,109,140543,2,0,L|192:112,1,66.4999982242585,6|0,0:0|0:0,0:0:0:0:
121,92,140869,5,8,0:0:0:0:
142,175,141032,1,2,0:0:0:0:
85,240,141195,2,0,P|48:257|15:287,1,66.4999982242585,8|4,0:3|0:3,0:0:0:0:
173,266,141521,1,8,0:0:0:0:
264,287,141684,1,2,0:0:0:0:
298,370,141847,2,0,P|333:378|384:387,1,66.4999982242585,8|4,0:3|0:3,0:0:0:0:
456,334,142173,6,0,B|446:197,1,132.999996448517,6|0,0:0|0:0,0:0:0:0:
374,297,142662,2,0,P|330:230|347:152,1,132.999996448517,6|0,0:0|0:0,0:0:0:0:
433,122,143151,2,0,L|437:193,1,66.4999982242585,6|0,0:0|0:0,0:0:0:0:
325,162,143477,6,0,B|289:152|289:152|260:148,1,66.4999982242585,8|2,0:0|0:0,0:0:0:0:
170,171,143803,1,2,0:0:0:0:
131,63,143967,2,0,P|65:51|0:101,1,132.999996448517,8|2,0:0|0:0,0:0:0:0:
47,190,144456,2,0,B|55:221|55:221|58:266,1,66.4999982242585,8|2,0:0|0:0,0:0:0:0:
27,359,144782,6,0,B|75:302|75:302|108:286|108:286|154:241,1,168,6|0,0:0|0:0,0:0:0:0:
239,251,145434,1,2,0:3:0:0:
318,216,145597,1,0,0:0:0:0:
385,269,145760,2,0,B|414:284|414:284|461:301,2,66.4999982242585,2|0|2,0:3|0:0|0:3,0:0:0:0:
399,183,146249,5,2,0:0:0:0:
399,183,146412,2,0,L|405:93,1,66.4999982242585,2|0,0:0|0:0,0:0:0:0:
420,31,146738,1,2,0:0:0:0:
420,31,146901,2,0,P|378:19|345:17,1,66.4999982242585,2|2,0:0|0:3,0:0:0:0:
290,74,147227,1,2,0:0:0:0:
290,74,147390,6,0,L|101:78,1,168,2|0,0:0|0:0,0:0:0:0:
89,158,148043,1,2,0:3:0:0:
21,212,148206,1,0,0:0:0:0:
102,240,148369,2,0,P|141:246|173:258,1,66.4999982242585,2|0,0:3|0:0,0:0:0:0:
233,309,148695,5,2,0:3:0:0:
233,309,149021,1,0,0:0:0:0:
233,309,149347,1,8,0:0:0:0:
318,297,149510,1,2,0:0:0:0:
394,336,149673,2,0,L|479:344,1,66.4999982242585,8|4,0:3|0:3,0:0:0:0:
392,253,149999,6,0,P|370:208|412:135,1,132.999996448517,6|0,0:0|0:0,0:0:0:0:
490,124,150488,1,2,0:0:0:0:
380,60,150651,2,0,L|247:55,1,132.999996448517,12|2,0:0|0:0,0:0:0:0:
56,20,151303,5,4,0:0:0:0:
56,20,151956,1,12,0:0:0:0:
123,73,152119,1,2,0:0:0:0:
157,152,152282,2,0,L|239:158,1,66.4999982242585,2|0,0:0|0:0,0:0:0:0:
312,104,152608,6,0,P|278:145|290:233,1,132.999996448517,6|0,0:0|0:0,0:0:0:0:
357,263,153097,1,2,0:0:0:0:
249,304,153260,1,12,0:0:0:0:
249,304,153586,2,0,L|157:311,1,66.4999982242585,2|0,0:0|0:0,0:0:0:0:
83,250,153912,5,4,0:0:0:0:
83,250,154564,1,12,0:0:0:0:
150,188,154727,1,2,0:0:0:0:
142,95,154890,2,0,P|154:41|174:11,1,66.4999982242585,2|0,0:0|0:0,0:0:0:0:
228,134,155217,6,0,B|278:149|278:149|382:154,1,132.999996448517,6|0,0:0|0:0,0:0:0:0:
444,157,155706,1,2,0:0:0:0:
380,249,155869,2,0,L|221:242,1,132.999996448517,12|2,0:0|0:0,0:0:0:0:
91,168,156521,5,4,0:0:0:0:
91,168,157173,1,12,0:0:0:0:
147,233,157336,1,2,0:0:0:0:
157,318,157499,1,2,0:0:0:0:
219,156,157825,5,4,0:0:0:0:
301,130,157988,2,0,L|398:139,1,66.4999982242585,2|2,0:0|0:0,0:0:0:0:
446,99,158314,2,0,P|459:66|487:39,2,66.4999982242585,2|0|2,0:3|0:0|0:0,0:0:0:0:
460,204,158803,2,0,L|460:279,1,66.4999982242585,8|0,0:0|0:0,0:0:0:0:
393,326,159130,6,0,L|356:315,3,33.2499991121292,2|0|8|8,0:0|0:0|0:0|0:0,0:0:0:0:
331,284,159456,2,0,L|277:273,3,33.2499991121292,8|0|8|8,0:0|0:0|0:0|0:0,0:0:0:0:
262,253,159782,2,0,L|198:249,3,33.2499991121292,8|0|8|8,0:3|0:3|0:0|0:0,0:0:0:0:
189,231,160108,2,0,L|125:237,3,33.2499991121292,8|0|8|8,0:0|0:0|0:0|0:0,0:0:0:0:
117,213,160434,5,6,0:0:0:0:
348,173,176086,5,6,0:0:0:0:
446,237,176249,2,0,L|541:247,1,73.4999977569581,2|0,0:0|0:0,0:0:0:0:
365,269,176575,2,0,L|277:275,1,73.4999977569581,2|0,0:0|0:0,0:0:0:0:
225,200,176901,1,0,0:0:0:0:
225,200,177064,1,0,0:0:0:0:
111,193,177227,1,2,0:0:0:0:
174,94,177390,5,12,0:0:0:0:
60,125,177553,2,0,L|-19:130,1,73.4999977569581,2|0,0:0|0:0,0:0:0:0:
111,193,177880,2,0,P|145:221|175:263,1,73.4999977569581,2|0,0:0|0:0,0:0:0:0:
92,197,178695,5,6,0:0:0:0:
117,311,178858,2,0,L|109:391,1,73.4999977569581,2|0,0:0|0:0,0:0:0:0:
197,275,179184,2,0,L|192:196,1,73.4999977569581,2|0,0:0|0:0,0:0:0:0:
210,286,179836,5,2,0:0:0:0:
313,230,179999,2,0,B|350:233|350:233|399:242,1,73.4999977569581,8|2,0:0|0:0,0:0:0:0:
272,153,180325,2,0,B|309:148|309:148|355:147,1,73.4999977569581,8|2,0:0|0:0,0:0:0:0:
236,73,180651,2,0,L|188:67,3,36.749998878479,8|8|8|8,0:0|0:0|0:0|0:0,0:0:0:0:
161,42,180977,1,8,0:0:0:0:
104,224,181303,5,6,0:0:0:0:
214,267,181467,2,0,L|305:277,1,73.4999977569581,2|0,0:0|0:0,0:0:0:0:
388,190,181793,2,0,L|293:195,1,73.4999977569581,2|0,0:0|0:0,0:0:0:0:
246,137,182119,1,0,0:0:0:0:
246,137,182282,1,0,0:0:0:0:
208,248,182445,1,2,0:0:0:0:
129,160,182608,5,12,0:0:0:0:
89,270,182771,2,0,L|83:360,1,73.4999977569581,2|0,0:0|0:0,0:0:0:0:
24,206,183097,2,0,L|17:126,1,73.4999977569581,2|0,0:0|0:0,0:0:0:0:
14,221,183912,5,6,0:0:0:0:
119,168,184075,2,0,L|211:162,1,73.4999977569581,2|0,0:0|0:0,0:0:0:0:
296,254,184401,2,0,L|198:245,1,73.4999977569581,2|0,0:0|0:0,0:0:0:0:
423,182,185053,5,2,0:0:0:0:
423,182,185217,1,10,0:0:0:0:
346,92,185380,2,0,B|314:75|314:75|259:57,1,73.4999977569581,8|0,0:0|0:0,0:0:0:0:
194,77,185706,1,2,0:0:0:0:
256,192,185787,12,0,191738,0:0:0:0:
