osu file format v14

[General]
AudioFilename: Too-bright-to-see-too-loud-to-hear.mp3
AudioLeadIn: 0
PreviewTime: 132089
Countdown: 0
SampleSet: None
StackLeniency: 0.7
Mode: 0
LetterboxInBreaks: 0
WidescreenStoryboard: 1

[Editor]
Bookmarks: 34089,53589,69089,69589,101589,109589,117589,129589,133589
DistanceSpacing: 1.1
BeatDivisor: 4
GridSize: 8
TimelineZoom: 2.4

[Metadata]
Title:Too Bright To See, Too Loud To Hear
TitleUnicode:Too Bright To See, Too Loud To Hear
Artist:Underoath
ArtistUnicode:Underoath
Creator:George
Version:Dark
Source:
Tags:Metalcore Christianity Post Hardcore Emo Lost in the Sound of Separation
BeatmapID:724491
BeatmapSetID:325983

[Difficulty]
HPDrainRate:4
CircleSize:4
OverallDifficulty:4
ApproachRate:6
SliderMultiplier:1.4
SliderTickRate:1

[Events]
//Background and Video events
0,0,"895655-storm-wallpaper.jpg",0,0
//Break Periods
2,7039,9039
2,19289,21039
2,22789,25039
2,101789,108539
2,129789,132539
//Storyboard Layer 0 (Background)
//Storyboard Layer 1 (Fail)
//Storyboard Layer 2 (Pass)
//Storyboard Layer 3 (Foreground)
//Storyboard Sound Samples

[TimingPoints]
2089,500,4,3,0,40,1,0
133589,-66.6666666666667,4,3,0,60,0,1
165589,-100,4,3,0,40,0,0

[Colours]
Combo1 : 181,149,74
Combo2 : 35,92,61

[HitObjects]
256,192,89,12,0,1589,0:0:0:0:
120,120,2089,5,4,3:0:0:0:
188,160,2339,1,0,0:0:0:0:
256,120,2589,1,4,3:0:0:0:
320,160,2839,1,4,3:0:0:0:
256,200,3089,1,0,0:0:0:0:
384,280,6089,6,0,L|388:184,1,70,4|0,3:0|0:0,0:0:0:0:
368,120,6589,1,4,3:0:0:0:
316,92,10089,6,0,P|275:82|192:132,1,140,4|0,3:0|0:0,0:0:0:0:
232,276,11089,2,0,P|273:286|356:236,1,140,4|0,0:0|0:0,0:0:0:0:
208,188,12089,2,0,P|172:168|272:28,1,280,4|4,0:0|0:0,0:0:0:0:
416,288,14089,6,0,L|268:316,1,140,4|0,0:0|0:0,0:0:0:0:
136,252,15089,1,0,0:0:0:0:
372,56,16089,1,4,0:0:0:0:
288,184,16589,1,4,0:0:0:0:
184,72,17089,1,4,0:0:0:0:
184,72,18089,6,0,P|180:120|192:152,1,70,4|0,3:0|3:0,3:0:0:0:
256,172,18589,2,4,P|260:124|248:92,1,70
292,36,19089,1,0,0:0:0:0:
292,36,22089,6,0,L|380:40,1,70,4|0,0:0|0:0,0:0:0:0:
424,84,22589,1,0,0:0:0:0:
493,80,26089,6,0,P|472:116|492:232,1,140,4|0,0:0|0:0,0:0:0:0:
400,344,27089,1,4,0:0:0:0:
296,232,27589,2,4,B|208:180|232:92|232:92|288:48|360:80,2,280
440,284,30089,1,0,0:0:0:0:
392,140,30589,2,0,P|428:100|440:64,1,70,4|0,0:0|0:0,0:0:0:0:
396,20,31089,1,0,0:0:0:0:
232,280,32089,2,0,P|272:316|308:328,1,70,4|0,0:0|0:0,0:0:0:0:
352,284,32589,1,0,0:0:0:0:
312,136,33089,1,4,0:0:0:0:
312,136,34089,6,8,B|256:116|224:168|160:140,1,140,8|8,2:0|2:0,2:0:0:0:
288,248,35089,2,8,B|344:268|376:216|440:244,2,140,8|8|8,2:0|2:0|2:0,2:0:0:0:
144,300,36589,1,8,2:0:0:0:
56,172,37089,2,8,P|44:100|48:28,1,140,8|0,2:0|1:0,2:0:0:0:
188,100,38089,1,8,2:0:0:0:
324,24,38589,2,0,P|336:96|332:168,1,140,0|8,1:0|2:0,0:0:0:0:
296,312,39589,1,8,2:0:0:0:
144,332,40089,2,0,P|152:256|196:196,1,140,0|8,1:0|2:0,0:0:0:0:
296,96,41089,1,8,2:0:0:0:
392,216,41589,6,0,P|384:292|340:352,2,140,0|8|0,1:0|2:0|1:0,0:0:0:0:
296,96,43089,1,8,2:0:0:0:
184,200,43589,2,0,P|148:156|156:48,1,140,0|8,1:0|2:0,0:0:0:0:
296,96,44589,2,0,P|332:140|324:248,1,140,0|8,1:0|2:0,0:0:0:0:
192,292,45589,6,0,B|144:292|144:292|88:304|88:304|48:304,1,140,0|8,1:0|2:0,0:0:0:0:
60,148,46589,2,0,B|108:148|108:148|164:136|164:136|204:136,1,140,0|8,1:0|2:0,0:0:0:0:
340,196,47589,1,8,2:0:0:0:
392,340,48089,2,0,P|344:356|240:304,1,140,0|8,1:0|2:0,0:0:0:0:
168,208,49089,2,0,P|152:160|204:56,1,140,0|8,1:0|2:0,0:0:0:0:
316,148,50089,1,8,2:0:0:0:
460,88,50589,2,0,P|476:136|424:240,2,140,0|8|0,1:0|2:0|1:0,1:0:0:0:
316,148,52089,1,0,0:0:0:0:
188,60,52589,2,0,L|40:68,1,140,0|0,1:0|1:0,1:0:0:0:
152,180,53589,6,0,P|188:224|212:236,1,70
276,220,54089,1,0,0:0:0:0:
344,180,54339,2,0,P|384:192|452:276,1,140,2|0,0:0|0:0,0:0:0:0:
379,303,55089,2,0,P|339:291|271:207,1,140
276,144,55839,2,0,L|120:152,1,140,2|2,0:0|0:0,0:0:0:0:
88,212,56589,2,2,P|88:252|92:292,1,70
164,308,57089,2,0,P|164:268|160:228,1,70,2|0,0:0|0:0,0:0:0:0:
156,160,57589,6,0,P|152:100|172:12,1,140,2|2,0:0|0:0,0:0:0:0:
236,60,58339,2,0,P|284:72|372:40,1,140
424,96,59089,2,2,L|432:236,1,140
360,264,59839,2,0,L|352:124,1,140,2|2,0:0|0:0,0:0:0:0:
276,112,60589,2,0,P|228:120|204:132,1,70,2|2,0:0|0:0,0:0:0:0:
212,208,61089,2,0,P|260:200|284:188,1,70,2|2,0:0|0:0,0:0:0:0:
324,252,61589,6,0,L|336:408,1,140,2|2,0:0|0:0,0:0:0:0:
408,364,62339,2,0,L|396:208,1,140
352,164,63089,2,8,P|316:160|240:244,1,140
268,296,63839,2,8,P|232:300|156:216,1,140
152,160,64589,2,2,L|156:80,1,70,0|2,0:0|0:0,0:0:0:0:
84,56,65089,2,0,L|80:136,1,70,2|2,0:0|0:0,0:0:0:0:
80,204,65589,6,0,P|100:264|176:324,1,140,2|2,0:0|0:0,0:0:0:0:
208,260,66339,2,0,L|360:256,1,140
364,180,67089,2,8,L|212:184,1,140,8|10,0:0|0:0,0:0:0:0:
148,172,67839,2,8,P|140:124|164:32,1,140,8|10,0:0|0:0,0:0:0:0:
232,8,68589,1,2,0:0:0:0:
344,112,69089,1,14,0:0:0:0:
344,112,69589,6,0,L|352:264,1,140,8|2,0:0|0:0,0:0:0:0:
276,228,70339,2,0,L|268:76,1,140,8|2,0:0|0:0,0:0:0:0:
224,28,71089,1,0,0:0:0:0:
168,80,71339,2,0,P|122:92|28:52,2,140,8|8|8,0:0|0:0|0:0,0:0:0:0:
300,16,72839,2,0,L|308:184,1,140
372,296,73839,1,0,0:0:0:0:
220,272,74339,5,0,0:0:0:0:
220,272,74589,2,0,L|212:116,1,140,2|2,0:0|0:0,0:0:0:0:
264,76,75339,2,8,P|328:76|400:136,2,140,10|10|10,0:0|0:0|0:0,0:0:0:0:
344,208,76839,2,8,P|416:220|484:160,1,140
456,112,77589,1,0,0:0:0:0:
388,76,77839,1,0,0:0:0:0:
316,108,78089,1,0,0:0:0:0:
316,32,78339,1,0,0:0:0:0:
248,68,78589,6,0,P|220:104|212:204,1,140,2|2,0:0|0:0,0:0:0:0:
260,252,79339,2,8,L|424:236,2,140,10|10|10,0:0|0:0|0:0,0:0:0:0:
112,296,80839,2,8,P|112:240|128:140,1,140,10|10,0:0|0:0,0:0:0:0:
216,40,81839,1,0,0:0:0:0:
320,156,82339,5,0,0:0:0:0:
320,156,82589,2,0,L|472:164,1,140,8|2,0:0|0:0,0:0:0:0:
488,236,83339,2,0,P|476:280|488:372,2,140,2|2|2,0:0|0:0|0:0,0:0:0:0:
408,104,84839,2,2,P|344:68|220:136,1,210,8|2,0:0|0:0,0:0:0:0:
252,192,85839,1,0,0:0:0:0:
216,260,86089,1,0,0:0:0:0:
292,256,86339,1,0,0:0:0:0:
324,188,86589,6,0,L|476:180,1,140,2|2,0:0|0:0,0:0:0:0:
472,104,87339,2,0,L|320:112,1,140,2|2,0:0|0:0,0:0:0:0:
192,44,88339,1,0,0:0:0:0:
48,96,88839,1,0,0:0:0:0:
164,196,89339,2,0,B|160:224|160:224|168:248|168:248|152:288|176:348,1,140,8|2,0:0|0:0,0:0:0:0:
316,280,90339,5,0,0:0:0:0:
316,280,90589,2,0,L|320:128,1,140,8|2,0:0|0:0,0:0:0:0:
396,124,91339,2,0,L|392:276,2,140,8|2|8,0:0|0:0|0:0,0:0:0:0:
276,28,92839,2,0,P|220:40|156:172,1,210
240,292,94089,1,0,0:0:0:0:
352,184,94589,6,2,P|368:132|456:72,1,140
456,152,95339,2,2,L|456:296,2,140
328,68,96839,1,0,0:0:0:0:
224,180,97339,1,0,0:0:0:0:
132,56,97839,1,0,0:0:0:0:
112,208,98339,5,0,0:0:0:0:
112,208,98589,2,0,L|248:304,1,140,8|2,0:0|0:0,0:0:0:0:
288,244,99339,2,0,L|152:148,2,140,8|2|8,0:0|0:0|0:0,0:0:0:0:
412,152,100839,2,0,B|464:216|464:216|480:280|440:288|444:340,1,210
332,325,109589,5,0,0:0:0:0:
178,325,110089,1,0,0:0:0:0:
101,191,110589,1,0,0:0:0:0:
179,58,111089,1,0,0:0:0:0:
333,58,111589,1,0,0:0:0:0:
410,192,112089,1,0,0:0:0:0:
256,192,112589,2,0,L|104:192,1,140
200,320,113589,6,0,L|352:320,1,140
464,224,114589,2,0,P|488:168|472:72,1,140
328,80,115589,2,0,P|304:136|320:232,1,140
408,336,116589,1,0,0:0:0:0:
472,200,117089,1,0,0:0:0:0:
408,336,117589,6,0,L|328:352,1,70
280,304,118089,1,0,0:0:0:0:
240,240,118339,2,0,L|224:160,1,70
256,96,118839,1,0,0:0:0:0:
184,72,119089,6,0,P|136:88|96:80,1,70
64,144,119589,2,0,L|72:232,1,70
120,272,120089,1,0,0:0:0:0:
168,216,120339,1,0,0:0:0:0:
208,280,120589,2,0,L|296:296,1,70
344,248,121089,2,0,L|432:264,1,70
400,184,121589,6,0,P|352:168|320:168,1,70
256,176,122089,2,0,P|206:187|179:203,1,70
152,264,122589,2,0,L|144:344,1,70
80,288,123089,2,0,L|88:208,1,70
120,152,123589,2,0,P|128:112|120:72,2,70
152,224,124339,2,0,P|144:264|152:304,2,70
224,256,125089,2,0,L|312:248,1,70
336,184,125589,5,0,0:0:0:0:
400,232,125839,1,0,0:0:0:0:
360,296,126089,2,0,P|376:344|392:368,1,70
464,368,126589,2,0,P|448:320|432:296,1,70
400,232,127089,2,0,P|381:184|378:156,1,70
328,112,127589,2,0,L|248:120,1,70
184,144,128089,5,0,0:0:0:0:
120,192,128339,1,0,0:0:0:0:
80,128,128589,2,0,P|88:72|104:32,2,70
120,192,129339,1,0,0:0:0:0:
176,248,129589,1,12,0:0:0:0:
184,328,133589,6,0,P|256:344|392:280,1,210.000008010865,0|0,1:0|3:0,1:0:0:0:
464,216,134339,2,0,L|456:0,1,210.000008010865,0|0,1:0|0:0,0:0:0:0:
344,8,135089,2,0,L|352:224,1,210.000008010865,0|0,1:0|0:0,0:0:0:0:
144,344,136089,1,0,1:0:0:0:
335,217,136589,2,0,P|287:185|120:208,1,210.000008010865,0|0,1:0|1:0,1:0:0:0:
140,193,137589,6,0,P|148:137|16:88,1,210.000008010865,0|0,1:0|0:0,0:0:0:0:
104,0,138339,2,0,L|328:16,1,210.000008010865,0|0,1:0|0:0,0:0:0:0:
408,88,139089,2,0,P|400:136|464:288,1,210.000008010865,0|0,1:0|0:0,0:0:0:0:
240,352,140089,1,0,1:0:0:0:
424,216,140589,2,0,P|360:208|199:223,1,210.000008010865,0|0,1:0|1:0,1:0:0:0:
215,219,141589,6,0,P|207:179|55:159,1,210.000008010865,0|0,1:0|0:0,0:0:0:0:
120,48,142339,2,0,L|344:56,1,210.000008010865,0|0,1:0|0:0,0:0:0:0:
416,136,143089,2,0,L|192:128,1,210.000008010865,0|0,1:0|0:0,0:0:0:0:
64,312,144089,1,0,1:0:0:0:
280,240,144589,2,0,P|280:296|224:224,1,210.000008010865,0|0,1:0|1:0,1:0:0:0:
416,136,145589,6,0,L|384:352,1,210.000008010865,0|0,1:0|0:0,0:0:0:0:
312,248,146339,2,0,L|344:32,1,210.000008010865,0|0,1:0|0:0,0:0:0:0:
232,8,147089,2,0,P|186:19|96:152,1,210.000008010865,0|0,1:0|0:0,0:0:0:0:
232,336,148089,1,0,1:0:0:0:
376,160,148589,2,0,P|384:112|320:168,1,210.000008010865,0|0,1:0|1:0,1:0:0:0:
448,344,149589,6,0,L|464:120,1,210.000008010865,0|0,1:0|0:0,0:0:0:0:
384,48,150339,2,0,L|368:272,1,210.000008010865,0|0,1:0|0:0,0:0:0:0:
320,360,151089,1,0,0:0:0:0:
232,280,151339,1,0,0:0:0:0:
128,328,151589,2,0,P|80:328|24:304,1,105.000004005432,0|0,1:0|1:0,1:0:0:0:
136,104,152339,2,0,L|376:120,1,210.000008010865
424,240,153089,1,0,0:0:0:0:
296,280,153339,2,0,B|168:328|168:216|24:288,2,262.500010013581,0|0|0,1:0|1:0|1:0,0:0:0:0:
480,136,155089,6,0,L|464:24,1,105.000004005432,0|0,1:0|0:0,0:0:0:0:
376,104,155589,2,0,L|392:216,1,105.000004005432,0|0,1:0|0:0,0:0:0:0:
352,312,156089,1,0,0:0:0:0:
288,216,156339,2,0,P|240:216|192:360,1,210.000008010865,0|0,1:0|0:0,0:0:0:0:
182,344,157089,1,0,0:0:0:0:
416,328,157589,6,0,P|464:296|336:16,1,420.000016021729
272,224,159089,6,0,L|224:320,1,105.000004005432,0|0,1:0|0:0,0:0:0:0:
112,280,159589,2,0,L|160:184,1,105.000004005432,0|0,1:0|0:0,0:0:0:0:
216,88,160089,1,0,0:0:0:0:
296,8,160339,2,0,P|344:24|400:168,1,210.000008010865,0|0,1:0|0:0,0:0:0:0:
376,272,161089,1,0,0:0:0:0:
232,88,161589,6,0,L|0:112,1,210.000008010865,0|0,1:0|0:0,0:0:0:0:
88,208,162339,1,0,0:0:0:0:
48,312,162589,1,0,0:0:0:0:
48,312,162714,1,0,0:0:0:0:
184,208,163089,6,0,L|288:216,1,105.000004005432,0|0,1:0|0:0,0:0:0:0:
352,312,163589,2,0,L|248:304,1,105.000004005432,0|0,1:0|0:0,0:0:0:0:
136,288,164089,1,0,0:0:0:0:
80,192,164339,2,0,P|104:144|248:112,1,210.000008010865,0|0,1:0|0:0,0:0:0:0:
360,144,165089,1,0,0:0:0:0:
360,144,165589,5,0,0:0:0:0:
