osu file format v6

[General]
AudioFilename: Popotan_-_Popotan_Batake_de_Tsukamaete.mp3
AudioLeadIn: 0
PreviewTime: -1
Countdown: 1
SampleSet: Soft
StackLeniency: 0.7
Mode: 0
LetterboxInBreaks: 1

[Editor]
DistanceSpacing: 0.800000011920929
BeatDivisor: 1
GridSize: 8

[Metadata]
Title:PoPoTan
Artist:Under17
Creator:NiteFang
Version:Hard
Source:
Tags:anime popotan

[Difficulty]
HPDrainRate:0
CircleSize:5
OverallDifficulty:4
SliderMultiplier:1.4
SliderTickRate:1

[Events]
//Background and Video events
0,0,"popotan1280.jpg"
//Break Periods
2,23574,27856
2,48394,49775
2,118664,123590
2,147029,153245
2,210530,214490
2,217621,221379
//Storyboard Layer 0 (Background)
//Storyboard Layer 1 (Fail)
//Storyboard Layer 2 (Pass)
//Storyboard Layer 3 (Foreground)
//Storyboard Sound Samples
//Background Colour Transformations
3,100,163,162,255

[TimingPoints]
488.309991506267,322.338025142366,4,2,0,100,1,0

[Colours]
Combo1 : 255,150,0
Combo2 : 5,240,5
Combo3 : 5,5,240
Combo4 : 240,5,5

[HitObjects]
98,182,2422,1,0
162,187,2744,1,0
246,192,3067,1,0
323,187,3711,2,0,B|416:196|468:183|460:112|417:71|345:48|248:62|205:88|201:114,1,280
258,110,5001,1,0
197,146,5323,1,0
136,192,5645,1,0
96,264,6290,2,0,B|264:312|352:272,1,280
144,112,7579,1,0
216,96,7902,1,0
280,112,8224,1,0
320,168,8869,2,0,B|405:307|283:370|115:257,1,280
256,208,10803,12,0,12737
257,192,15638,5,0
255,192,18216,1,0
256,191,20795,1,0
256,191,23374,1,0
368,192,29176,5,0
440,192,29821,1,0
440,128,30465,1,0
368,128,31110,1,0
296,128,31755,1,0
224,128,32077,1,0
224,176,34333,1,0
224,240,34978,1,0
152,240,35300,1,0
296,240,35945,1,0
256,136,38201,1,0
256,232,38524,1,0
341,205,41425,1,0
336,136,42069,1,0
280,144,42714,1,0
200,144,43359,1,0
120,144,44970,1,0
120,72,45615,1,0
192,72,46260,1,0
192,144,46904,1,0
192,216,47549,1,0
192,288,48194,1,0
224,192,51095,5,0
264,192,51417,1,0
315,164,53996,5,0
392,100,54318,1,0
320,207,56575,1,0
398,115,56897,1,0
288,332,59476,1,0
296,212,60120,1,0
408,224,63666,1,0
352,280,63988,1,0
272,288,64633,1,0
192,272,64955,1,0
152,208,65278,2,0,B|151:6|345:85|353:112|232:282|231:282,1,280
288,232,66567,1,0
224,272,66889,1,0
144,264,67212,1,0
104,216,67534,1,0
104,160,67856,2,0,B|-79:54|138:-57|282:125,1,280
445,92,69468,2,0,B|19:100|33:104,1,280
152,152,70435,2,0,B,1,140
152,224,71080,2,0,B,1,140
184,288,71725,1,0
256,288,72369,1,0
296,224,73014,1,0
272,160,73659,1,0
320,112,74303,1,0
336,176,75270,1,0
328,232,75593,1,0
254,192,76882,1,0
256,128,77527,1,0
256,40,78816,1,0
184,40,79783,1,0
184,112,80428,1,0
184,176,81072,1,0
184,240,81717,1,0
184,304,82039,1,0
248,304,82684,1,0
312,304,83329,1,0
312,240,83973,1,0
312,168,84618,1,0
312,104,85263,1,0
248,104,85907,1,0
176,104,86230,1,0
176,168,87197,1,0
176,232,87841,1,0
104,232,88486,1,0
104,168,89131,1,0
104,104,89775,1,0
224,48,92676,1,0
288,48,92999,1,0
224,96,95255,1,0
288,96,95900,1,0
224,160,97189,1,0
288,160,98479,1,0
232,216,101057,1,0
288,216,103314,1,0
352,216,103636,1,0
352,272,105892,1,0
288,272,106215,1,0
224,240,107182,1,0
192,184,107504,1,0
176,120,108471,1,0
192,56,108793,1,0
256,40,109438,1,0
320,48,111694,1,0
384,48,112017,1,0
384,112,112661,1,0
384,176,112984,1,0
320,176,114273,1,0
256,176,114595,1,0
192,176,115240,1,0
128,176,115562,1,0
136,112,117174,1,0
192,56,117497,1,0
256,56,117819,1,0
312,112,118464,1,0
255,192,124910,5,0
303,158,125555,1,0
344,104,126200,1,0
392,176,127489,1,0
312,176,128134,1,0
232,176,129101,1,0
152,176,129745,1,0
152,120,132969,1,0
152,64,133613,1,0
208,64,134258,1,0
208,120,134903,1,0
208,176,135547,1,0
272,176,136192,1,0
270,238,136837,1,0
208,240,137159,1,0
208,176,138448,1,0
264,176,139093,1,0
264,232,139738,1,0
208,232,140060,1,0
247,189,143606,1,0
248,128,144251,1,0
312,128,144895,1,0
312,192,145540,1,0
248,192,146185,1,0
184,192,146829,1,0
245,198,154565,5,0
329,199,155855,1,0
276,251,157144,1,0
268,195,158433,1,0
321,158,159723,1,0
260,160,160690,1,0
223,208,161657,1,0
279,212,162301,1,0
280,158,163591,1,0
229,163,164880,1,0
227,213,166170,1,0
292,209,167459,1,0
294,147,168748,1,0
237,148,170360,1,0
287,104,170682,1,0
368,92,171327,1,0
392,143,172294,1,0
353,193,172939,1,0
305,236,173583,1,0
245,251,174228,1,0
256,184,174550,1,0
272,88,174873,1,0
264,136,175195,1,0
256,176,177129,1,0
321,180,177451,1,0
384,184,178418,1,0
384,128,179063,1,0
320,128,179385,1,0
248,128,180030,1,0
184,128,180352,1,0
240,192,181319,1,0
184,192,181964,1,0
128,192,182286,1,0
128,128,182931,1,0
184,80,183576,1,0
248,104,183898,1,0
216,168,184543,1,0
160,208,185187,1,0
160,272,185832,1,0
223,245,186799,1,0
276,185,187122,1,0
304,128,187766,1,0
288,64,188411,1,0
224,56,189056,1,0
160,80,189700,1,0
192,136,190345,1,0
248,176,190667,1,0
320,176,191312,1,0
384,176,191957,1,0
384,112,192279,1,0
320,112,192924,1,0
256,112,193568,1,0
192,112,193891,1,0
192,176,194535,1,0
192,240,195180,1,0
256,240,195825,1,0
320,240,196469,1,0
320,176,196792,1,0
256,176,197436,1,0
256,112,198081,1,0
192,176,198403,1,0
192,112,199048,1,0
232,232,199693,1,0
296,264,200337,1,0
360,232,200982,1,0
248,192,202594,1,0
296,144,202916,1,0
352,96,203238,1,0
416,48,203883,2,0,B|480:280|408:336|352:272,1,280
328,272,205172,1,0
272,216,205495,1,0
208,176,206462,2,0,B|88:64|320:56|448:296,1,420
360,320,207751,1,0
288,320,208073,1,0
216,320,208396,1,0
160,288,209363,2,0,B|48:176|64:48|232:64|320:176,1,420
256,192,215810,5,0
184,152,216454,2,0,B|336:152|336:152|176:152|176:152,1,420
