osu file format v13

[General]
AudioFilename: Adore Your Pain - UNDEAD CORPORATION.mp3
AudioLeadIn: 0
PreviewTime: 47183
Countdown: 1
SampleSet: None
StackLeniency: 0.7
Mode: 0
LetterboxInBreaks: 1
WidescreenStoryboard: 0

[Editor]
DistanceSpacing: 1
BeatDivisor: 4
GridSize: 8
TimelineZoom: 1

[Metadata]
Title:Adore Your Pain
TitleUnicode:Adore Your Pain
Artist:Undead Corporation
ArtistUnicode:Undead Corporation
Creator:Asia Senpai
Version:
Source:
Tags:
BeatmapID:514815
BeatmapSetID:219922

[Difficulty]
HPDrainRate:7
CircleSize:5
OverallDifficulty:8
ApproachRate:9.5
SliderMultiplier:2.00000000596047
SliderTickRate:2

[Events]
//Background and Video events
//Break Periods
//Storyboard Layer 0 (Background)
//Storyboard Layer 1 (Fail)
//Storyboard Layer 2 (Pass)
//Storyboard Layer 3 (Foreground)
//Storyboard Sound Samples
//Background Colour Transformations
3,100,163,162,255

[TimingPoints]
0,285.714285714286,4,1,0,39,1,0
7571,-133.333333333333,4,1,0,35,0,0
8000,-100,4,1,0,40,0,0
10285,-80,4,1,0,100,0,0
19571,-100,4,1,0,85,0,0
28571,-133.333333333333,4,1,0,50,0,0
47000,-80,4,1,0,100,0,1
76571,-100,4,1,0,85,0,0
87714,-133.333333333333,4,1,0,100,0,0
88642,-100,4,1,0,100,0,0
133714,-133.333333333333,4,1,0,75,0,0
142857,-133.333333333333,4,1,0,75,0,0

[HitObjects]
140,152,0,6,0,L|180:104,2,50.0000001490117,0|0|0,0:0|0:0|0:0,0:0:0:0:
151,161,214,2,0,L|194:136,3,50.0000001490117,0|0|0|0,0:0|0:0|0:0|0:0,0:0:0:0:
155,185,500,2,0,L|226:173,3,50.0000001490117,0|0|0|0,0:0|0:0|0:0|0:0,0:0:0:0:
149,216,785,2,0,L|218:223,3,50.0000001490117,0|0|0|0,0:0|0:0|0:0|0:0,0:0:0:0:
204,242,1142,2,0,L|309:72,1,200.000000596047
190,105,1714,2,0,P|275:94|224:136,2,200.000000596047,0|0|0,0:0|0:0|0:0,0:0:0:0:
143,258,2571,5,0,0:0:0:0:
303,258,2857,1,0,0:0:0:0:
227,117,3142,1,0,0:0:0:0:
67,126,3428,2,0,B|111:105|77:236|199:266|194:171,2,200.000000596047,0|0|0,0:0|0:0|0:0,0:0:0:0:
345,93,4285,2,0,B|332:174|391:210|245:220,1,200.000000596047
153,91,4857,2,0,B|166:172|107:208|253:218,1,200.000000596047
256,190,5428,1,0,0:0:0:0:
206,300,5571,2,0,P|303:245|370:288,1,200.000000596047
417,209,6000,5,0,0:0:0:0:
377,33,6285,2,0,B|307:143|381:108|253:-48|291:194|241:-12|176:83,1,200.000000596047
111,62,6857,2,0,L|176:95,2,50.0000001490117,0|0|0,0:0|0:0|0:0,0:0:0:0:
200,62,7142,2,0,L|132:99,2,50.0000001490117,0|0|0,0:0|0:0|0:0,0:0:0:0:
101,176,7428,1,0,0:0:0:0:
175,226,7571,2,0,B|265:186|301:244|404:204,1,225.000009253622
258,102,8285,2,0,B|136:85|138:59|62:113|41:35,2,200.000000596047,0|0|0,0:0|0:0|0:0,0:0:0:0:
166,119,9142,5,0,0:0:0:0:
174,126,9213,1,0,0:0:0:0:
182,134,9284,1,0,0:0:0:0:
190,142,9356,1,0,0:0:0:0:
199,150,9427,1,0,0:0:0:0:
207,158,9499,1,0,0:0:0:0:
215,166,9570,1,0,0:0:0:0:
224,174,9641,1,0,0:0:0:0:
232,182,9713,1,0,0:0:0:0:
239,190,9786,1,0,0:0:0:0:
247,197,9857,1,0,0:0:0:0:
255,205,9928,1,0,0:0:0:0:
263,213,10000,1,0,0:0:0:0:
272,221,10071,1,0,0:0:0:0:
280,229,10143,1,0,0:0:0:0:
398,61,10285,5,0,0:0:0:0:
421,178,10428,2,0,P|283:88|159:123,1,250.000000745059
94,279,10856,2,0,B|214:322|226:253|312:241|245:284|349:371,1,250.000000745059
234,169,11285,1,0,0:0:0:0:
104,51,11428,2,0,B|271:56|321:92|191:138,1,250.000000745059
362,207,11856,2,0,B|440:277|390:313|298:259|223:318,1,250.000000745059
186,142,12285,5,0,0:0:0:0:
348,208,12428,1,0,0:0:0:0:
185,273,12571,2,0,P|321:151|357:173,1,250.000000745059
281,225,13000,2,0,P|406:240|411:104,1,250.000000745059
85,58,13428,6,0,L|211:75,1,125.000000372529
297,96,13714,1,0,0:0:0:0:
361,149,13857,1,0,0:0:0:0:
397,228,14000,1,0,0:0:0:0:
370,310,14142,1,0,0:0:0:0:
290,346,14285,1,0,0:0:0:0:
215,323,14428,6,0,P|218:250|127:238,1,125.000000372529
167,286,14714,1,0,0:0:0:0:
70,125,14857,2,0,P|275:182|294:204,1,250.000000745059
450,129,15285,2,0,P|245:186|226:208,1,250.000000745059
308,64,15714,1,0,0:0:0:0:
259,191,15857,1,0,0:0:0:0:
178,79,16000,6,0,B|51:197|54:242|194:280,1,250.000000745059
259,191,16428,2,0,B|478:237|483:157|423:157,1,250.000000745059
291,121,16857,1,0,0:0:0:0:
154,141,17000,1,0,0:0:0:0:
71,249,17142,2,0,B|88:323|164:273|160:231|267:266|82:179|204:158,1,250.000000745059
338,251,17571,2,0,B|321:325|245:275|249:233|142:268|327:181|205:160,1,250.000000745059
102,66,18000,5,0,0:0:0:0:
213,55,18142,1,0,0:0:0:0:
317,97,18285,1,0,0:0:0:0:
399,173,18428,2,0,P|470:265|478:300,2,125.000000372529,0|0|0,0:0|0:0|0:0,0:0:0:0:
286,156,18857,1,0,0:0:0:0:
181,197,19000,1,0,0:0:0:0:
102,276,19142,2,0,B|62:290|9:246|42:313|35:367,2,125.000000372529,0|0|0,0:0|0:0|0:0,0:0:0:0:
80,128,19571,5,0,0:0:0:0:
168,120,19714,1,0,0:0:0:0:
268,128,19857,2,0,P|316:180|296:236,1,100.000000298023
220,240,20142,2,0,P|180:200|204:140,1,100.000000298023
300,100,20428,2,0,P|348:152|328:208,1,100.000000298023
176,268,20714,2,0,P|136:228|160:168,1,100.000000298023
252,176,21000,5,0,0:0:0:0:
356,204,21142,2,0,B|320:112|308:108|240:148|304:212|180:200,2,200.000000596047,0|0|0,0:0|0:0|0:0,0:0:0:0:
172,128,21857,1,0,0:0:0:0:
120,200,22000,2,0,L|144:248,2,50.0000001490117,0|0|0,0:0|0:0|0:0,0:0:0:0:
84,216,22285,2,0,L|96:264,2,50.0000001490117,0|0|0,0:0|0:0|0:0,0:0:0:0:
44,228,22571,2,0,L|44:280,2,50.0000001490117,0|0|0,0:0|0:0|0:0,0:0:0:0:
76,60,22857,5,0,0:0:0:0:
92,56,22928,1,0,0:0:0:0:
88,72,23000,1,0,0:0:0:0:
204,124,23142,1,0,0:0:0:0:
220,120,23213,1,0,0:0:0:0:
216,136,23285,1,0,0:0:0:0:
316,220,23428,6,0,P|216:292|208:292,1,100.000000298023
144,292,23714,2,0,P|88:240|76:208,1,100.000000298023
100,120,24000,2,0,P|160:96|288:124,1,200.000000596047
368,124,24428,1,0,0:0:0:0:
268,284,24571,1,0,0:0:0:0:
160,128,24714,1,0,0:0:0:0:
368,124,24857,1,0,0:0:0:0:
268,284,25000,1,0,0:0:0:0:
160,128,25142,1,0,0:0:0:0:
64,292,25285,5,0,0:0:0:0:
268,284,25428,1,0,0:0:0:0:
260,84,25571,1,0,0:0:0:0:
60,84,25714,2,0,B|88:196|140:80|152:252|152:272,2,200.000000596047,0|0|0,0:0|0:0|0:0,0:0:0:0:
260,92,26428,1,0,0:0:0:0:
252,196,26571,1,0,0:0:0:0:
253,186,26642,1,0,0:0:0:0:
261,192,26714,1,0,0:0:0:0:
68,144,26857,5,0,0:0:0:0:
68,134,26928,1,0,0:0:0:0:
76,139,27000,1,0,0:0:0:0:
112,336,27142,1,0,0:0:0:0:
112,326,27213,1,0,0:0:0:0:
120,331,27285,1,0,0:0:0:0:
320,308,27428,2,0,B|352:248|348:256,2,50.0000001490117,0|0|0,0:0|0:0|0:0,0:0:0:0:
352,324,27714,2,0,B|400:272|380:272,2,50.0000001490117,0|0|0,0:0|0:0|0:0,0:0:0:0:
356,124,28000,5,0,0:0:0:0:
360,136,28071,1,0,0:0:0:0:
340,132,28142,1,0,0:0:0:0:
148,76,28285,1,0,0:0:0:0:
152,88,28356,1,0,0:0:0:0:
132,84,28427,1,0,0:0:0:0:
92,228,28571,5,0,0:0:0:0:
164,272,28714,1,0,0:0:0:0:
248,280,28857,1,0,0:0:0:0:
328,268,29000,2,0,P|376:252|412:208,1,75.0000030845407
440,168,29285,1,0,0:0:0:0:
436,84,29428,2,0,B|312:80|308:136|252:44|208:112|148:168,2,300.000012338163,0|0|0,0:0|0:0|0:0,0:0:0:0:
56,28,30857,5,0,0:0:0:0:
56,36,30928,1,0,0:0:0:0:
56,44,31000,1,0,0:0:0:0:
76,124,31142,1,0,0:0:0:0:
144,212,31285,1,0,0:0:0:0:
264,276,31428,1,0,0:0:0:0:
404,216,31571,1,0,0:0:0:0:
468,80,31714,2,0,B|344:16|384:116|464:256|352:296,2,300.000012338163,0|0|0,0:0|0:0|0:0,0:0:0:0:
228,196,33000,5,0,0:0:0:0:
108,180,33143,2,0,B|68:160|68:160|32:112,2,75.0000030845407,0|0|0,0:0|0:0|0:0,0:0:0:0:
160,260,33571,1,0,0:0:0:0:
264,168,33715,1,0,0:0:0:0:
308,312,33858,1,0,0:0:0:0:
404,200,34000,2,0,B|364:164|308:160|308:120|256:88|256:88|208:72|196:112|196:112|184:176,2,300.000012338163,0|0|0,0:0|0:0|0:0,0:0:0:0:
256,228,35285,5,0,0:0:0:0:
152,120,35428,1,0,0:0:0:0:
92,256,35571,1,0,0:0:0:0:
152,120,35714,1,0,0:0:0:0:
256,228,35857,1,0,0:0:0:0:
336,100,36000,1,0,0:0:0:0:
420,224,36142,1,0,0:0:0:0:
256,228,36285,2,0,B|304:200|360:244|264:80|348:168|348:168|416:200|428:80,2,300.000012338163,0|0|0,0:0|0:0|0:0,0:0:0:0:
144,140,37714,5,0,0:0:0:0:
156,152,37785,1,0,0:0:0:0:
168,164,37857,1,0,0:0:0:0:
220,192,38000,1,0,0:0:0:0:
288,212,38142,1,0,0:0:0:0:
356,196,38285,2,0,P|312:100|116:40,2,300.000012338163,0|0|0,0:0|0:0|0:0,0:0:0:0:
152,112,40000,5,0,0:0:0:0:
152,112,40071,1,0,0:0:0:0:
152,112,40143,1,0,0:0:0:0:
88,356,40286,1,0,0:0:0:0:
288,228,40428,1,0,0:0:0:0:
28,224,40571,1,0,0:0:0:0:
228,352,40714,1,0,0:0:0:0:
152,240,40857,2,0,B|80:232|96:328|208:328|244:268|236:200|128:148|96:208,2,300.000012338163,0|0|0,0:0|0:0|0:0,0:0:0:0:
340,80,42285,5,0,0:0:0:0:
328,140,42428,1,0,0:0:0:0:
288,212,42571,1,0,0:0:0:0:
212,260,42714,1,0,0:0:0:0:
116,284,42857,1,0,0:0:0:0:
36,204,43000,1,0,0:0:0:0:
36,92,43142,2,0,B|112:144|200:44|316:164,2,300.000012338163,0|0|0,0:0|0:0|0:0,0:0:0:0:
188,40,44428,1,0,0:0:0:0:
312,124,44571,1,0,0:0:0:0:
428,224,44714,5,0,0:0:0:0:
232,228,44857,1,0,0:0:0:0:
312,356,45000,1,0,0:0:0:0:
164,360,45142,1,0,0:0:0:0:
312,356,45285,1,0,0:0:0:0:
232,228,45428,1,0,0:0:0:0:
84,220,45571,1,0,0:0:0:0:
136,88,45714,5,0,0:0:0:0:
220,120,45857,1,0,0:0:0:0:
308,96,46000,1,0,0:0:0:0:
330,124,46071,1,0,0:0:0:0:
341,160,46142,1,0,0:0:0:0:
340,197,46214,1,0,0:0:0:0:
328,232,46285,1,0,0:0:0:0:
307,263,46357,1,0,0:0:0:0:
279,286,46428,1,0,0:0:0:0:
245,301,46500,1,0,0:0:0:0:
208,306,46571,1,0,0:0:0:0:
171,302,46642,1,0,0:0:0:0:
136,291,46714,1,0,0:0:0:0:
104,272,46785,1,0,0:0:0:0:
80,244,46857,1,0,0:0:0:0:
112,88,47000,6,0,B|188:76|188:76|232:112|232:112|276:72|276:72|336:148,1,250.000000745059
376,236,47428,2,0,B|300:224|300:224|256:260|256:260|212:220|212:220|152:296,1,250.000000745059
252,148,47857,1,0,0:0:0:0:
148,60,48000,2,0,P|40:112|56:240,1,250.000000745059
132,156,48428,2,0,P|136:280|44:352,1,250.000000745059
204,156,48857,1,0,0:0:0:0:
304,284,49000,1,0,0:0:0:0:
412,164,49142,2,0,B|340:72|240:172|200:68|172:64,1,250.000000745059
352,72,49571,2,0,B|339:67|299:171|199:71|127:163,1,250.000000745059
264,256,50000,6,0,P|152:164|148:160,1,125.000000372529
68,48,50285,1,0,0:0:0:0:
68,48,50357,1,0,0:0:0:0:
68,48,50428,1,0,0:0:0:0:
232,52,50571,1,0,0:0:0:0:
232,52,50643,1,0,0:0:0:0:
232,52,50714,1,0,0:0:0:0:
232,216,50857,1,0,0:0:0:0:
232,216,50929,1,0,0:0:0:0:
232,216,51000,1,0,0:0:0:0:
72,212,51142,1,0,0:0:0:0:
72,212,51214,1,0,0:0:0:0:
72,212,51285,1,0,0:0:0:0:
468,112,51428,6,0,B|344:128|296:84|248:208,1,250.000000745059
40,112,51857,2,0,B|164:128|212:84|260:208,1,250.000000745059
112,276,52285,2,0,P|216:304|248:292,1,125.000000372529
264,244,52571,2,0,B|404:220|468:284|404:124,1,250.000000745059
168,200,53000,2,0,B|124:56|175:123|320:96,1,250.000000745059
192,316,53428,1,0,0:0:0:0:
316,100,53571,1,0,0:0:0:0:
488,284,53714,2,0,P|292:168|252:176,1,250.000000745059
32,308,54142,2,0,P|204:176|264:172,1,250.000000745059
256,308,54571,6,0,L|256:232,2,62.5000001862647,0|0|0,0:0|0:0|0:0,0:0:0:0:
140,84,54857,2,0,L|396:84,2,250.000000745059,0|0|0,0:0|0:0|0:0,0:0:0:0:
100,76,56000,5,0,0:0:0:0:
126,92,56071,1,0,0:0:0:0:
151,110,56142,1,0,0:0:0:0:
176,129,56214,1,0,0:0:0:0:
201,149,56285,1,0,0:0:0:0:
224,170,56357,1,0,0:0:0:0:
246,192,56428,1,0,0:0:0:0:
266,216,56500,1,0,0:0:0:0:
284,241,56571,1,0,0:0:0:0:
300,268,56642,1,0,0:0:0:0:
313,297,56714,1,0,0:0:0:0:
324,326,56785,1,0,0:0:0:0:
334,355,56857,1,0,0:0:0:0:
404,224,57000,5,0,0:0:0:0:
415,87,57142,2,0,P|314:128|304:157,1,125.000000372529
394,161,57428,2,0,P|350:204|289:208,1,125.000000372529
284,120,57714,1,0,0:0:0:0:
198,100,57857,1,0,0:0:0:0:
111,116,58000,1,0,0:0:0:0:
67,191,58142,1,0,0:0:0:0:
44,275,58285,2,0,P|256:346|361:309,1,250.000000745059
272,280,58714,2,0,P|148:268|112:232,1,125.000000372529
168,208,59000,1,0,0:0:0:0:
228,228,59142,2,0,P|144:280|73:263,1,125.000000372529
320,175,59428,5,0,0:0:0:0:
244,129,59571,1,0,0:0:0:0:
180,132,59714,2,0,P|72:128|48:160,1,125.000000372529
116,172,60000,1,0,0:0:0:0:
30,192,60142,1,0,0:0:0:0:
101,241,60285,1,0,0:0:0:0:
155,172,60428,1,0,0:0:0:0:
83,131,60571,2,0,B|171:199|212:304|287:245,1,250.000000745059
405,125,61000,5,0,0:0:0:0:
371,205,61142,2,0,P|319:272|240:296,1,125.000000372529
196,293,61428,2,0,B|106:302|54:208|95:233,2,125.000000372529,0|0|0,0:0|0:0|0:0,0:0:0:0:
280,267,61857,1,0,0:0:0:0:
360,232,62000,2,0,B|205:139|338:108|162:69,1,250.000000745059
122,138,62428,2,0,P|84:248|107:296,1,125.000000372529,0|0,0:0|0:0,0:0:0:0:
206,163,62714,2,0,P|277:289|298:292,1,125.000000372529
293,141,63000,2,0,P|376:244|415:241,1,125.000000372529
392,159,63285,5,0,0:0:0:0:
446,89,63428,2,0,B|376:50|271:124|161:69,1,250.000000745059
125,131,63857,1,0,0:0:0:0:
82,207,64000,2,0,P|183:304|204:313,1,125.000000372529
165,170,64285,2,0,P|259:233|321:244,1,125.000000372529
247,111,64571,2,0,P|376:170|415:169,1,125.000000372529
299,54,64857,2,0,P|356:80|473:86,1,125.000000372529
485,148,65142,5,0,0:0:0:0:
487,177,65213,1,0,0:0:0:0:
487,207,65284,1,0,0:0:0:0:
483,237,65356,1,0,0:0:0:0:
475,266,65427,1,0,0:0:0:0:
463,294,65499,1,0,0:0:0:0:
449,320,65570,1,0,0:0:0:0:
431,344,65642,1,0,0:0:0:0:
411,366,65713,1,0,0:0:0:0:
288,238,65857,5,0,0:0:0:0:
154,351,66000,1,0,0:0:0:0:
96,186,66142,1,0,0:0:0:0:
237,82,66285,2,0,P|306:169|364:198,1,125.000000372529
312,93,66571,2,0,P|401:151|462:164,1,125.000000372529
390,83,66857,2,0,P|459:113|511:117,2,125.000000372529,0|0|0,0:0|0:0|0:0,0:0:0:0:
337,29,67285,5,0,0:0:0:0:
263,46,67428,1,0,0:0:0:0:
196,81,67571,1,0,0:0:0:0:
102,228,67714,1,0,0:0:0:0:
250,321,67857,1,0,0:0:0:0:
274,147,68000,1,0,0:0:0:0:
250,321,68142,1,0,0:0:0:0:
102,228,68285,1,0,0:0:0:0:
169,195,68428,6,0,L|311:263,1,125.000000372529
252,179,68714,2,0,L|406:257,1,125.000000372529
319,296,69000,1,0,0:0:0:0:
247,316,69142,1,0,0:0:0:0:
172,308,69285,1,0,0:0:0:0:
105,273,69428,2,0,P|56:202|69:153,1,125.000000372529
100,104,69714,2,0,P|185:71|231:108,1,125.000000372529
265,133,70000,2,0,P|262:225|224:269,1,125.000000372529
372,129,70285,5,0,0:0:0:0:
367,203,70428,1,0,0:0:0:0:
334,270,70571,1,0,0:0:0:0:
361,339,70714,1,0,0:0:0:0:
286,330,70857,1,0,0:0:0:0:
215,310,71000,1,0,0:0:0:0:
142,292,71142,1,0,0:0:0:0:
116,221,71285,6,0,P|81:109|61:49,2,125.000000372529,0|0|0,0:0|0:0|0:0,0:0:0:0:
191,224,71714,2,0,P|226:112|246:52,2,125.000000372529,0|0|0,0:0|0:0|0:0,0:0:0:0:
258,257,72142,2,0,P|372:145|374:143,2,125.000000372529,0|0|0,0:0|0:0|0:0,0:0:0:0:
201,307,72571,2,0,P|52:264|72:148,1,250.000000745059
96,134,73000,1,0,0:0:0:0:
151,84,73142,5,0,0:0:0:0:
212,126,73285,1,0,0:0:0:0:
285,138,73428,1,0,0:0:0:0:
359,132,73571,1,0,0:0:0:0:
423,93,73714,1,0,0:0:0:0:
466,31,73857,1,0,0:0:0:0:
390,31,74000,5,0,0:0:0:0:
366,35,74071,1,0,0:0:0:0:
341,37,74142,1,0,0:0:0:0:
315,38,74214,1,0,0:0:0:0:
290,38,74285,1,0,0:0:0:0:
264,38,74357,1,0,0:0:0:0:
239,35,74428,1,0,0:0:0:0:
214,29,74500,1,0,0:0:0:0:
189,26,74571,1,0,0:0:0:0:
132,52,74714,5,0,0:0:0:0:
100,104,74857,1,0,0:0:0:0:
68,160,75000,2,0,L|156:252,1,125.000000372529
40,208,75285,2,0,L|140:316,1,125.000000372529
284,188,75571,2,0,L|192:312,1,125.000000372529
320,232,75857,2,0,L|228:356,1,125.000000372529
16,252,76142,2,0,L|132:356,1,125.000000372529
356,280,76428,1,0,0:0:0:0:
80,128,76571,5,0,0:0:0:0:
236,56,76714,1,0,0:0:0:0:
304,212,76857,1,0,0:0:0:0:
148,284,77000,1,0,0:0:0:0:
240,144,77142,2,0,B|352:136|376:144|408:224,2,200.000000596047,0|0|0,0:0|0:0|0:0,0:0:0:0:
256,193,77857,1,0,0:0:0:0:
128,160,78000,1,0,0:0:0:0:
128,160,78071,1,0,0:0:0:0:
128,160,78142,1,0,0:0:0:0:
384,160,78285,1,0,0:0:0:0:
384,160,78357,1,0,0:0:0:0:
384,160,78428,1,0,0:0:0:0:
160,352,78571,1,0,0:0:0:0:
160,352,78642,5,0,0:0:0:0:
160,352,78714,1,0,0:0:0:0:
256,64,78857,1,0,0:0:0:0:
256,64,78928,1,0,0:0:0:0:
256,64,79000,1,0,0:0:0:0:
352,352,79142,1,0,0:0:0:0:
352,352,79214,1,0,0:0:0:0:
352,352,79285,5,0,0:0:0:0:
96,64,79428,1,0,0:0:0:0:
256,320,79714,1,0,0:0:0:0:
416,64,80000,1,0,0:0:0:0:
335,137,80142,2,0,P|343:184|309:218,1,100.000000298023
275,112,80428,2,0,P|283:159|249:193,1,100.000000298023
219,86,80714,2,0,P|227:133|193:167,1,100.000000298023
165,59,81000,2,0,P|173:106|139:140,1,100.000000298023
113,33,81285,2,0,P|121:80|87:114,1,100.000000298023
60,17,81571,5,0,0:0:0:0:
221,86,81714,2,0,B|203:218|53:109|86:238,2,200.000000596047,0|0|0,0:0|0:0|0:0,0:0:0:0:
384,264,82571,2,0,P|368:256|328:248,2,50.0000001490117,0|0|0,0:0|0:0|0:0,0:0:0:0:
288,88,82857,2,0,P|272:80|232:72,2,50.0000001490117,0|0|0,0:0|0:0|0:0,0:0:0:0:
112,184,83142,2,0,P|96:176|56:168,2,50.0000001490117,0|0|0,0:0|0:0|0:0,0:0:0:0:
216,360,83428,2,0,P|200:352|160:344,2,50.0000001490117,0|0|0,0:0|0:0|0:0,0:0:0:0:
224,160,83714,5,0,0:0:0:0:
224,160,83785,1,0,0:0:0:0:
224,160,83857,1,0,0:0:0:0:
288,224,84000,1,0,0:0:0:0:
288,224,84071,1,0,0:0:0:0:
288,224,84142,1,0,0:0:0:0:
224,224,84285,1,0,0:0:0:0:
224,224,84357,1,0,0:0:0:0:
224,224,84428,1,0,0:0:0:0:
288,160,84571,5,0,0:0:0:0:
336,192,84714,1,0,0:0:0:0:
256,272,84857,1,0,0:0:0:0:
176,192,85000,1,0,0:0:0:0:
256,112,85142,1,0,0:0:0:0:
256,192,85285,1,0,0:0:0:0:
224,152,85428,1,0,0:0:0:0:
288,160,85571,1,0,0:0:0:0:
296,224,85714,2,0,L|56:264,2,200.000000596047,0|0|0,0:0|0:0|0:0,0:0:0:0:
224,160,86857,5,0,0:0:0:0:
176,192,87000,1,0,0:0:0:0:
256,272,87143,1,0,0:0:0:0:
336,192,87286,1,0,0:0:0:0:
256,112,87428,1,0,0:0:0:0:
256,192,87571,1,0,0:0:0:0:
256,192,87714,2,0,B|136:176|240:352|64:296,2,225.000009253622,0|0|0,0:0|0:0|0:0,0:0:0:0:
256,288,89142,1,0,0:0:0:0:
344,336,89285,1,0,0:0:0:0:
400,256,89428,1,0,0:0:0:0:
320,208,89570,5,0,0:0:0:0:
240,152,89713,1,0,0:0:0:0:
312,72,89856,1,0,0:0:0:0:
384,136,89999,1,0,0:0:0:0:
256,192,90071,12,0,90857,0:0:0:0:
168,112,91000,5,0,0:0:0:0:
168,112,91142,1,0,0:0:0:0:
240,80,91285,1,0,0:0:0:0:
312,88,91428,1,0,0:0:0:0:
342,109,91499,1,0,0:0:0:0:
369,135,91570,1,0,0:0:0:0:
390,166,91642,1,0,0:0:0:0:
404,201,91713,1,0,0:0:0:0:
406,238,91785,1,0,0:0:0:0:
391,272,91856,5,0,0:0:0:0:
362,294,91927,1,0,0:0:0:0:
325,303,91999,1,0,0:0:0:0:
288,301,92070,1,0,0:0:0:0:
252,291,92142,1,0,0:0:0:0:
219,274,92213,1,0,0:0:0:0:
190,249,92285,1,0,0:0:0:0:
169,219,92356,1,0,0:0:0:0:
158,183,92427,5,0,0:0:0:0:
157,146,92499,1,0,0:0:0:0:
165,109,92570,1,0,0:0:0:0:
184,72,92642,1,0,0:0:0:0:
216,48,92714,2,0,L|264:32,1,50.0000001490117
312,40,92857,2,0,L|368:64,1,50.0000001490117
400,80,93000,2,0,L|432:120,1,50.0000001490117
448,168,93142,2,0,L|480:256,1,50.0000001490117
464,264,93285,6,0,P|464:304|416:344,1,100.000000298023
320,360,93571,2,0,L|208:360,1,100.000000298023
