osu file format v13

[General]
AudioFilename: Adore Your Pain - UNDEAD CORPORATION.mp3
AudioLeadIn: 0
PreviewTime: 47183
Countdown: 1
SampleSet: Normal
StackLeniency: 0.7
Mode: 0
LetterboxInBreaks: 1
WidescreenStoryboard: 0

[Editor]
DistanceSpacing: 1
BeatDivisor: 4
GridSize: 8
TimelineZoom: 1

[Metadata]
Title:Adore Your Pain
TitleUnicode:Adore Your Pain
Artist:Undead Corporation
ArtistUnicode:Undead Corporation
Creator:Asia Senpai
Version:Extra
Source:
Tags:Shiro
BeatmapID:525771
BeatmapSetID:225307

[Difficulty]
HPDrainRate:6
CircleSize:5
OverallDifficulty:8
ApproachRate:9.5
SliderMultiplier:2.00000000596047
SliderTickRate:2

[Events]
//Background and Video events
//Break Periods
2,25498,133203
//Storyboard Layer 0 (Background)
//Storyboard Layer 1 (Fail)
//Storyboard Layer 2 (Pass)
//Storyboard Layer 3 (Foreground)
//Storyboard Sound Samples

[TimingPoints]
14,285.714285714286,4,1,0,39,1,0
14,-133.333333333333,4,1,0,100,0,0
7299,-133.333333333333,4,1,0,100,0,0
9871,-100,4,1,0,100,0,1
19442,-133.333333333333,4,1,0,100,0,0
133728,-166.666666666667,4,1,0,75,0,0
142871,-133.333333333333,4,1,0,75,0,0

[HitObjects]
60,123,14,5,0,0:0:0:0:
77,117,85,1,0,0:0:0:0:
93,111,156,1,0,0:0:0:0:
110,107,228,1,0,0:0:0:0:
127,104,299,1,0,0:0:0:0:
145,102,371,1,0,0:0:0:0:
162,102,442,1,0,0:0:0:0:
180,102,514,1,0,0:0:0:0:
197,104,585,1,0,0:0:0:0:
214,107,656,1,8,0:0:0:0:
231,111,728,1,8,0:0:0:0:
248,116,799,1,8,0:0:0:0:
352,72,1014,6,0,L|384:232,1,150.000006169081
328,168,1442,1,0,0:0:0:0:
248,215,1585,1,0,0:0:0:0:
322,238,1728,1,0,0:0:0:0:
354,170,1871,1,0,0:0:0:0:
396,226,2014,2,0,P|407:124|359:122,2,150.000006169081,0|0|0,0:0|0:0|0:0,0:0:0:0:
354,170,2728,2,0,L|276:163,1,75.0000030845407
220,115,3014,1,0,0:0:0:0:
150,143,3156,1,0,0:0:0:0:
210,187,3299,6,0,B|269:209|269:209|265:164|265:164|335:187,1,150.000006169081
379,169,3728,2,0,P|323:90|180:83,1,225.000009253622
243,136,4299,2,0,L|308:193,1,75.0000030845407
358,232,4585,2,0,P|295:246|179:141,1,225.000009253622
115,187,5156,1,0,0:0:0:0:
135,259,5299,1,0,0:0:0:0:
208,280,5442,1,0,0:0:0:0:
200,208,5585,6,0,B|297:128|304:280|432:184,1,225.000009253622,0|0,0:0|0:0,0:0:0:0:
440,128,6156,2,0,L|336:136,1,75.0000030845407
357,67,6442,2,0,P|221:81|196:158,1,225.000009253622
258,191,7014,1,0,0:0:0:0:
310,244,7156,1,0,0:0:0:0:
232,248,7299,2,0,B|96:208|128:144|168:160|80:48|64:328|64:328|392:320|392:320|256:272|296:216,1,825.000033929947
288,202,9085,1,0,0:0:0:0:
266,228,9156,1,0,0:0:0:0:
238,207,9227,1,0,0:0:0:0:
250,173,9299,1,0,0:0:0:0:
284,161,9370,1,0,0:0:0:0:
319,173,9442,1,0,0:0:0:0:
336,205,9513,1,0,0:0:0:0:
327,241,9584,5,0,0:0:0:0:
299,264,9656,1,0,0:0:0:0:
262,268,9727,1,0,0:0:0:0:
226,258,9799,1,0,0:0:0:0:
207,242,9871,1,0,0:0:0:0:
169,208,10014,1,0,0:0:0:0:
143,165,10156,1,0,0:0:0:0:
128,119,10299,2,0,P|226:99|367:137,1,200.000000596047
411,66,10728,2,0,P|376:191|279:223,1,200.000000596047
259,141,11156,6,0,L|334:240,1,100.000000298023
395,286,11442,2,0,P|209:322|165:312,1,200.000000596047
107,286,11871,2,0,P|293:322|337:312,1,200.000000596047
258,229,12299,2,0,L|141:174,1,100.000000298023
87,124,12585,2,0,P|187:68|291:107,1,200.000000596047
345,147,13014,2,0,P|406:295|392:342,1,200.000000596047
312,272,13442,1,0,0:0:0:0:
320,256,13514,1,0,0:0:0:0:
328,240,13585,5,0,0:0:0:0:
240,192,13728,1,0,0:0:0:0:
232,208,13799,1,0,0:0:0:0:
224,224,13871,1,0,0:0:0:0:
144,176,14014,1,0,0:0:0:0:
152,160,14086,1,0,0:0:0:0:
160,144,14157,5,0,0:0:0:0:
272,88,14299,1,0,0:0:0:0:
264,104,14370,1,0,0:0:0:0:
256,120,14442,5,0,0:0:0:0:
336,160,14585,1,0,0:0:0:0:
344,144,14657,1,0,0:0:0:0:
352,128,14728,5,0,0:0:0:0:
275,191,14871,2,0,P|76:142|64:121,1,200.000000596047
127,67,15299,2,0,P|216:118|281:200,1,200.000000596047
318,284,15728,2,0,L|359:169,1,100.000000298023
326,91,16014,6,0,B|189:90|227:225,1,200.000000596047
316,177,16442,2,0,B|453:176|415:311,1,200.000000596047
325,260,16871,2,0,L|212:265,1,100.000000298023
234,164,17156,2,0,P|131:110|153:90,1,200.000000596047
233,165,17585,2,0,P|297:95|383:171,1,200.000000596047
352,240,18014,1,0,0:0:0:0:
272,296,18156,1,0,0:0:0:0:
184,256,18299,2,0,L|112:160,1,100.000000298023
224,200,18585,2,0,L|160:120,1,100.000000298023
256,144,18871,6,0,L|192:64,1,100.000000298023
288,40,19156,1,0,0:0:0:0:
384,72,19299,1,0,0:0:0:0:
424,136,19442,2,0,P|408:232|464:288,1,150.000006169081
472,200,19871,1,0,0:0:0:0:
400,200,20014,1,0,0:0:0:0:
336,240,20156,2,0,P|256:200|240:200,1,75.0000030845407
232,264,20442,2,0,P|192:224|184:200,1,75.0000030845407
240,160,20728,1,0,0:0:0:0:
312,152,20871,6,0,P|352:72|360:64,1,75.0000030845407
272,120,21156,2,0,B|48:144|272:16|16:32,1,300.000012338163
48,104,21871,1,0,0:0:0:0:
48,104,21942,2,0,L|72:144,1,37.5000015422703,0|0,0:0|0:0,0:0:0:0:
56,208,22156,1,0,0:0:0:0:
56,208,22227,2,0,L|80:248,1,37.5000015422703,0|0,0:0|0:0,0:0:0:0:
56,312,22442,1,0,0:0:0:0:
56,312,22513,2,0,L|80:352,1,37.5000015422703,0|0,0:0|0:0,0:0:0:0:
152,208,22728,1,0,0:0:0:0:
152,208,22799,2,0,L|176:248,1,37.5000015422703,0|0,0:0|0:0,0:0:0:0:
240,208,23014,5,0,0:0:0:0:
240,208,23085,2,0,L|264:248,1,37.5000015422703,0|0,0:0|0:0,0:0:0:0:
304,176,23299,2,0,L|112:88,2,187.500007711352,0|0|0,0:0|0:0|0:0,0:0:0:0:
328,104,24156,2,0,L|240:56,1,75.0000030845407
200,112,24442,1,0,0:0:0:0:
168,176,24585,1,0,0:0:0:0:
160,248,24728,1,0,0:0:0:0:
192,312,24871,1,0,0:0:0:0:
256,352,25014,1,0,0:0:0:0:
328,352,25156,6,0,P|392:304|400:280,1,75.0000030845407
80,64,133728,6,0,L|184:160,1,119.999996695519
224,104,134156,1,0,0:0:0:0:
272,56,134299,2,0,L|336:112,2,59.9999983477595,0|0|0,0:0|0:0|0:0,0:0:0:0:
336,40,134728,1,0,0:0:0:0:
400,56,134871,2,0,P|368:128|312:144,1,119.999996695519
272,160,135299,5,0,0:0:0:0:
208,184,135442,1,0,0:0:0:0:
152,224,135585,1,0,0:0:0:0:
104,272,135728,2,0,B|80:328|80:328|136:296,1,119.999996695519,0|0,0:0|0:0,0:0:0:0:
192,272,136156,2,0,P|256:264|272:256,1,59.9999983477595
312,240,136442,2,0,P|352:192|360:168,1,59.9999983477595
368,128,136728,1,0,0:0:0:0:
320,88,136871,6,0,L|256:56,1,59.9999983477595
200,64,137156,2,0,L|144:80,1,29.9999991738797
152,96,137299,2,0,L|128:136,1,29.9999991738797
136,152,137442,2,0,L|144:192,1,29.9999991738797
168,208,137585,2,0,L|192:232,1,29.9999991738797
200,264,137728,2,0,L|192:312,1,29.9999991738797
168,312,137871,2,0,L|128:328,4,29.9999991738797,0|0|0|0|0,0:0|0:0|0:0|0:0|0:0,0:0:0:0:
112,280,138299,6,0,L|64:160,1,119.999996695519
64,104,138728,1,0,0:0:0:0:
128,80,138871,1,0,0:0:0:0:
192,72,139014,1,0,0:0:0:0:
256,64,139156,2,0,L|288:192,1,119.999996695519
224,200,139585,2,0,L|160:240,1,59.9999983477595
112,264,139871,1,0,0:0:0:0:
192,336,140014,2,0,L|312:288,1,119.999996695519
344,192,140442,5,0,0:0:0:0:
360,88,140585,2,0,L|304:88,3,29.9999991738797,0|0|0|0,0:0|0:0|0:0|0:0,0:0:0:0:
304,104,140871,2,0,P|272:120|256:136,3,29.9999991738797,0|0|0|0,0:0|0:0|0:0|0:0,0:0:0:0:
256,136,141156,2,0,L|216:168,1,29.9999991738797
208,176,141299,2,0,L|176:200,1,29.9999991738797
168,216,141442,2,0,L|144:240,1,29.9999991738797
136,264,141585,2,0,L|144:320,1,29.9999991738797
152,320,141728,1,0,0:0:0:0:
176,337,141799,1,0,0:0:0:0:
202,351,141870,1,0,0:0:0:0:
231,361,141942,1,0,0:0:0:0:
260,367,142013,1,0,0:0:0:0:
290,368,142085,1,0,0:0:0:0:
320,364,142156,1,0,0:0:0:0:
349,356,142228,1,0,0:0:0:0:
376,345,142299,1,0,0:0:0:0:
402,329,142370,1,0,0:0:0:0:
424,309,142442,1,0,0:0:0:0:
444,286,142513,1,0,0:0:0:0:
460,261,142585,1,0,0:0:0:0:
472,234,142656,1,0,0:0:0:0:
480,205,142728,1,0,0:0:0:0:
483,175,142799,1,0,0:0:0:0:
482,145,142870,1,0,0:0:0:0:
