osu file format v14

[General]
AudioFilename: UncleKrackerSmile.mp3
AudioLeadIn: 0
PreviewTime: -1
Countdown: 1
SampleSet: Soft
StackLeniency: 0.7
Mode: 0
LetterboxInBreaks: 1
WidescreenStoryboard: 0

[Editor]
Bookmarks: 12800,24400,32000,56800,58400,60600,65000,70000,176800
DistanceSpacing: 0.8
BeatDivisor: 2
GridSize: 32
TimelineZoom: 0.1

[Metadata]
Title:Smile
TitleUnicode:Smile
Artist:Uncle Kracker
ArtistUnicode:Uncle Kracker
Creator:ZombieSlayerDom
Version:Normal
Source:
Tags:Uncle Kracker, Smile, Music,
BeatmapID:771860
BeatmapSetID:350065

[Difficulty]
HPDrainRate:3
CircleSize:4
OverallDifficulty:3
ApproachRate:3.5
SliderMultiplier:0.900000005960464
SliderTickRate:1

[Events]
//Background and Video events
0,0,"Smile.jpg",0,0
//Break Periods
2,68600,74020
//Storyboard Layer 0 (Background)
//Storyboard Layer 1 (Fail)
//Storyboard Layer 2 (Pass)
//Storyboard Layer 3 (Foreground)
//Storyboard Sound Samples

[TimingPoints]
0,400,4,2,0,100,1,0

[HitObjects]
128,128,1418,21,0,0:0:0:0:
256,160,3040,1,0,0:0:0:0:
384,128,4966,1,0,0:0:0:0:
25,361,6587,1,0,0:0:0:0:
509,123,8300,1,0,0:0:0:0:
79,131,9932,1,0,0:0:0:0:
256,192,11554,1,0,0:0:0:0:
32,256,12871,2,0,L|320:256,1,270.000001788139
375,102,15200,1,0,0:0:0:0:
152,100,16000,1,0,0:0:0:0:
288,192,17000,1,0,0:0:0:0:
192,288,18800,1,0,0:0:0:0:
224,288,19400,1,0,0:0:0:0:
366,77,22600,6,0,B|452:187|562:223|566:232,1,225.000001490116
206,100,25600,2,0,B|146:167|40:231|-31:235,1,270.000001788139
133,106,28600,5,0,0:0:0:0:
320,262,29400,1,0,0:0:0:0:
332,1,30400,1,0,0:0:0:0:
160,64,32400,1,0,0:0:0:0:
101,84,32800,1,0,0:0:0:0:
192,160,33200,1,0,0:0:0:0:
329,89,34400,1,0,0:0:0:0:
416,256,38000,5,0,0:0:0:0:
320,256,38400,1,0,0:0:0:0:
224,256,38800,1,0,0:0:0:0:
192,192,40000,6,0,L|448:192,1,225.000001490116
224,192,43000,5,0,0:0:0:0:
352,192,44000,1,0,0:0:0:0:
352,96,44800,1,0,0:0:0:0:
224,96,45600,1,0,0:0:0:0:
256,128,46600,1,0,0:0:0:0:
256,128,47000,1,0,0:0:0:0:
256,128,47400,1,0,0:0:0:0:
384,192,48200,5,0,0:0:0:0:
256,256,49200,1,0,0:0:0:0:
160,160,50000,1,0,0:0:0:0:
320,64,50800,1,0,0:0:0:0:
192,64,51800,1,0,0:0:0:0:
256,160,52600,1,0,0:0:0:0:
320,288,53400,1,0,0:0:0:0:
192,288,54200,1,0,0:0:0:0:
256,192,55200,1,0,0:0:0:0:
256,192,55800,1,0,0:0:0:0:
352,160,56800,1,0,0:0:0:0:
352,224,57600,1,0,0:0:0:0:
96,224,58400,1,0,0:0:0:0:
96,160,59400,1,0,0:0:0:0:
192,224,60200,5,0,0:0:0:0:
224,224,60600,1,0,0:0:0:0:
256,224,61000,1,0,0:0:0:0:
288,224,61400,1,0,0:0:0:0:
19,193,62000,6,2,B|165:192|240:86|262:51|439:134|556:202|312:158,1,540.000003576278
256,189,68400,5,4,0:0:0:0:
192,128,75400,5,0,0:0:0:0:
320,128,76400,1,0,0:0:0:0:
320,256,77200,1,0,0:0:0:0:
192,256,78200,1,0,0:0:0:0:
192,160,79000,1,0,0:0:0:0:
320,160,79800,1,0,0:0:0:0:
320,256,80600,1,0,0:0:0:0:
256,224,81400,1,0,0:0:0:0:
256,160,82200,1,0,0:0:0:0:
320,192,83200,1,0,0:0:0:0:
288,256,84000,1,0,0:0:0:0:
224,256,84800,1,0,0:0:0:0:
224,192,85800,1,0,0:0:0:0:
288,192,86400,1,0,0:0:0:0:
288,256,87400,1,0,0:0:0:0:
192,256,88600,6,0,L|288:256,10,90.0000005960464
224,192,95800,1,0,0:0:0:0:
352,192,96800,1,0,0:0:0:0:
352,320,97600,1,0,0:0:0:0:
224,320,98600,1,0,0:0:0:0:
224,256,99200,1,0,0:0:0:0:
224,224,99600,1,0,0:0:0:0:
224,192,100200,1,0,0:0:0:0:
288,256,101000,5,0,0:0:0:0:
288,288,101400,1,0,0:0:0:0:
288,320,102000,1,0,0:0:0:0:
352,128,102600,6,0,P|384:256|480:128,11,360.000002384186
192,192,123800,5,0,0:0:0:0:
352,192,124800,1,0,0:0:0:0:
352,64,125600,1,0,0:0:0:0:
192,64,126400,1,0,0:0:0:0:
128,96,127400,5,0,0:0:0:0:
96,96,127800,1,0,0:0:0:0:
64,96,128200,1,0,0:0:0:0:
32,96,128600,1,0,0:0:0:0:
288,96,130400,5,0,0:0:0:0:
320,96,130800,1,0,0:0:0:0:
352,96,131200,1,0,0:0:0:0:
384,96,131600,1,0,0:0:0:0:
352,128,135000,5,0,0:0:0:0:
352,128,135600,1,0,0:0:0:0:
352,128,136200,1,0,0:0:0:0:
352,128,136600,1,0,0:0:0:0:
352,128,137200,1,0,0:0:0:0:
352,128,137600,1,0,0:0:0:0:
352,128,138000,1,0,0:0:0:0:
352,128,138400,1,0,0:0:0:0:
352,128,138800,1,0,0:0:0:0:
352,128,139200,1,0,0:0:0:0:
352,128,139800,1,0,0:0:0:0:
352,128,140200,1,0,0:0:0:0:
352,128,140600,1,0,0:0:0:0:
352,128,141000,1,0,0:0:0:0:
352,128,141400,1,0,0:0:0:0:
352,128,141800,1,0,0:0:0:0:
96,192,143600,5,0,0:0:0:0:
320,192,144400,1,0,0:0:0:0:
320,96,145200,1,0,0:0:0:0:
192,96,146200,1,0,0:0:0:0:
256,128,147000,1,0,0:0:0:0:
256,160,147400,1,0,0:0:0:0:
256,192,147800,1,0,0:0:0:0:
256,224,148600,1,0,0:0:0:0:
192,224,149600,1,0,0:0:0:0:
224,192,150400,1,0,0:0:0:0:
256,192,150800,1,0,0:0:0:0:
288,192,151200,1,0,0:0:0:0:
320,192,152000,1,0,0:0:0:0:
352,192,152800,1,0,0:0:0:0:
352,256,153200,1,0,0:0:0:0:
352,288,153600,1,0,0:0:0:0:
256,192,155000,12,0,163800,0:0:0:0:
256,192,164400,12,0,168200,0:0:0:0:
160,96,170600,5,0,0:0:0:0:
192,96,171600,1,0,0:0:0:0:
224,96,172400,1,0,0:0:0:0:
256,96,173400,1,0,0:0:0:0:
288,96,174200,1,0,0:0:0:0:
320,96,175000,1,0,0:0:0:0:
352,96,175800,1,0,0:0:0:0:
384,96,176800,1,0,0:0:0:0:
384,224,177800,5,0,0:0:0:0:
352,224,178400,1,0,0:0:0:0:
320,224,179200,1,0,0:0:0:0:
288,224,180000,1,0,0:0:0:0:
256,224,181200,5,0,0:0:0:0:
224,224,182000,1,0,0:0:0:0:
352,192,182600,5,0,0:0:0:0:
192,192,184400,5,0,0:0:0:0:
320,192,185200,1,0,0:0:0:0:
320,256,186000,1,0,0:0:0:0:
224,256,187000,1,0,0:0:0:0:
256,192,187800,1,0,0:0:0:0:
256,256,188600,1,0,0:0:0:0:
256,160,189400,1,0,0:0:0:0:
256,224,190400,1,0,0:0:0:0:
352,192,191200,5,0,0:0:0:0:
192,192,192000,1,0,0:0:0:0:
256,96,192800,1,0,0:0:0:0:
256,192,193800,1,0,0:0:0:0:
256,256,194600,1,0,0:0:0:0:
256,192,196200,1,0,0:0:0:0:
256,192,196800,1,0,0:0:0:0:
256,192,197200,1,0,0:0:0:0:
256,192,197600,1,0,0:0:0:0:
256,192,198200,1,2,0:0:0:0:
256,192,200000,12,0,201301,0:0:0:0:
