osu file format v12

[General]
AudioFilename: IA66.mp3
AudioLeadIn: 0
PreviewTime: 48041
Countdown: 0
SampleSet: Soft
StackLeniency: 0.7
Mode: 0
LetterboxInBreaks: 0

[Editor]
Bookmarks: 26118,33503,40887,48272,63041,70426,77810,85195,94426,101810,109195,118426,125810,133195,140580,147964,155349,162734,170118,181195,188580
DistanceSpacing: 1.21
BeatDivisor: 4
GridSize: 16

[Metadata]
Title:Ifuudoudou
TitleUnicode:威風堂々
Artist:Umetora
ArtistUnicode:梅とら
Creator:Nymph
Version:eveless
Source:
Tags:goodbye eveless CHIE ILLUSTLATION DIVINE-DIVA IHUDODO If U Do Do Vocaloid Hatsune Miku Megurine Luka Megpoid Gumi IA Kagamine Rin Ruka
BeatmapID:241043
BeatmapSetID:84023

[Difficulty]
HPDrainRate:7
CircleSize:4
OverallDifficulty:8
ApproachRate:8
SliderMultiplier:1.7
SliderTickRate:1

[Events]
//Background and Video events
0,0,"555554444.jpg",0,0
Video,0,"tt.flv"
//Break Periods
//Storyboard Layer 0 (Background)
//Storyboard Layer 1 (Fail)
//Storyboard Layer 2 (Pass)
//Storyboard Layer 3 (Foreground)
//Storyboard Sound Samples
//Background Colour Transformations
3,100,163,162,255

[TimingPoints]
18742,461.538461538462,4,2,1,35,1,0
26242,-100,4,2,1,50,0,0
27972,-100,4,2,1,35,0,0
28088,-100,4,2,1,50,0,0
29818,-100,4,2,1,35,0,0
29934,-100,4,2,1,50,0,0
31665,-100,4,2,1,35,0,0
31780,-100,4,2,1,45,0,0
32126,-100,4,2,1,40,0,0
32357,-100,4,2,1,35,0,0
32588,-200,4,2,1,30,0,0
33049,-200,4,2,1,10,0,0
33511,-100,4,2,1,50,0,0
39165,-100,4,2,1,32,0,0
39972,-100,4,2,1,38,0,0
40434,-100,4,2,1,45,0,0
40895,-133.333333333333,4,2,1,50,0,0
41818,-133.333333333333,4,2,2,50,0,0
41934,-100,4,2,1,50,0,0
42626,-100,4,2,2,50,0,0
42857,-100,4,2,1,50,0,0
43665,-100,4,2,2,50,0,0
43780,-100,4,2,1,50,0,0
44588,-133.333333333333,4,2,2,40,0,0
47934,-80,4,2,1,70,0,0
48280,-80,4,2,3,70,0,1
55665,-66.6666666666667,4,2,3,70,0,1
63049,-100,4,2,1,40,0,0
63511,-100,4,2,1,48,0,0
64434,-100,4,2,1,55,0,0
65357,-90.9090909090909,4,2,1,63,0,0
66280,-83.3333333333333,4,2,1,70,0,0
66742,-133.333333333333,4,2,2,40,0,0
69165,-100,4,2,2,40,0,0
76203,-100,4,2,2,35,0,0
76434,-100,4,2,2,30,0,0
76665,-100,4,2,2,25,0,0
76895,-200,4,2,2,25,0,0
77588,-200,4,2,1,45,0,0
77818,-100,4,2,1,60,0,0
78742,-200,4,2,1,60,0,0
79203,-100,4,2,1,60,0,0
80588,-200,4,2,1,60,0,0
81049,-100,4,2,1,60,0,0
82434,-200,4,2,1,60,0,0
85203,-100,4,2,2,60,0,0
85665,-100,4,2,1,60,0,0
85780,-100,4,2,2,60,0,0
86588,-100,4,2,1,60,0,0
86703,-100,4,2,2,60,0,0
87511,-100,4,2,1,60,0,0
87626,-100,4,2,2,60,0,0
88434,-100,4,2,1,60,0,0
88549,-100,4,2,2,60,0,0
89357,-100,4,2,1,60,0,0
89472,-100,4,2,2,60,0,0
90280,-100,4,2,1,60,0,0
90395,-100,4,2,2,60,0,0
90742,-200,4,2,1,40,0,0
91088,-200,4,2,1,5,0,0
91203,-133.333333333333,4,2,1,50,0,0
91549,-133.333333333333,4,2,1,5,0,0
91665,-100,4,2,1,60,0,0
92011,-100,4,2,1,5,0,0
92126,-80,4,2,1,70,0,0
92472,-80,4,2,1,5,0,0
92588,-100,4,2,1,50,0,0
94434,-80,4,2,3,70,0,1
109203,-100,4,2,4,70,0,0
116588,-133.333333333333,4,2,1,40,0,0
117972,-100,4,2,1,5,0,0
118434,-133.333333333333,4,2,1,30,0,0
125357,-133.333333333333,4,2,2,30,0,0
125818,-133.333333333333,4,2,2,40,0,0
132742,-133.333333333333,4,2,2,55,0,0
133203,-133.333333333333,4,2,0,70,0,0
140588,-100,4,2,4,65,0,0
147049,-100,4,2,4,50,0,0
147972,-100,4,2,4,65,0,0
154203,-200,4,2,4,65,0,0
155126,-66.6666666666667,4,2,4,65,0,0
155357,-80,4,2,3,75,0,1
156742,-66.6666666666667,4,2,3,75,0,1
157203,-80,4,2,3,75,0,1
158588,-66.6666666666667,4,2,3,75,0,1
159049,-80,4,2,3,75,0,1
160434,-66.6666666666667,4,2,3,75,0,1
160895,-80,4,2,3,75,0,1
162280,-66.6666666666667,4,2,3,75,0,1
162742,-80,4,2,3,75,0,1
164357,-66.6666666666667,4,2,3,75,0,1
164588,-80,4,2,3,75,0,1
165742,-66.6666666666667,4,2,3,75,0,1
166434,-80,4,2,3,75,0,1
167588,-66.6666666666667,4,2,3,75,0,1
168280,-80,4,2,3,75,0,1
170126,-100,4,2,4,75,0,0
181203,-100,4,2,2,75,0,0
181665,-90.9090909090909,4,2,2,75,0,0
182126,-100,4,2,2,85,0,0
182588,-83.3333333333333,4,2,2,85,0,0
183049,-100,4,2,2,92,0,0
183511,-76.9230769230769,4,2,2,92,0,0
183972,-100,4,2,2,100,0,0
184434,-71.4285714285714,4,2,2,100,0,0
184895,-100,4,2,2,75,0,0
185357,-90.9090909090909,4,2,2,75,0,0
185818,-100,4,2,2,85,0,0
186280,-83.3333333333333,4,2,2,85,0,0
186742,-100,4,2,2,92,0,0
187203,-76.9230769230769,4,2,2,92,0,0
187665,-100,4,2,2,100,0,0
188126,-71.4285714285714,4,2,2,100,0,0
188588,-100,4,2,3,75,0,0
195742,-100,4,2,4,40,0,0

[Colours]
Combo1 : 255,205,155
Combo2 : 209,164,255
Combo3 : 157,206,255
Combo4 : 255,202,255
Combo5 : 113,255,184
Combo6 : 255,113,113

[HitObjects]
189,76,26126,2,0,L|171:193,1,85,4|2,0:0|0:0,0:0:0:0:
141,271,26472,2,0,L|251:228,1,85
343,218,26818,2,0,L|276:164,1,85,2|0,0:0|0:0,0:0:0:0:
142,271,27280,1,2,0:0:0:0:
188,77,27511,1,0,0:0:0:0:
344,218,27742,1,2,0:0:0:0:
224,184,27972,6,0,L|248:288,1,85
344,218,28318,2,0,L|427:199,1,85,2|0,0:0|0:0,0:0:0:0:
372,99,28665,2,0,L|348:-5,1,85,0|2,0:0|0:0,0:0:0:0:
224,183,29126,1,0,0:0:0:0:
345,218,29357,1,0,0:0:0:0:
373,99,29588,1,2,0:0:0:0:
240,64,29818,6,0,L|144:56,1,85,0|2,0:0|0:0,0:0:0:0:
56,8,30165,2,0,L|40:112,1,85
128,160,30511,2,0,L|114:263,1,85,2|0,0:0|0:0,0:0:0:0:
19,352,30972,1,2,0:0:0:0:
32,352,31088,1,0,0:0:0:0:
48,352,31203,1,0,0:0:0:0:
168,328,31434,2,0,P|232:304|272:312,1,85,0|0,0:0|1:0,0:0:0:0:
424,344,31895,6,0,P|384:296|392:256,1,85,0|0,0:0|0:0,0:0:0:0:
248,304,32357,1,0,0:0:0:0:
384,276,32588,6,0,L|408:160,1,85
371,110,33280,1,0,0:0:0:0:
288,144,33511,6,0,L|176:120,1,85,0|2,1:0|0:0,0:0:0:0:
204,126,33857,1,0,0:0:0:0:
65,62,34088,1,2,0:0:0:0:
65,62,34203,2,0,L|94:147,1,85,0|2,0:0|0:0,0:0:0:0:
184,240,34665,2,0,L|216:328,1,85,0|2,0:0|0:0,0:0:0:0:
312,352,35126,1,0,0:0:0:0:
384,280,35357,6,0,L|472:272,1,85,0|2,1:0|0:0,0:0:0:0:
304,208,35703,2,0,L|400:200,1,85,0|0,0:0|0:0,0:0:0:0:
224,136,36049,2,0,L|320:128,1,85,2|0,0:0|0:0,0:0:0:0:
469,273,36511,1,2,0:0:0:0:
388,200,36742,1,0,0:0:0:0:
308,128,36972,1,2,0:0:0:0:
308,128,37088,2,0,L|360:88,1,42.5,0|0,0:0|1:0,0:0:0:0:
232,40,37434,6,0,L|120:27,1,85,2|0,0:0|0:0,0:0:0:0:
144,120,37780,2,0,L|48:112,1,85
40,104,38126,1,2,0:0:0:0:
64,224,38357,1,0,0:0:0:0:
144,368,38588,5,2,0:0:0:0:
168,248,38818,1,0,0:0:0:0:
264,280,39049,6,0,P|320:240|368:240,1,85,0|2,1:0|0:0,0:0:0:0:
480,208,39511,2,0,L|472:96,1,85,2|0,0:0|0:0,0:0:0:0:
336,16,39972,1,0,0:0:0:0:
336,16,40088,1,0,0:0:0:0:
336,16,40203,1,0,0:0:0:0:
336,16,40318,1,0,0:0:0:0:
336,16,40434,2,0,P|352:96|384:112,1,85,0|2,0:0|0:0,0:0:0:0:
264,176,40895,6,0,L|96:168,1,127.5,0|0,1:0|0:0,0:0:0:0:
16,328,41703,1,0,0:0:0:0:
16,328,41818,2,0,L|104:304,1,63.7500024318696,2|0,0:0|0:0,0:0:0:0:
184,344,42280,2,0,L|293:312,1,85,0|2,0:0|0:0,0:0:0:0:
441,353,42742,6,0,P|414:314|453:193,1,170,0|2,1:0|0:0,0:0:0:0:
329,26,43549,1,0,0:0:0:0:
329,26,43665,1,2,0:0:0:0:
288,120,43895,1,0,0:0:0:0:
184,84,44126,1,2,0:0:0:0:
288,136,44357,1,2,0:0:0:0:
288,152,44472,1,0,0:0:0:0:
288,171,44588,6,0,L|210:175,1,63.7500024318696,0|0,1:0|0:0,0:0:0:0:
144,224,45049,2,0,L|66:228,1,63.7500024318696,0|0,1:0|0:0,0:0:0:0:
216,320,45511,6,0,L|296:288,1,63.7500024318696,2|0,0:0|0:0,0:0:0:0:
376,328,45972,2,0,L|448:304,1,63.7500024318696,0|2,0:0|0:0,0:0:0:0:
472,200,46434,6,0,P|448:160|472:96,1,95.6250036478044,2|0,0:0|0:0,0:0:0:0:
456,113,46895,2,0,L|344:96,1,95.6250036478044,2|0,0:0|0:0,0:0:0:0:
276,51,47588,1,0,0:0:0:0:
276,51,47703,1,2,0:0:0:0:
276,51,47818,1,0,0:0:0:0:
232,144,48049,1,2,0:0:0:0:
192,240,48280,6,0,L|64:232,1,106.25,4|0,0:0|0:0,0:0:0:0:
32,344,48742,1,8,0:0:0:0:
85,233,48972,2,0,L|72:112,1,106.25
8,32,49434,1,0,0:0:0:0:
8,32,49549,1,0,0:0:0:0:
8,32,49665,2,0,L|120:24,1,106.25,8|0,0:0|0:0,0:0:0:0:
328,144,50126,5,0,0:0:0:0:
328,144,50357,2,0,P|384:112|448:128,1,106.25,0|8,0:0|0:0,0:0:0:0:
400,232,50818,2,0,L|392:344,1,106.25
264,304,51280,1,0,0:0:0:0:
240,320,51395,1,0,0:0:0:0:
216,336,51511,2,0,L|152:312,1,53.125,8|0,0:0|0:0,0:0:0:0:
88,352,51742,2,0,L|24:328,1,53.125
0,248,51972,6,0,P|24:168|72:152,1,106.25
248,24,52434,2,0,P|248:88|192:120,1,106.25,8|0,0:0|0:0,0:0:0:0:
104,40,52895,1,0,0:0:0:0:
136,160,53126,2,0,L|136:240,1,53.125
216,200,53357,2,0,L|216:272,1,53.125,8|0,0:0|0:0,0:0:0:0:
296,240,53588,2,0,L|296:312,1,53.125
352,352,53818,6,0,P|424:336|488:360,1,106.25
512,240,54280,1,8,0:0:0:0:
416,152,54511,1,2,0:0:0:0:
512,64,54742,2,0,P|456:24|408:32,1,106.25,0|2,0:0|0:0,0:0:0:0:
352,48,55088,2,0,L|272:16,3,53.125,0|8|0|2,0:0|0:0|0:0|0:0,0:0:0:0:
232,48,55549,1,0,0:0:0:0:
232,48,55665,6,0,P|224:120|288:176,1,127.500004863739,12|0,0:0|0:0,0:0:0:0:
408,352,56126,2,0,P|416:280|352:224,1,127.500004863739,8|0,0:0|0:0,0:0:0:0:
256,304,56588,6,0,L|120:296,1,127.500004863739,8|0,0:0|0:0,0:0:0:0:
16,88,57049,2,0,L|168:96,1,127.500004863739,8|0,0:0|0:0,0:0:0:0:
32,288,57511,5,8,0:0:0:0:
32,288,57742,1,0,0:0:0:0:
190,211,57972,1,8,0:0:0:0:
190,211,58203,1,0,0:0:0:0:
208,32,58434,1,8,0:0:0:0:
208,32,58665,2,0,L|288:24,1,63.7500024318696
340,79,58895,2,0,L|468:66,1,127.500004863739,8|0,0:0|0:0,0:0:0:0:
466,66,59242,1,0,0:0:0:0:
457,158,59357,6,0,P|447:252|478:305,1,127.500004863739,8|0,0:0|0:0,0:0:0:0:
52,280,59818,2,0,P|65:252|55:158,1,127.500004863739,8|0,0:0|0:0,0:0:0:0:
0,80,60280,1,8,0:0:0:0:
104,80,60511,2,0,L|176:64,1,63.7500024318696
240,96,60742,2,0,P|232:168|272:224,1,127.500004863739,8|0,0:0|0:0,0:0:0:0:
258,213,61088,1,0,0:0:0:0:
339,209,61203,6,0,P|317:277|227:289,1,127.500004863739,8|0,0:0|0:0,0:0:0:0:
173,217,61665,2,0,P|195:149|285:137,1,127.500004863739,8|0,0:0|0:0,0:0:0:0:
339,209,62126,6,0,P|317:277|227:289,1,127.500004863739,8|0,0:0|0:0,0:0:0:0:
173,217,62588,2,0,P|195:149|285:137,1,127.500004863739,8|0,0:0|0:0,0:0:0:0:
360,96,63049,6,0,L|464:112,1,85,4|0,0:0|0:0,0:0:0:0:
174,218,63511,2,0,L|70:202,1,85,8|0,0:0|0:0,0:0:0:0:
89,205,64203,5,0,0:0:0:0:
0,176,64434,2,0,P|47:119|88:120,1,85,8|0,0:0|0:0,0:0:0:0:
53,117,65126,5,0,0:0:0:0:
152,128,65357,2,0,L|256:104,1,93.5000028533936,8|0,0:0|0:0,0:0:0:0:
243,106,66049,5,0,0:0:0:0:
328,72,66280,2,0,P|336:136|296:176,1,101.999996887207,8|0,0:0|0:0,0:0:0:0:
264,240,66742,6,0,L|272:320,1,63.7500024318696,2|0,0:0|0:0,0:0:0:0:
208,360,67434,1,0,0:0:0:0:
130,334,67895,1,0,0:0:0:0:
50,360,68357,1,0,0:0:0:0:
22,283,68818,1,0,0:0:0:0:
256,192,69511,12,4,70434,0:0:0:0:
256,192,70780,5,0,0:0:0:0:
256,192,70895,2,0,L|240:288,1,85,8|2,0:0|0:0,0:0:0:0:
166,330,71357,2,0,P|107:312|35:330,1,127.5,8|0,0:0|0:0,0:0:0:0:
43,325,71818,1,2,0:0:0:0:
26,228,72049,1,0,0:0:0:0:
43,211,72165,1,2,0:0:0:0:
60,196,72280,6,0,L|46:85,1,85,8|2,0:0|0:0,0:0:0:0:
126,28,72742,2,0,P|175:67|266:41,1,127.5,8|2,0:0|0:0,0:0:0:0:
268,44,73203,1,8,0:0:0:0:
404,88,73434,1,2,0:0:0:0:
396,113,73549,1,0,0:0:0:0:
387,139,73665,2,0,L|504:121,1,85,8|2,0:0|0:0,0:0:0:0:
388,230,74126,6,0,L|269:243,1,85,8|2,0:0|0:0,0:0:0:0:
243,328,74588,2,0,P|198:299|197:222,1,127.5,8|2,0:0|0:0,0:0:0:0:
219,193,75049,1,8,0:0:0:0:
122,145,75280,2,0,L|38:159,2,85,2|8|2,0:0|0:0|0:0,0:0:0:0:
221,91,75972,5,8,0:0:0:0:
254,98,76203,1,0,0:0:0:0:
324,53,76434,5,8,0:0:0:0:
358,72,76665,1,0,0:0:0:0:
452,38,76895,6,0,P|458:94|436:134,1,85,8|0,0:0|0:0,0:0:0:0:
376,192,77818,5,12,0:0:0:0:
400,280,78511,1,0,0:0:0:0:
400,280,78742,2,0,L|384:376,1,85,8|0,0:0|0:0,0:0:0:0:
288,336,79665,5,8,0:0:0:0:
152,352,80242,1,8,0:0:0:0:
152,352,80588,2,0,L|64:344,1,85,8|0,0:0|0:0,0:0:0:0:
16,256,81511,5,8,0:0:0:0:
104,192,82203,1,0,0:0:0:0:
104,192,82434,2,0,P|96:136|136:96,1,85,8|0,0:0|0:0,0:0:0:0:
200,48,83357,5,8,0:0:0:0:
304,128,83934,1,8,0:0:0:0:
304,128,84280,2,0,P|352:120|400:128,1,85,8|0,0:0|0:0,0:0:0:0:
408,224,85203,6,0,L|384:312,1,85,4|0,0:0|0:0,0:0:0:0:
296,344,85665,2,8,L|184:304,1,85
128,360,86126,1,0,0:0:0:0:
128,256,86357,1,0,0:0:0:0:
128,256,86472,1,0,0:0:0:0:
128,256,86588,2,0,L|104:120,1,127.5,8|0,0:0|0:0,0:0:0:0:
32,88,87049,6,0,P|88:48|136:56,1,85,0|2,0:0|0:0,0:0:0:0:
224,120,87511,2,0,P|272:144|320:128,1,85,8|2,0:0|0:0,0:0:0:0:
432,40,87972,2,0,L|408:192,1,127.5,0|0,0:0|0:0,0:0:0:0:
460,231,88434,2,0,P|419:249|364:231,1,85,8|0,0:0|0:0,0:0:0:0:
328,304,88895,5,0,0:0:0:0:
246,294,89126,1,2,0:0:0:0:
80,263,89472,1,0,0:0:0:0:
80,263,89588,2,0,P|88:319|136:343,1,85,2|0,0:0|0:0,0:0:0:0:
165,218,90049,2,0,P|176:157|140:119,1,85,0|8,0:0|0:0,0:0:0:0:
95,82,90511,1,0,0:0:0:0:
184,48,90742,5,8,0:0:0:0:
272,88,91203,1,8,0:0:0:0:
368,72,91665,1,8,0:0:0:0:
464,56,92126,2,0,L|440:232,1,159.375,8|0,0:0|0:0,0:0:0:0:
424,240,92588,5,0,1:0:0:0:
320,256,92818,1,0,1:0:0:0:
256,352,93049,1,0,1:0:0:0:
160,312,93280,1,0,1:0:0:0:
64,352,93511,1,0,1:0:0:0:
40,176,94434,6,0,P|32:112|72:72,1,106.25,4|0,0:0|0:0,0:0:0:0:
200,152,94895,1,8,0:0:0:0:
56,80,95126,1,0,0:0:0:0:
304,200,95357,2,0,P|272:248|224:256,1,106.25
120,224,95703,2,0,L|120:296,1,53.125,0|8,0:0|0:0,0:0:0:0:
200,152,95934,2,0,L|200:80,2,53.125
227,257,96280,6,0,P|227:313|275:353,1,106.25
485,232,96742,1,8,0:0:0:0:
259,347,96972,1,0,0:0:0:0:
480,136,97203,1,0,0:0:0:0:
472,40,97434,1,0,0:0:0:0:
472,40,97549,1,0,0:0:0:0:
472,40,97665,1,8,0:0:0:0:
472,40,97780,1,0,0:0:0:0:
472,40,97895,1,0,0:0:0:0:
168,72,98126,6,0,P|200:128|272:120,1,106.25
472,40,98588,1,8,0:0:0:0:
237,135,98818,1,0,0:0:0:0:
168,72,99049,2,0,L|56:72,1,106.25
0,152,99395,2,0,L|24:216,1,53.125,0|8,0:0|0:0,0:0:0:0:
96,216,99626,1,0,0:0:0:0:
96,216,99742,2,0,L|128:296,1,53.125
195,304,99972,6,0,P|259:288|331:320,1,106.25
480,232,100434,2,0,P|397:223|384:168,1,106.25,8|0,0:0|0:0,0:0:0:0:
456,128,100895,1,0,0:0:0:0:
512,308,101126,1,0,0:0:0:0:
512,308,101242,1,0,0:0:0:0:
512,308,101357,2,0,L|450:325,1,53.125,8|0,0:0|0:0,0:0:0:0:
382,298,101588,2,0,L|308:319,1,53.125
280,240,101818,6,0,L|240:104,1,106.25,4|0,0:0|0:0,0:0:0:0:
32,40,102280,2,0,L|72:176,1,106.25,4|0,0:0|0:0,0:0:0:0:
48,288,102742,5,4,0:0:0:0:
304,136,102972,1,0,0:0:0:0:
112,216,103203,1,4,0:0:0:0:
256,48,103434,1,0,0:0:0:0:
228,40,103549,1,0,0:0:0:0:
200,32,103665,6,0,P|176:96|224:144,1,106.25,4|0,0:0|0:0,0:0:0:0:
312,352,104126,2,0,P|336:288|288:240,1,106.25,4|0,0:0|0:0,0:0:0:0:
230,300,104588,1,4,0:0:0:0:
289,88,104818,1,0,0:0:0:0:
285,112,104934,1,0,0:0:0:0:
281,138,105049,2,0,L|294:214,1,53.125,4|0,0:0|0:0,0:0:0:0:
367,169,105280,2,0,L|439:161,1,53.125
487,120,105511,6,0,P|495:192|465:230,1,106.25,4|0,0:0|0:0,0:0:0:0:
25,264,105972,2,0,P|17:192|47:154,1,106.25,4|0,0:0|0:0,0:0:0:0:
487,120,106434,6,0,P|495:192|465:230,1,106.25,4|0,0:0|0:0,0:0:0:0:
25,264,106895,2,0,P|17:192|47:154,1,106.25,4|0,0:0|0:0,0:0:0:0:
112,224,107357,5,4,0:0:0:0:
400,160,107588,1,0,0:0:0:0:
400,160,107818,5,4,0:0:0:0:
112,224,108049,1,0,0:0:0:0:
272,264,108280,6,0,P|256:320|280:360,1,106.25,4|0,0:0|0:0,0:0:0:0:
240,120,108742,2,0,P|256:64|232:24,1,106.25,4|0,0:0|0:0,0:0:0:0:
201,205,109203,5,4,0:0:0:0:
200,205,109665,1,8,0:0:0:0:
273,265,109895,1,0,0:0:0:0:
240,120,110126,1,0,0:0:0:0:
112,224,110357,1,0,0:0:0:0:
312,357,110588,2,0,P|361:328|357:271,1,85,8|0,0:0|0:0,0:0:0:0:
12,198,111049,6,0,P|10:254|54:285,1,85
80,128,111511,2,0,L|64:0,1,127.5,8|2,0:0|0:0,0:0:0:0:
64,1,111972,1,0,0:0:0:0:
160,40,112203,1,2,0:0:0:0:
256,16,112434,1,10,0:0:0:0:
352,48,112665,1,0,0:0:0:0:
446,79,112895,6,0,P|432:128|456:192,1,85,2|0,0:0|0:0,0:0:0:0:
496,296,113357,2,0,L|344:280,1,127.5,8|0,0:0|0:0,0:0:0:0:
344,304,113818,2,0,P|296:320|240:288,1,85
160,376,114280,2,0,P|128:336|152:288,1,85,8|0,0:0|0:0,0:0:0:0:
206,189,114742,5,0,0:0:0:0:
206,189,114972,1,2,0:0:0:0:
72,136,115203,1,2,0:0:0:0:
159,103,115434,1,2,0:0:0:0:
314,238,115665,2,0,P|277:282|190:292,1,127.5,0|2,0:0|0:0,0:0:0:0:
210,296,116126,1,0,0:0:0:0:
248,72,116357,1,2,0:0:0:0:
256,192,116588,12,0,117972,0:0:0:0:
256,192,118434,5,2,0:0:0:0:
256,192,118780,1,0,0:0:0:0:
256,192,119126,1,0,0:0:0:0:
80,224,119588,2,0,L|8:208,2,63.7500024318696,2|0|2,0:0|0:0|0:0,0:0:0:0:
168,208,120280,5,0,0:0:0:0:
168,224,120626,1,2,0:0:0:0:
168,240,120972,1,2,0:0:0:0:
288,344,121318,2,0,P|328:320|400:320,1,95.6250036478044,0|2,0:0|0:0,0:0:0:0:
375,314,121895,1,0,0:0:0:0:
464,248,122126,5,2,0:0:0:0:
464,248,122472,1,0,0:0:0:0:
464,248,122818,1,0,0:0:0:0:
368,80,123280,2,0,P|352:128|368:160,1,63.7500024318696,0|2,0:0|0:0,0:0:0:0:
256,176,123742,2,0,L|168:152,1,63.7500024318696,0|2,0:0|0:0,0:0:0:0:
112,80,124203,5,0,0:0:0:0:
112,80,124318,2,0,P|80:128|88:176,1,95.6250036478044,2|0,0:0|0:0,0:0:0:0:
160,288,125011,1,2,0:0:0:0:
256,176,125357,1,8,0:0:0:0:
166,199,125588,1,10,0:0:0:0:
240,328,125818,6,0,P|280:352|352:344,1,95.6250036478044,10|2,0:0|0:0,0:0:0:0:
327,353,126280,1,0,0:0:0:0:
416,224,126511,1,2,0:0:0:0:
416,224,126626,2,0,L|408:120,1,95.6250036478044,0|2,0:0|0:0,0:0:0:0:
480,64,127203,1,2,0:0:0:0:
496,152,127434,1,0,0:0:0:0:
328,48,127665,6,0,L|208:40,1,95.6250036478044,2|2,0:0|0:0,0:0:0:0:
208,32,128126,1,0,0:0:0:0:
32,104,128357,2,0,L|142:110,1,95.6250036478044,2|0,0:0|0:0,0:0:0:0:
138,126,128818,2,0,L|128:202,1,63.7500024318696,2|0,0:0|0:0,0:0:0:0:
165,293,129280,1,2,0:0:0:0:
165,293,129511,6,0,P|216:264|272:272,1,95.6250036478044,0|2,0:0|0:0,0:0:0:0:
251,264,129972,1,0,0:0:0:0:
368,336,130203,1,2,0:0:0:0:
368,336,130318,2,0,P|344:272|368:224,1,95.6250036478044,0|2,0:0|0:0,0:0:0:0:
439,200,130895,1,2,0:0:0:0:
368,120,131126,1,0,0:0:0:0:
296,44,131357,5,2,0:0:0:0:
160,40,131703,1,2,0:0:0:0:
160,40,131818,1,0,0:0:0:0:
91,108,132049,2,0,L|19:102,1,63.7500024318696,2|0,0:0|0:0,0:0:0:0:
9,125,132395,2,0,P|56:168|59:225,1,95.6250036478044,2|8,0:0|0:0,0:0:0:0:
64,208,132857,1,8,0:0:0:0:
61,220,132972,1,8,0:0:0:0:
57,230,133088,1,8,0:0:0:0:
52,244,133203,6,0,L|141:233,1,63.7500024318696,4|0,0:0|0:0,0:0:0:0:
199,299,133665,2,0,L|309:288,1,95.6250036478044,8|0,0:0|0:0,0:0:0:0:
324,302,134126,1,2,0:0:0:0:
440,344,134357,2,0,L|456:208,1,127.500004863739,8|2,0:0|0:0,0:0:0:0:
408,48,135049,6,0,L|398:138,1,63.7500024318696,2|0,0:0|0:0,0:0:0:0:
300,159,135511,2,0,L|191:146,1,95.6250036478044,8|0,0:0|0:0,0:0:0:0:
186,125,135972,1,2,0:0:0:0:
76,33,136203,2,0,P|60:98|88:144,1,95.6250036478044,8|2,0:0|0:0,0:0:0:0:
88,152,136665,1,8,0:0:0:0:
160,224,136895,6,0,P|171:278|152:336,1,95.6250036478044,0|2,0:0|0:0,0:0:0:0:
136,344,137357,1,8,0:0:0:0:
264,336,137588,2,0,P|320:320|392:336,1,127.500004863739,2|8,0:0|0:0,0:0:0:0:
386,333,138280,1,8,0:0:0:0:
456,264,138511,1,2,0:0:0:0:
400,176,138742,6,0,P|384:120|408:72,1,95.6250036478044,0|2,0:0|0:0,0:0:0:0:
424,64,139203,1,8,0:0:0:0:
296,64,139434,2,0,P|261:111|176:104,1,127.500004863739,2|8,0:0|0:0,0:0:0:0:
196,115,140011,1,0,0:0:0:0:
196,115,140126,1,8,0:0:0:0:
209,19,140357,1,2,0:0:0:0:
104,56,140588,6,0,P|80:104|112:184,1,127.5,4|0,0:0|0:0,0:0:0:0:
99,172,141049,1,8,0:0:0:0:
192,224,141280,2,0,P|216:280|184:352,1,127.5
160,352,141742,2,0,L|276:339,1,85,0|8,0:0|0:0,0:0:0:0:
360,360,142203,1,8,0:0:0:0:
360,360,142434,6,0,L|328:280,1,85
368,184,142895,2,0,P|312:144|320:88,1,127.5,8|0,0:0|0:0,0:0:0:0:
336,80,143357,1,4,1:0:0:0:
224,96,143588,2,0,L|136:80,1,85,0|8,0:0|0:0,0:0:0:0:
40,120,144049,1,8,0:0:0:0:
40,120,144280,6,0,P|40:192|104:224,1,127.5,4|0,1:0|0:0,0:0:0:0:
104,216,144742,1,8,0:0:0:0:
200,352,144972,2,0,P|232:312|232:264,1,85
256,272,145318,2,0,P|216:216|240:136,1,127.5,4|8,1:0|0:0,0:0:0:0:
280,80,145895,1,0,0:0:0:0:
376,16,146126,6,0,P|400:80|344:152,1,127.5,4|0,1:0|0:0,0:0:0:0:
377,131,146588,1,8,0:0:0:0:
400,240,146818,2,0,L|384:344,1,85
296,344,147357,1,0,0:0:0:0:
203,360,147665,1,0,0:0:0:0:
112,376,147972,6,0,P|64:352|56:264,1,127.5,4|0,1:0|0:0,0:0:0:0:
64,280,148434,2,0,L|80:168,1,85,8|0,0:0|0:0,0:0:0:0:
208,64,148895,2,0,L|192:176,1,85,4|0,1:0|0:0,0:0:0:0:
368,14,149357,2,0,L|354:111,1,85,8|0,0:0|0:0,0:0:0:0:
453,188,149818,6,0,P|432:224|369:236,1,85,4|0,1:0|0:0,0:0:0:0:
189,217,150280,1,8,0:0:0:0:
393,239,150511,2,0,P|337:238|302:202,1,85,0|4,0:0|1:0,0:0:0:0:
192,94,150972,1,0,0:0:0:0:
315,222,151203,2,0,P|288:176|301:134,1,85,8|0,0:0|0:0,0:0:0:0:
432,48,151665,5,2,0:0:0:0:
346,32,151895,1,2,0:0:0:0:
192,94,152126,1,0,0:0:0:0:
96,94,152357,1,2,0:0:0:0:
96,94,152818,1,2,0:0:0:0:
250,182,153049,1,0,0:0:0:0:
338,151,153280,1,2,0:0:0:0:
428,111,153511,6,0,L|419:214,1,85,0|2,0:0|0:0,0:0:0:0:
84,273,154203,1,2,0:0:0:0:
84,273,154665,6,0,L|93:170,1,85,2|0,0:0|0:0,0:0:0:0:
152,106,155357,5,4,0:0:0:0:
360,278,155588,1,0,0:0:0:0:
152,106,155818,1,8,0:0:0:0:
360,278,156049,1,0,0:0:0:0:
251,70,156280,2,0,L|405:84,1,106.25
261,314,156742,2,0,L|93:299,1,127.500004863739,8|0,0:0|0:0,0:0:0:0:
62,347,157203,6,0,P|46:283|94:235,1,106.25
330,17,157665,2,0,P|337:91|301:132,1,106.25,8|0,0:0|0:0,0:0:0:0:
224,176,158126,1,0,0:0:0:0:
224,176,158357,1,0,0:0:0:0:
208,64,158588,1,8,0:0:0:0:
243,290,158818,1,0,0:0:0:0:
337,347,159049,6,0,P|400:302|472:322,1,106.25
426,82,159511,2,0,P|400:82|337:37,1,106.25,8|0,0:0|0:0,0:0:0:0:
256,191,159972,2,0,L|131:206,1,106.25
52,285,160434,1,8,0:0:0:0:
151,203,160665,1,0,0:0:0:0:
240,304,160895,6,0,L|352:288,1,106.25
128,80,161357,2,0,L|0:96,1,106.25,8|0,0:0|0:0,0:0:0:0:
23,93,161818,1,0,0:0:0:0:
151,205,162049,1,0,0:0:0:0:
263,75,162280,1,8,0:0:0:0:
400,176,162511,1,0,0:0:0:0:
480,352,162742,6,0,P|400:336|368:288,1,106.25,4|0,0:0|0:0,0:0:0:0:
32,352,163203,2,0,P|112:336|144:288,1,106.25,4|0,0:0|0:0,0:0:0:0:
256,32,163665,2,0,L|240:160,1,106.25,4|0,0:0|0:0,0:0:0:0:
256,352,164126,2,0,L|272:224,1,106.25,4|0,0:0|0:0,0:0:0:0:
144,192,164588,6,0,P|80:160|16:176,1,106.25,4|0,0:0|0:0,0:0:0:0:
368,192,165049,2,0,P|432:224|496:208,1,106.25,4|0,0:0|0:0,0:0:0:0:
430,84,165511,1,4,0:0:0:0:
309,49,165742,1,0,0:0:0:0:
144,194,165972,1,4,0:0:0:0:
177,314,166203,1,0,0:0:0:0:
301,305,166434,6,0,P|382:293|434:316,1,106.25,4|0,0:0|0:0,0:0:0:0:
211,79,166895,2,0,P|130:91|78:68,1,106.25,4|0,0:0|0:0,0:0:0:0:
16,32,167357,1,4,0:0:0:0:
108,84,167588,1,0,0:0:0:0:
108,299,167818,1,4,0:0:0:0:
16,352,168049,1,0,0:0:0:0:
80,192,168280,6,0,L|208:192,1,106.25,4|0,0:0|0:0,0:0:0:0:
410,112,168742,2,0,L|304:112,1,106.25,4|0,0:0|0:0,0:0:0:0:
320,240,169203,6,0,P|336:320|288:352,1,106.25,4|0,0:0|0:0,0:0:0:0:
192,144,169665,2,0,P|176:64|224:32,1,106.25,4|0,0:0|0:0,0:0:0:0:
186,50,170126,6,0,P|176:112|128:144,1,85,4|0,1:0|0:0,0:0:0:0:
39,163,170588,2,0,P|55:211|119:227,1,85,8|0,0:0|0:0,0:0:0:0:
132,351,171049,2,0,P|187:330|238:349,1,85
384,352,171511,2,0,P|352:320|352:272,1,85,8|0,0:0|0:0,0:0:0:0:
448,176,171972,6,0,L|432:64,1,85
272,16,172434,2,0,L|298:130,1,85,8|0,0:0|0:0,0:0:0:0:
213,233,172895,2,0,P|182:213|112:218,1,85
49,317,173357,2,0,P|101:327|132:306,1,85,8|0,0:0|0:0,0:0:0:0:
32,212,173818,6,0,L|19:117,1,85
152,274,174280,2,0,L|122:362,1,85,8|0,0:0|0:0,0:0:0:0:
313,283,174742,2,0,L|347:183,1,85
461,154,175203,2,0,P|425:106|441:57,1,85,8|0,0:0|0:0,0:0:0:0:
483,8,175665,5,0,0:0:0:0:
376,27,175895,1,0,0:0:0:0:
376,27,176126,5,8,0:0:0:0:
274,48,176357,1,0,0:0:0:0:
232,172,176588,5,0,0:0:0:0:
142,128,176818,1,0,0:0:0:0:
142,128,177049,5,8,0:0:0:0:
54,81,177280,1,0,0:0:0:0:
58,188,177511,6,0,P|46:263|81:314,1,127.5,0|2,0:0|0:0,0:0:0:0:
59,357,177972,2,0,P|114:320|161:326,1,85,0|2,0:0|0:0,0:0:0:0:
303,238,178434,1,0,0:0:0:0:
303,238,178549,2,0,P|322:288|293:339,1,85,2|0,0:0|0:0,0:0:0:0:
264,357,178895,2,0,P|324:326|370:341,1,85,8|2,0:0|0:0,0:0:0:0:
471,353,179357,6,0,P|439:299|457:242,1,85,0|2,0:0|0:0,0:0:0:0:
480,249,179703,2,0,L|455:146,1,85,0|2,0:0|0:0,0:0:0:0:
494,127,180049,2,0,L|480:32,1,85,0|2,0:0|0:0,0:0:0:0:
430,22,180395,2,0,P|386:59|298:45,1,127.5,0|2,0:0|0:0,0:0:0:0:
212,15,180972,1,0,0:0:0:0:
194,39,181088,1,2,0:0:0:0:
175,59,181203,6,0,L|85:58,1,85,4|0,0:0|0:0,0:0:0:0:
32,160,181665,2,0,L|144:160,1,93.5000028533936,8|0,0:0|0:0,0:0:0:0:
125,160,182357,5,0,0:0:0:0:
192,224,182588,2,0,L|304:224,1,101.999996887207,8|0,0:0|0:0,0:0:0:0:
294,224,183280,5,0,0:0:0:0:
340,310,183511,2,0,P|385:270|376:199,1,110.499994941712,8|0,0:0|0:0,0:0:0:0:
387,222,184203,5,0,0:0:0:0:
336,142,184434,2,0,P|306:75|337:19,1,118.999996368408,8|0,0:0|0:0,0:0:0:0:
224,57,184895,6,0,L|127:53,1,85
32,160,185357,2,0,P|96:144|144:160,1,93.5000028533936,8|0,0:0|0:0,0:0:0:0:
121,149,186049,5,0,0:0:0:0:
176,224,186280,2,0,P|224:256|272:240,1,101.999996887207,8|0,0:0|0:0,0:0:0:0:
263,246,186972,5,0,0:0:0:0:
352,195,187203,2,0,P|368:259|336:307,1,110.499994941712,8|0,0:0|0:0,0:0:0:0:
348,296,187895,5,0,0:0:0:0:
404,363,188126,2,0,P|356:378|281:352,1,118.999996368408,8|0,0:0|0:0,0:0:0:0:
27,301,188588,6,0,P|75:286|126:305,1,85,4|0,0:0|0:0,0:0:0:0:
144,310,188934,2,0,P|119:243|163:179,1,127.5,2|2,0:0|0:0,0:0:0:0:
338,56,189511,2,0,P|334:133|271:169,1,127.5,4|2,0:0|0:0,0:0:0:0:
248,202,189972,2,0,P|290:187|349:198,1,85,0|2,0:0|0:0,0:0:0:0:
451,226,190434,6,0,P|429:277|344:302,1,127.5,4|2,0:0|0:0,0:0:0:0:
296,270,190895,2,0,P|234:250|145:273,1,127.5,0|2,0:0|0:0,0:0:0:0:
59,263,191357,2,0,P|114:227|123:153,1,127.5,4|2,0:0|0:0,0:0:0:0:
112,128,191818,1,8,0:0:0:0:
32,48,192049,1,8,0:0:0:0:
32,48,192280,6,0,L|144:32,1,85,4|0,0:0|0:0,0:0:0:0:
192,64,192626,2,0,L|336:48,1,127.5,2|0,0:0|0:0,0:0:0:0:
464,160,193203,2,0,L|342:174,1,85,4|0,0:0|0:0,0:0:0:0:
328,233,193549,2,0,P|262:215|174:236,1,127.5,2|0,0:0|0:0,0:0:0:0:
32,277,194126,6,0,P|86:308|127:300,1,85,4|0,0:0|0:0,0:0:0:0:
95,219,194472,2,0,L|81:82,1,127.5,2|0,0:0|0:0,0:0:0:0:
269,7,195049,2,0,L|254:122,1,85,4|0,0:0|0:0,0:0:0:0:
306,154,195395,2,0,P|267:231|292:282,1,127.5,2|0,0:0|0:0,0:0:0:0:
336,320,195972,5,0,0:0:0:0:
411,254,196203,1,0,0:0:0:0:
411,254,196318,1,0,0:0:0:0:
347,52,196665,1,0,0:0:0:0:
347,52,196780,1,0,0:0:0:0:
490,197,197126,1,0,0:0:0:0:
490,197,197242,1,0,0:0:0:0:
249,56,197588,1,0,0:0:0:0:
249,56,197703,1,0,0:0:0:0:
