osu file format v12

[General]
AudioFilename: IA66.mp3
AudioLeadIn: 0
PreviewTime: 48041
Countdown: 0
SampleSet: Soft
StackLeniency: 0.7
Mode: 0
LetterboxInBreaks: 0

[Editor]
DistanceSpacing: 1.2
BeatDivisor: 4
GridSize: 8

[Metadata]
Title:Ifuudoudou
TitleUnicode:威風堂々
Artist:Umetora
ArtistUnicode:梅とら
Creator:Nymph
Version:Normal
Source:
Tags:goodbye eveless CHIE ILLUSTLATION DIVINE-DIVA IHUDODO If U Do Do Vocaloid Hatsune Miku Megurine Luka Megpoid Gumi IA Kagamine Rin Ruka
BeatmapID:233831
BeatmapSetID:84023

[Difficulty]
HPDrainRate:3
CircleSize:4
OverallDifficulty:4
ApproachRate:5
SliderMultiplier:1.2
SliderTickRate:1

[Events]
//Background and Video events
0,0,"555554444.jpg",0,0
Video,0,"tt.flv"
//Break Periods
2,63249,69234
2,118426,132003
2,151864,154157
//Storyboard Layer 0 (Background)
//Storyboard Layer 1 (Fail)
//Storyboard Layer 2 (Pass)
//Storyboard Layer 3 (Foreground)
//Storyboard Sound Samples
//Background Colour Transformations
3,100,163,162,255

[TimingPoints]
18742,461.538461538462,4,2,1,35,1,0
26242,-100,4,2,1,50,0,0
27972,-100,4,2,1,35,0,0
28088,-100,4,2,1,50,0,0
29818,-100,4,2,1,35,0,0
29934,-100,4,2,1,50,0,0
31665,-100,4,2,1,35,0,0
31780,-100,4,2,1,45,0,0
32126,-100,4,2,1,40,0,0
32357,-100,4,2,1,35,0,0
32588,-100,4,2,1,30,0,0
33049,-100,4,2,1,10,0,0
33511,-100,4,2,1,50,0,0
39165,-100,4,2,1,32,0,0
39972,-100,4,2,1,38,0,0
40434,-100,4,2,1,45,0,0
40895,-100,4,2,1,50,0,0
41818,-100,4,2,2,50,0,0
41934,-100,4,2,1,50,0,0
42626,-100,4,2,2,50,0,0
42857,-100,4,2,1,50,0,0
43665,-100,4,2,2,50,0,0
43780,-100,4,2,1,50,0,0
44588,-100,4,2,2,40,0,0
47934,-100,4,2,1,70,0,0
48280,-100,4,2,3,70,0,1
63049,-100,4,2,1,40,0,0
63511,-100,4,2,1,48,0,0
64434,-100,4,2,1,55,0,0
65357,-100,4,2,1,63,0,0
66280,-100,4,2,1,70,0,0
66742,-100,4,2,2,40,0,0
76203,-100,4,2,2,35,0,0
76434,-100,4,2,2,30,0,0
76665,-100,4,2,2,25,0,0
76895,-100,4,2,2,25,0,0
77588,-100,4,2,1,45,0,0
77818,-100,4,2,1,60,0,0
78280,-100,4,2,1,80,0,0
78395,-100,4,2,1,60,0,0
78742,-100,4,2,1,60,0,0
79203,-100,4,2,1,80,0,0
79318,-100,4,2,1,60,0,0
80126,-100,4,2,1,80,0,0
80242,-100,4,2,1,60,0,0
80472,-100,4,2,1,60,0,0
80934,-100,4,2,1,80,0,0
81049,-100,4,2,1,80,0,0
81165,-100,4,2,1,60,0,0
81972,-100,4,2,1,80,0,0
82088,-100,4,2,1,60,0,0
82895,-100,4,2,1,80,0,0
83011,-100,4,2,1,60,0,0
83818,-100,4,2,1,80,0,0
83934,-100,4,2,1,60,0,0
85203,-100,4,2,2,60,0,0
85665,-100,4,2,1,60,0,0
85780,-100,4,2,2,60,0,0
86588,-100,4,2,1,60,0,0
86703,-100,4,2,2,60,0,0
87511,-100,4,2,1,60,0,0
87626,-100,4,2,2,60,0,0
88434,-100,4,2,1,60,0,0
88549,-100,4,2,2,60,0,0
89357,-100,4,2,1,60,0,0
89472,-100,4,2,2,60,0,0
90280,-100,4,2,1,60,0,0
90395,-100,4,2,2,60,0,0
90742,-100,4,2,1,40,0,0
91088,-100,4,2,1,5,0,0
91203,-100,4,2,1,50,0,0
91549,-100,4,2,1,5,0,0
91665,-100,4,2,1,60,0,0
92011,-100,4,2,1,5,0,0
92126,-100,4,2,1,70,0,0
92472,-100,4,2,1,5,0,0
92588,-100,4,2,1,50,0,0
94434,-100,4,2,3,70,0,1
109203,-100,4,2,4,70,0,0
116588,-100,4,2,1,40,0,0
117972,-100,4,2,1,5,0,0
118434,-100,4,2,1,30,0,0
125357,-100,4,2,2,30,0,0
125818,-100,4,2,2,40,0,0
132742,-100,4,2,2,55,0,0
133203,-100,4,2,0,70,0,0
140588,-100,4,2,4,65,0,0
147049,-100,4,2,4,50,0,0
147972,-100,4,2,4,65,0,0
155126,-100,4,2,4,65,0,0
155357,-100,4,2,3,75,0,1
156742,-100,4,2,3,75,0,1
157203,-100,4,2,3,75,0,1
158588,-100,4,2,3,75,0,1
159049,-100,4,2,3,75,0,1
160434,-100,4,2,3,75,0,1
160895,-100,4,2,3,75,0,1
162280,-100,4,2,3,75,0,1
162742,-100,4,2,3,75,0,1
163895,-100,4,2,3,75,0,1
164588,-100,4,2,3,75,0,1
165742,-100,4,2,3,75,0,1
166434,-100,4,2,3,75,0,1
167588,-100,4,2,3,75,0,1
168280,-100,4,2,3,75,0,1
170126,-100,4,2,4,75,0,0
181203,-100,4,2,4,75,0,0
182126,-100,4,2,4,85,0,0
183049,-100,4,2,4,92,0,0
183972,-100,4,2,4,100,0,0
184895,-100,4,2,4,75,0,0
185818,-100,4,2,4,85,0,0
186742,-100,4,2,4,92,0,0
187665,-100,4,2,4,100,0,0
188588,-100,4,2,3,75,0,0
195742,-100,4,2,4,10,0,0

[Colours]
Combo1 : 255,205,155
Combo2 : 209,164,255
Combo3 : 157,206,255
Combo4 : 255,202,255
Combo5 : 113,255,184
Combo6 : 255,113,113

[HitObjects]
143,58,26126,2,0,P|90:96|74:151,1,120,0|0,1:0|0:0,0:0:0:0:
97,214,26818,1,0,0:0:0:0:
121,281,27049,2,0,L|92:338,1,60
159,365,27511,2,0,L|186:311,2,60,0|0|0,0:0|0:0|1:0,0:0:0:0:
302,356,28434,6,0,P|362:367|419:348,1,120
458,290,29126,1,0,0:0:0:0:
452,218,29357,2,0,L|473:158,2,60,0|0|0,0:0|0:0|1:0,0:0:0:0:
377,94,30280,6,0,P|315:94|271:133,1,120
233,190,30972,1,0,0:0:0:0:
164,168,31203,2,0,P|161:200|171:227,1,60
146,294,31665,2,0,P|149:326|139:353,1,60,0|0,1:0|0:0,0:0:0:0:
76,317,32126,2,0,P|53:331|20:335,1,60
27,263,32588,2,0,P|23:205|54:150,1,120
159,56,33511,6,0,P|211:88|269:89,1,120,0|0,1:0|0:0,0:0:0:0:
340,81,34203,1,0,0:0:0:0:
409,61,34434,2,0,P|442:63|469:76,1,60
422,131,34895,2,0,P|421:160|408:189,2,60,0|0|0,0:0|0:0|1:0,0:0:0:0:
283,170,35818,6,0,P|283:229|324:275,1,120
393,265,36511,1,0,0:0:0:0:
463,277,36742,2,0,P|480:304|483:335,2,60,0|0|0,0:0|0:0|1:0,0:0:0:0:
344,358,37665,6,0,P|287:378|223:375,1,120
164,342,38357,1,0,0:0:0:0:
93,358,38588,2,0,P|68:366|35:366,1,60
56,297,39049,6,0,P|63:239|39:181,1,120,0|0,1:0|0:0,0:0:0:0:
21,113,39742,1,0,0:0:0:0:
68,58,39972,2,0,P|123:34|184:35,1,120
253,45,40665,2,0,L|305:77,1,60,0|4,0:0|0:0,0:0:0:0:
427,151,41357,5,8,0:0:0:0:
315,241,41818,1,2,0:0:0:0:
448,295,42280,1,8,0:0:0:0:
315,241,42742,6,0,L|254:241,1,60,2|0,0:0|0:0,0:0:0:0:
206,294,43203,2,0,L|145:294,1,60,8|0,0:0|0:0,0:0:0:0:
103,352,43665,2,0,L|42:352,2,60,2|0|8,0:0|0:0|0:0,0:0:0:0:
246,369,44588,5,0,0:0:0:0:
388,352,45049,1,8,0:0:0:0:
302,235,45511,1,0,0:0:0:0:
444,218,45972,1,8,0:0:0:0:
256,192,46434,12,0,47818,0:0:0:0:
259,52,48280,6,0,P|237:113|194:147,1,120,4|8,0:0|0:0,0:0:0:0:
100,254,49203,2,0,P|137:307|187:328,1,120,0|8,0:0|0:0,0:0:0:0:
256,342,49895,1,0,0:0:0:0:
325,328,50126,6,0,P|374:307|412:254,1,120,0|8,0:0|0:0,0:0:0:0:
316,146,51049,2,0,P|275:113|253:52,1,120,0|8,0:0|0:0,0:0:0:0:
184,27,51742,2,0,L|132:73,1,60
30,161,52434,5,8,0:0:0:0:
157,228,52895,2,0,P|120:276|65:299,2,120,0|8|0,0:0|0:0|0:0,0:0:0:0:
229,229,54049,6,0,L|281:275,1,60,0|8,0:0|0:0,0:0:0:0:
346,268,54511,2,0,L|398:314,1,60
476,192,55203,1,8,0:0:0:0:
435,53,55665,6,0,L|315:53,1,120,4|8,1:0|0:0,0:0:0:0:
188,122,56588,2,0,L|68:122,1,120,4|8,0:0|0:0,0:0:0:0:
68,262,57511,6,0,L|188:262,1,120,4|8,1:0|0:0,0:0:0:0:
315,331,58434,2,0,L|435:331,1,120,4|8,0:0|0:0,0:0:0:0:
474,192,59357,5,4,1:0:0:0:
414,60,59818,1,8,0:0:0:0:
301,150,60280,1,4,0:0:0:0:
241,18,60742,1,8,0:0:0:0:
141,121,61203,6,0,L|99:166,1,60,4|0,1:0|0:0,0:0:0:0:
136,227,61665,2,0,L|122:286,1,60,8|0,0:0|0:0,0:0:0:0:
193,298,62126,2,0,L|210:356,1,60,4|0,0:0|0:0,0:0:0:0:
278,329,62588,2,0,L|323:371,1,60,8|0,0:0|0:0,0:0:0:0:
393,377,63049,1,4,1:0:0:0:
243,41,70434,6,0,P|296:79|311:129,1,120,0|0,1:0|0:0,0:0:0:0:
295,199,71126,1,0,0:0:0:0:
307,269,71357,2,0,L|278:326,1,60
341,359,71818,2,0,L|368:305,2,60,0|0|0,0:0|0:0|1:0,0:0:0:0:
470,295,72742,6,0,P|454:244|401:206,1,120
344,162,73434,1,0,0:0:0:0:
376,97,73665,2,0,L|397:37,2,60,0|0|0,0:0|0:0|1:0,0:0:0:0:
237,57,74588,6,0,P|175:57|131:96,1,120
115,163,75280,1,0,0:0:0:0:
102,233,75511,2,0,L|49:260,1,60
65,330,75972,2,0,L|12:357,2,60,0|0|0,1:0|0:0|0:0,0:0:0:0:
134,350,76665,1,0,0:0:0:0:
202,328,76895,2,0,P|265:326|311:360,1,120
442,301,77818,6,0,P|474:256|472:193,1,120,4|2,1:0|3:0,0:0:0:0:
404,168,78511,1,0,0:0:0:0:
460,123,78742,2,0,P|415:90|352:92,1,120,0|2,0:0|3:0,0:0:0:0:
288,125,79434,1,0,0:0:0:0:
234,173,79665,6,0,P|171:175|126:142,1,120,0|2,0:0|3:0,0:0:0:0:
58,167,80357,2,0,L|22:215,1,60
64,352,81049,2,0,L|100:304,1,60,2|0,3:0|0:0,0:0:0:0:
171,295,81511,6,0,P|234:293|278:325,1,120,0|2,0:0|3:0,0:0:0:0:
343,356,82203,1,0,0:0:0:0:
415,357,82434,2,0,L|456:313,1,60
489,249,82895,1,2,3:0:0:0:
492,176,83126,6,0,P|483:121|437:78,1,120
367,60,83818,2,0,L|316:108,1,60,2|0,3:0|0:0,0:0:0:0:
279,43,84280,2,0,L|186:131,2,120,0|0|4,0:0|0:0|0:0,0:0:0:0:
349,168,85665,5,8,0:0:0:0:
480,108,86126,1,2,0:0:0:0:
469,251,86588,1,8,0:0:0:0:
338,311,87049,6,0,L|283:338,1,60,2|0,0:0|0:0,0:0:0:0:
212,325,87511,2,0,L|157:352,1,60,8|0,0:0|0:0,0:0:0:0:
87,336,87972,2,0,L|32:363,2,60,2|0|8,0:0|0:0|0:0,0:0:0:0:
52,196,88895,6,0,B|34:139|34:139|60:82,1,120,0|8,0:0|0:0,0:0:0:0:
189,23,89818,2,0,B|207:80|207:80|181:137,1,120,0|8,0:0|0:0,0:0:0:0:
325,154,90741,6,0,L|420:231,1,120,0|0,1:0|1:0,0:0:0:0:
456,368,91665,2,0,L|362:292,1,120,0|0,1:0|1:0,0:0:0:0:
229,344,92588,2,0,L|169:344,4,60,0|0|0|0|0,1:0|0:0|0:0|0:0|0:0,0:0:0:0:
27,207,94434,6,0,P|31:146|63:97,1,120,4|8,0:0|0:0,0:0:0:0:
123,60,95126,1,0,0:0:0:0:
190,86,95357,2,0,P|239:118|300:122,1,120,0|8,0:0|0:0,0:0:0:0:
362,88,96049,1,0,0:0:0:0:
430,110,96280,6,0,L|473:163,1,60
438,222,96741,2,0,L|481:275,1,60,8|0,0:0|0:0,0:0:0:0:
424,319,97203,2,0,P|373:352|310:360,1,120,0|8,0:0|0:0,0:0:0:0:
256,318,97895,1,0,0:0:0:0:
196,360,98126,6,0,P|139:352|88:319,1,120,0|8,0:0|0:0,0:0:0:0:
37,267,98818,2,0,L|0:317,2,60
46,195,99511,2,0,L|61:136,1,60,8|0,0:0|0:0,0:0:0:0:
105,79,99972,6,0,P|156:41|210:35,1,120,0|8,0:0|0:0,0:0:0:0:
275,67,100665,1,0,0:0:0:0:
266,138,100895,2,0,P|215:176|161:182,1,120,0|8,0:0|0:0,0:0:0:0:
119,241,101588,2,0,L|94:296,1,60,0|4,0:0|1:0,0:0:0:0:
224,357,102280,5,8,0:0:0:0:
285,226,102741,1,4,0:0:0:0:
385,328,103203,2,0,L|411:273,1,60,8|0,0:0|0:0,0:0:0:0:
452,214,103665,6,0,B|478:159|478:159|460:100,1,120,4|8,1:0|0:0,0:0:0:0:
339,23,104588,2,0,B|313:78|313:78|331:137,1,120,4|8,0:0|0:0,0:0:0:0:
272,177,105280,2,0,L|218:211,1,60,0|4,0:0|1:0,0:0:0:0:
85,159,105972,5,8,0:0:0:0:
78,303,106434,1,4,0:0:0:0:
213,351,106895,1,8,0:0:0:0:
357,349,107357,6,0,L|421:336,1,60,4|0,1:0|0:0,0:0:0:0:
421,265,107818,2,0,L|469:221,1,60,8|0,0:0|0:0,0:0:0:0:
419,169,108280,2,0,L|439:107,1,60,4|0,0:0|0:0,0:0:0:0:
369,87,108741,2,0,L|355:22,1,60,8|0,0:0|0:0,0:0:0:0:
285,25,109203,1,4,1:0:0:0:
153,83,109665,6,0,P|117:134|61:157,1,120,8|0,0:0|0:0,0:0:0:0:
39,223,110357,2,0,L|24:281,2,60,0|8|0,0:0|0:0|0:0,0:0:0:0:
109,238,111049,2,0,P|160:268|185:322,1,120,0|8,0:0|0:0,0:0:0:0:
327,322,111972,2,0,P|352:268|403:238,1,120,0|8,0:0|0:0,0:0:0:0:
462,197,112665,2,0,L|481:137,1,60
390,26,113357,5,8,0:0:0:0:
256,80,113818,1,0,0:0:0:0:
122,26,114280,1,8,0:0:0:0:
69,160,114741,2,0,L|22:276,1,120,0|8,0:0|0:0,0:0:0:0:
131,367,115665,2,0,L|178:251,1,120,0|8,0:0|0:0,0:0:0:0:
256,192,116588,12,0,117972,0:0:0:0:
186,63,133203,6,0,L|134:177,1,120,4|8,0:0|0:0,0:0:0:0:
64,166,133895,1,0,0:0:0:0:
89,233,134126,2,0,P|105:291|156:316,1,120,0|8,0:0|0:0,0:0:0:0:
226,327,134818,1,0,0:0:0:0:
297,336,135049,6,0,L|414:365,1,120,0|8,0:0|0:0,0:0:0:0:
475,326,135741,1,0,0:0:0:0:
462,255,135972,2,0,L|345:226,1,120,0|8,0:0|0:0,0:0:0:0:
364,83,136895,6,0,P|316:118|257:123,1,120,0|8,0:0|0:0,0:0:0:0:
197,81,137588,1,0,0:0:0:0:
137,40,137818,2,0,P|78:45|30:80,1,120,0|8,0:0|0:0,0:0:0:0:
37,151,138511,2,0,L|20:208,1,60
159,244,139203,6,0,L|120:361,2,120,8|0|8,0:0|0:0|0:0,0:0:0:0:
200,185,140357,1,0,0:0:0:0:
250,133,140588,6,0,P|287:87|346:70,1,120,4|8,0:0|0:0,0:0:0:0:
466,144,141511,2,0,P|429:190|370:207,1,120,4|8,0:0|0:0,0:0:0:0:
314,249,142203,1,0,0:0:0:0:
344,314,142434,6,0,P|297:352|240:359,1,120,4|8,0:0|0:0,0:0:0:0:
184,225,143357,2,0,P|127:232|80:270,1,120,4|8,0:0|0:0,0:0:0:0:
17,234,144049,2,0,L|3:166,1,60,0|4,0:0|0:0,0:0:0:0:
81,52,144741,5,8,0:0:0:0:
186,149,145203,1,4,0:0:0:0:
286,45,145665,1,8,0:0:0:0:
391,142,146126,6,0,L|378:202,1,60,4|0,0:0|0:0,0:0:0:0:
435,244,146588,2,0,L|422:304,2,60,8|0|0,0:0|0:0|0:0,0:0:0:0:
259,70,147972,6,0,P|206:42|145:44,1,120,4|8,0:0|0:0,0:0:0:0:
89,87,148665,1,0,0:0:0:0:
111,154,148895,2,0,P|97:211|56:255,1,120,4|8,0:0|0:0,0:0:0:0:
13,313,149588,1,0,0:0:0:0:
75,348,149818,6,0,L|134:367,1,60,4|0,0:0|0:0,0:0:0:0:
201,345,150280,2,0,L|260:364,2,60,8|0|4,0:0|0:0|0:0,0:0:0:0:
326,273,151203,2,0,P|387:279|434:315,1,120,8|0,0:0|0:0,0:0:0:0:
297,50,155357,6,0,P|262:98|205:119,1,120,4|8,0:0|0:0,0:0:0:0:
185,188,156049,1,0,0:0:0:0:
112,190,156280,2,0,P|75:236|69:295,1,120,0|8,0:0|0:0,0:0:0:0:
108,355,156972,1,0,0:0:0:0:
179,346,157203,6,0,L|298:372,1,120,0|8,0:0|0:0,0:0:0:0:
382,256,158126,2,0,L|501:282,1,120,0|8,0:0|0:0,0:0:0:0:
501,209,158818,2,0,L|491:146,1,60
408,31,159511,5,8,0:0:0:0:
296,121,159972,2,0,P|249:158|185:167,1,120,0|8,0:0|0:0,0:0:0:0:
138,117,160665,1,0,0:0:0:0:
71,143,160895,6,0,L|3:244,1,120,0|8,0:0|0:0,0:0:0:0:
77,366,161818,2,0,L|145:265,1,120,0|8,0:0|0:0,0:0:0:0:
215,256,162511,2,0,L|269:284,1,60,0|4,0:0|1:0,0:0:0:0:
392,355,163203,5,8,0:0:0:0:
491,251,163665,2,0,P|500:192|476:136,1,120,4|8,0:0|0:0,0:0:0:0:
413,104,164357,2,0,L|428:41,1,60,0|4,0:0|1:0,0:0:0:0:
285,17,165049,6,0,L|255:138,1,120,8|4,0:0|0:0,0:0:0:0:
188,159,165742,2,0,L|132:183,1,60,0|8,0:0|0:0,0:0:0:0:
136,254,166203,2,0,L|80:278,1,60,0|4,0:0|1:0,0:0:0:0:
6,154,166895,5,8,0:0:0:0:
88,36,167357,1,4,0:0:0:0:
199,126,167818,1,0,0:0:0:0:
336,170,168280,6,0,L|356:227,1,60,4|0,1:0|0:0,0:0:0:0:
291,260,168742,2,0,L|242:301,1,60
255,370,169203,2,0,L|192:382,1,60,4|0,0:0|0:0,0:0:0:0:
152,323,169665,2,0,L|89:335,2,60,0|0|4,0:0|0:0|1:0,0:0:0:0:
20,267,170588,6,0,P|3:209|21:153,1,120,8|0,0:0|0:0,0:0:0:0:
133,64,171511,2,0,P|150:122|132:178,1,120,8|0,0:0|0:0,0:0:0:0:
198,305,172434,1,8,0:0:0:0:
339,328,172895,2,0,L|394:353,1,60
446,303,173357,2,0,L|501:328,2,60,8|0|0,0:0|0:0|0:0,0:0:0:0:
496,168,174280,6,0,P|481:108|435:69,2,120,8|0|8,0:0|0:0|0:0,0:0:0:0:
351,169,175665,2,0,P|298:193|234:189,1,120,0|8,0:0|0:0,0:0:0:0:
117,109,176588,2,0,P|170:85|234:89,2,120,0|8|0,0:0|0:0|0:0,0:0:0:0:
52,237,177972,5,8,0:0:0:0:
164,327,178434,2,0,L|222:344,1,60
276,296,178895,2,0,L|334:313,1,60,8|0,0:0|0:0,0:0:0:0:
393,272,179357,6,0,P|457:278|491:322,2,120,0|8|0,0:0|0:0|0:0,0:0:0:0:
441,136,180742,2,0,L|458:75,2,60,8|0|4,0:0|0:0|0:0,0:0:0:0:
310,74,181665,6,0,P|258:47|198:58,1,120,8|0,0:0|0:0,0:0:0:0:
115,174,182588,2,0,P|63:147|3:158,1,120,8|0,0:0|0:0,0:0:0:0:
73,283,183511,2,0,P|131:272|183:299,1,120,8|0,0:0|0:0,0:0:0:0:
317,247,184434,2,0,P|375:236|427:263,1,120,8|0,0:0|0:0,0:0:0:0:
460,123,185357,6,0,L|444:64,2,60,8|0|0,0:0|0:0|0:0,0:0:0:0:
317,101,186280,2,0,L|273:57,2,60,8|0|0,0:0|0:0|0:0,0:0:0:0:
178,140,187203,2,0,L|118:124,2,60,8|0|0,0:0|0:0|0:0,0:0:0:0:
86,251,188126,2,0,L|27:267,1,60,8|0,0:0|0:0,0:0:0:0:
18,338,188588,6,0,P|71:370|131:369,1,120,4|8,0:0|0:0,0:0:0:0:
194,342,189280,2,0,L|254:354,1,60,0|4,0:0|0:0,0:0:0:0:
297,216,189972,1,8,0:0:0:0:
412,302,190434,6,0,P|444:249|443:189,1,120,4|8,0:0|0:0,0:0:0:0:
416,126,191126,2,0,L|428:66,1,60,0|4,0:0|0:0,0:0:0:0:
288,29,191818,1,8,0:0:0:0:
210,150,192280,6,0,P|181:199|127:228,1,120,4|8,0:0|0:0,0:0:0:0:
59,252,192972,2,0,L|47:312,1,60,0|4,0:0|0:0,0:0:0:0:
179,367,193665,1,8,0:0:0:0:
322,354,194126,6,0,P|350:304|404:275,1,120,4|8,0:0|0:0,0:0:0:0:
462,232,194818,2,0,L|474:172,1,60,0|4,0:0|0:0,0:0:0:0:
341,115,195511,2,0,P|313:165|259:194,1,120,8|0,0:0|0:0,0:0:0:0:
256,192,196088,12,0,197703,0:0:0:0:
