osu file format v12

[General]
AudioFilename: IA66.mp3
AudioLeadIn: 0
PreviewTime: 48041
Countdown: 0
SampleSet: Soft
StackLeniency: 0.7
Mode: 0
LetterboxInBreaks: 0

[Editor]
DistanceSpacing: 1.2
BeatDivisor: 3
GridSize: 8

[Metadata]
Title:Ifuudoudou
TitleUnicode:威風堂々
Artist:Umetora
ArtistUnicode:梅とら
Creator:Nymph
Version:Insane
Source:
Tags:goodbye eveless CHIE ILLUSTLATION DIVINE-DIVA IHUDODO If U Do Do Vocaloid Hatsune Miku Megurine Luka Megpoid Gumi IA Kagamine Rin Ruka
BeatmapID:231825
BeatmapSetID:84023

[Difficulty]
HPDrainRate:7
CircleSize:4
OverallDifficulty:8
ApproachRate:9
SliderMultiplier:2
SliderTickRate:1

[Events]
//Background and Video events
0,0,"555554444.jpg",0,0
Video,0,"tt.flv"
//Break Periods
2,66942,69834
//Storyboard Layer 0 (Background)
//Storyboard Layer 1 (Fail)
//Storyboard Layer 2 (Pass)
//Storyboard Layer 3 (Foreground)
//Storyboard Sound Samples
//Background Colour Transformations
3,100,163,162,255

[TimingPoints]
18742,461.538461538462,4,2,1,35,1,0
26242,-100,4,2,1,50,0,0
27972,-100,4,2,1,35,0,0
28088,-100,4,2,1,50,0,0
29818,-100,4,2,1,35,0,0
29934,-100,4,2,1,50,0,0
31665,-100,4,2,1,35,0,0
31780,-100,4,2,1,45,0,0
32126,-100,4,2,1,40,0,0
32357,-100,4,2,1,35,0,0
32588,-200,4,2,1,30,0,0
33049,-200,4,2,1,10,0,0
33511,-100,4,2,1,50,0,0
39165,-100,4,2,1,32,0,0
39972,-100,4,2,1,38,0,0
40434,-100,4,2,1,45,0,0
40895,-133.333333333333,4,2,1,50,0,0
41818,-133.333333333333,4,2,2,50,0,0
41934,-100,4,2,1,50,0,0
42626,-100,4,2,2,50,0,0
42857,-100,4,2,1,50,0,0
43665,-100,4,2,2,50,0,0
43780,-100,4,2,1,50,0,0
44588,-133.333333333333,4,2,2,40,0,0
47934,-80,4,2,1,70,0,0
48280,-80,4,2,3,70,0,1
63049,-100,4,2,1,70,0,0
63165,-100,4,2,1,40,0,0
63511,-100,4,2,1,48,0,0
64434,-100,4,2,1,55,0,0
65357,-100,4,2,1,63,0,0
66280,-100,4,2,1,70,0,0
66742,-100,4,2,2,40,0,0
76203,-100,4,2,2,35,0,0
76434,-100,4,2,2,30,0,0
76665,-100,4,2,2,25,0,0
76895,-200,4,2,2,25,0,0
77588,-200,4,2,1,45,0,0
77818,-100,4,2,1,60,0,0
78280,-100,4,2,1,80,0,0
78395,-100,4,2,1,60,0,0
78742,-200,4,2,1,60,0,0
79203,-100,4,2,1,80,0,0
79318,-100,4,2,1,60,0,0
80126,-100,4,2,1,80,0,0
80242,-100,4,2,1,60,0,0
80472,-200,4,2,1,60,0,0
80934,-200,4,2,1,80,0,0
81049,-100,4,2,1,80,0,0
81165,-100,4,2,1,60,0,0
81972,-100,4,2,1,80,0,0
82088,-100,4,2,1,60,0,0
82895,-100,4,2,1,80,0,0
83011,-100,4,2,1,60,0,0
83818,-100,4,2,1,80,0,0
83934,-100,4,2,1,60,0,0
85203,-100,4,2,2,60,0,0
85665,-100,4,2,1,60,0,0
85780,-100,4,2,2,60,0,0
86588,-100,4,2,1,60,0,0
86703,-100,4,2,2,60,0,0
87511,-100,4,2,1,60,0,0
87626,-100,4,2,2,60,0,0
88434,-100,4,2,1,60,0,0
88549,-100,4,2,2,60,0,0
89357,-100,4,2,1,60,0,0
89472,-100,4,2,2,60,0,0
90280,-100,4,2,1,60,0,0
90395,-100,4,2,2,60,0,0
90742,-200,4,2,1,40,0,0
91088,-200,4,2,1,5,0,0
91203,-133.333333333333,4,2,1,50,0,0
91549,-133.333333333333,4,2,1,5,0,0
91665,-100,4,2,1,60,0,0
92011,-100,4,2,1,5,0,0
92126,-80,4,2,1,70,0,0
92472,-80,4,2,1,5,0,0
92588,-100,4,2,1,50,0,0
94434,-80,4,2,3,70,0,1
109203,-100,4,2,4,70,0,0
116588,-100,4,2,1,40,0,0
117972,-100,4,2,1,5,0,0
118434,-133.333333333333,4,2,1,30,0,0
125357,-133.333333333333,4,2,2,30,0,0
125818,-133.333333333333,4,2,2,40,0,0
132742,-133.333333333333,4,2,2,55,0,0
133203,-133.333333333333,4,2,0,70,0,0
140588,-100,4,2,4,65,0,0
147049,-100,4,2,4,50,0,0
147972,-100,4,2,4,65,0,0
155126,-66.6666666666667,4,2,4,65,0,0
155357,-80,4,2,3,75,0,1
156742,-66.6666666666667,4,2,3,75,0,1
157203,-80,4,2,3,75,0,1
158588,-66.6666666666667,4,2,3,75,0,1
159049,-80,4,2,3,75,0,1
160434,-66.6666666666667,4,2,3,75,0,1
160895,-80,4,2,3,75,0,1
162280,-66.6666666666667,4,2,3,75,0,1
162742,-80,4,2,3,75,0,1
163895,-66.6666666666667,4,2,3,75,0,1
164588,-80,4,2,3,75,0,1
165742,-66.6666666666667,4,2,3,75,0,1
166434,-80,4,2,3,75,0,1
167588,-66.6666666666667,4,2,3,75,0,1
168280,-80,4,2,3,75,0,1
170126,-100,4,2,4,75,0,0
181203,-100,4,2,2,75,0,0
182126,-100,4,2,2,85,0,0
182588,-90.9090909090909,4,2,2,85,0,0
183049,-100,4,2,2,92,0,0
183511,-83.3333333333333,4,2,2,92,0,0
183972,-100,4,2,2,100,0,0
184434,-76.9230769230769,4,2,2,100,0,0
184895,-100,4,2,2,75,0,0
185818,-100,4,2,2,85,0,0
186280,-86.9565217391304,4,2,2,85,0,0
186742,-100,4,2,2,92,0,0
187203,-76.9230769230769,4,2,2,92,0,0
187665,-100,4,2,2,100,0,0
188126,-68.9655172413793,4,2,2,100,0,0
188588,-100,4,2,3,75,0,0
195742,-100,4,2,1,20,0,0

[Colours]
Combo1 : 255,205,155
Combo2 : 209,164,255
Combo3 : 157,206,255
Combo4 : 255,202,255
Combo5 : 113,255,184
Combo6 : 255,113,113

[HitObjects]
128,80,26126,5,4,1:0:0:0:
83,191,26357,1,0,0:0:0:0:
83,191,26472,1,0,0:0:0:0:
83,191,26588,2,0,L|58:240,2,50,0|0|0,0:0|0:0|0:0,0:0:0:0:
133,299,27049,2,0,P|167:337|212:352,1,100,2|0,0:0|0:0,0:0:0:0:
416,333,27511,2,0,P|382:295|337:280,1,100,0|0,0:0|0:0,0:0:0:0:
311,162,27972,5,0,1:0:0:0:
413,99,28203,1,0,0:0:0:0:
413,99,28318,1,0,0:0:0:0:
413,99,28434,2,0,L|438:50,1,50
344,57,28665,2,0,L|369:8,1,50
267,68,28895,2,0,L|220:159,1,100,2|0,0:0|0:0,0:0:0:0:
11,183,29357,2,0,L|58:92,1,100
70,291,29818,5,0,1:0:0:0:
172,353,30049,1,0,0:0:0:0:
172,353,30165,1,0,0:0:0:0:
172,353,30280,2,0,L|227:353,1,50
276,292,30511,2,0,L|331:292,1,50
387,355,30742,2,0,P|438:344|474:312,1,100,2|0,0:0|0:0,0:0:0:0:
481,193,31203,2,0,P|430:204|394:236,1,100
297,98,31665,21,0,1:0:0:0:
173,33,31895,1,0,0:0:0:0:
189,172,32126,1,0,0:0:0:0:
53,178,32357,1,0,0:0:0:0:
189,172,32588,6,0,L|147:262,1,100
189,172,33511,5,4,0:0:0:0:
279,250,33742,1,0,0:0:0:0:
302,257,33857,1,0,0:0:0:0:
324,268,33972,2,0,L|331:320,1,50
411,365,34203,2,0,L|404:315,1,50
473,274,34434,2,0,P|497:228|497:178,1,100,2|0,0:0|0:0,0:0:0:0:
453,35,34895,2,0,P|429:81|429:131,1,100
408,143,35242,2,0,L|363:170,1,50,0|0,0:0|1:0,0:0:0:0:
219,135,35588,21,0,0:0:0:0:
196,126,35703,1,0,0:0:0:0:
174,117,35818,2,0,L|167:65,1,50
87,20,36049,2,0,L|93:69,1,50
98,152,36280,2,0,P|97:199|73:245,1,100,2|0,0:0|0:0,0:0:0:0:
53,364,36742,2,0,P|86:331|136:315,1,100
178,264,37088,2,0,L|160:311,1,50,0|0,0:0|1:0,0:0:0:0:
333,338,37434,5,0,0:0:0:0:
357,343,37549,1,0,0:0:0:0:
381,349,37665,2,0,L|432:360,1,50
444,285,37895,2,0,L|495:296,1,50
494,216,38126,2,0,B|506:168|506:168|494:115,1,100,2|0,0:0|0:0,0:0:0:0:
372,17,38588,2,0,B|360:65|360:65|372:118,1,100
171,16,39049,5,0,1:0:0:0:
134,151,39280,1,0,0:0:0:0:
7,212,39511,1,0,0:0:0:0:
44,77,39742,1,0,0:0:0:0:
256,104,39972,2,0,P|309:107|351:128,1,100,2|0,0:0|0:0,0:0:0:0:
439,356,40434,2,0,P|386:353|344:332,1,100,2|0,0:0|0:0,0:0:0:0:
230,293,40895,22,0,L|178:348,1,75.0000028610231,4|0,0:0|0:0,0:0:0:0:
59,357,41357,1,8,0:0:0:0:
59,357,41588,2,0,L|111:302,1,75.0000028610231,2|8,0:0|0:0,0:0:0:0:
99,42,42049,5,2,0:0:0:0:
49,183,42280,1,8,0:0:0:0:
197,160,42511,1,2,0:0:0:0:
247,19,42742,2,0,P|271:64|311:93,1,100,8|2,0:0|0:0,0:0:0:0:
356,109,43088,1,0,0:0:0:0:
404,122,43203,2,0,P|442:150|466:195,1,100,8|2,0:0|0:0,0:0:0:0:
473,364,43665,2,0,P|434:335|410:290,1,100,8|2,0:0|0:0,0:0:0:0:
335,223,44126,1,8,0:0:0:0:
307,319,44357,1,2,0:0:0:0:
212,352,44588,6,0,L|132:351,1,75.0000028610231,12|0,0:0|0:0,0:0:0:0:
35,279,45049,1,8,0:0:0:0:
35,279,45280,2,0,L|115:278,1,75.0000028610231,0|8,0:0|0:0,0:0:0:0:
256,192,45742,1,0,0:0:0:0:
256,71,45972,1,8,0:0:0:0:
256,192,46203,1,0,0:0:0:0:
256,192,46434,12,0,47818,0:0:0:0:
22,192,48049,21,0,0:0:0:0:
59,192,48165,1,0,0:0:0:0:
96,192,48280,2,0,P|147:158|211:153,1,125,4|0,0:0|0:0,0:0:0:0:
273,192,48626,1,0,0:0:0:0:
337,230,48742,2,0,P|388:264|452:269,1,125,8|0,0:0|0:0,0:0:0:0:
418,61,49203,1,2,0:0:0:0:
224,25,49434,5,0,0:0:0:0:
211,46,49549,1,0,0:0:0:0:
198,67,49665,1,8,0:0:0:0:
185,88,49780,1,0,0:0:0:0:
172,109,49895,1,0,0:0:0:0:
159,130,50011,1,0,0:0:0:0:
84,126,50126,2,0,P|27:162|-3:217,1,125,2|0,0:0|0:0,0:0:0:0:
7,285,50472,1,0,0:0:0:0:
79,307,50588,2,0,P|136:271|166:216,1,125,8|0,0:0|0:0,0:0:0:0:
349,122,51049,1,2,0:0:0:0:
436,250,51280,5,0,0:0:0:0:
420,269,51395,1,0,0:0:0:0:
404,288,51511,1,8,0:0:0:0:
388,307,51626,1,0,0:0:0:0:
372,326,51742,1,0,0:0:0:0:
356,345,51857,1,0,0:0:0:0:
287,373,51972,2,0,L|162:373,1,125,2|0,0:0|0:0,0:0:0:0:
0,206,52434,2,0,L|125:206,1,125,8|0,0:0|0:0,0:0:0:0:
185,31,52895,1,2,0:0:0:0:
458,57,53126,22,0,L|399:36,1,62.5
320,141,53357,2,0,L|382:130,1,62.5,8|0,0:0|0:0,0:0:0:0:
463,189,53588,2,0,L|415:229,1,62.5
337,362,53818,2,0,P|396:344|440:300,1,125,2|0,0:0|0:0,0:0:0:0:
175,299,54280,2,0,P|116:317|72:361,1,125,8|0,0:0|0:0,0:0:0:0:
15,312,54626,2,0,L|56:262,1,62.5,0|2,0:0|0:0,0:0:0:0:
59,64,54972,5,0,0:0:0:0:
75,83,55088,1,0,0:0:0:0:
91,102,55203,1,8,0:0:0:0:
139,116,55318,1,0,0:0:0:0:
155,135,55434,1,0,0:0:0:0:
171,154,55549,1,0,0:0:0:0:
234,196,55665,2,0,B|276:241|276:241|316:259|347:247,1,125,4|0,1:0|0:0,0:0:0:0:
483,87,56126,2,0,B|441:42|441:42|401:24|370:36,1,125,8|0,0:0|0:0,0:0:0:0:
230,55,56588,1,4,1:0:0:0:
69,187,56818,5,0,0:0:0:0:
53,206,56934,1,0,0:0:0:0:
37,225,57049,1,8,0:0:0:0:
45,275,57165,1,0,0:0:0:0:
29,294,57280,1,0,0:0:0:0:
13,313,57395,1,0,0:0:0:0:
66,369,57511,2,0,L|192:369,1,125,4|0,1:0|0:0,0:0:0:0:
456,287,57972,2,0,L|330:287,1,125,8|0,0:0|0:0,0:0:0:0:
256,155,58434,1,4,1:0:0:0:
87,39,58665,22,0,L|59:96,1,62.5
36,224,58895,2,0,L|88:190,1,62.5,0|0,0:0|0:0,0:0:0:0:
166,293,59126,2,0,L|104:298,1,62.5
256,257,59357,1,4,1:0:0:0:
478,294,59588,1,0,0:0:0:0:
256,180,59818,1,8,0:0:0:0:
478,217,60049,1,0,0:0:0:0:
256,100,60280,1,4,1:0:0:0:
424,26,60511,22,0,L|480:56,1,62.5,0|0,0:0|0:0,0:0:0:0:
488,184,60742,2,0,L|433:152,1,62.5,8|0,0:0|0:0,0:0:0:0:
336,224,60972,2,0,L|391:253,1,62.5
348,88,61203,5,4,1:0:0:0:
484,296,61434,1,0,0:0:0:0:
256,192,61665,1,8,0:0:0:0:
480,56,61895,1,0,0:0:0:0:
352,296,62126,21,4,1:0:0:0:
172,88,62357,1,0,0:0:0:0:
352,192,62588,1,8,0:0:0:0:
256,348,62818,1,0,0:0:0:0:
256,36,63049,1,4,1:0:0:0:
256,192,63165,12,0,66742,0:0:0:0:
256,192,70434,5,0,1:0:0:0:
145,146,70665,2,0,L|157:96,2,50,0|0|8,0:0|0:0|0:0,0:0:0:0:
141,160,71011,1,0,0:0:0:0:
137,174,71126,2,0,L|125:222,1,50
54,244,71357,2,0,P|14:277|0:324,1,100,8|0,0:0|0:0,0:0:0:0:
148,381,71818,2,0,P|188:348|202:301,1,100,8|0,0:0|0:0,0:0:0:0:
256,192,72280,21,0,1:0:0:0:
368,291,72511,1,0,0:0:0:0:
382,295,72626,1,0,0:0:0:0:
396,299,72742,2,0,L|444:310,1,50,8|0,0:0|0:0,0:0:0:0:
459,214,72972,2,0,L|470:165,1,50
393,101,73203,2,0,P|365:59|320:37,1,100,8|0,0:0|0:0,0:0:0:0:
144,16,73665,2,0,P|172:58|217:80,1,100,8|0,0:0|0:0,0:0:0:0:
256,192,74126,5,0,1:0:0:0:
157,260,74357,1,0,0:0:0:0:
150,273,74472,1,0,0:0:0:0:
143,286,74588,1,8,0:0:0:0:
137,299,74703,2,0,L|112:343,2,50
49,289,75049,2,0,P|12:253|0:207,1,100,8|0,0:0|0:0,0:0:0:0:
84,60,75511,2,0,P|121:96|133:142,1,100,8|0,0:0|0:0,0:0:0:0:
256,192,75972,5,0,1:0:0:0:
325,323,76203,1,0,0:0:0:0:
346,176,76434,1,0,0:0:0:0:
243,282,76665,1,0,0:0:0:0:
389,257,76895,6,0,P|428:226|444:180,1,100,0|0,0:0|0:0,0:0:0:0:
331,35,77588,5,0,0:0:0:0:
315,35,77703,1,0,0:0:0:0:
300,35,77818,2,0,B|247:29|207:62,1,100,4|0,1:0|0:0,0:0:0:0:
8,157,78280,2,0,B|61:163|101:130,1,100,2|0,3:0|0:0,0:0:0:0:
150,193,78626,1,0,0:0:0:0:
150,193,78742,6,0,L|136:272,1,75
294,359,79203,5,2,3:0:0:0:
298,344,79318,1,0,0:0:0:0:
302,329,79434,1,0,0:0:0:0:
306,314,79549,1,0,0:0:0:0:
380,284,79665,22,0,P|428:269|452:229,1,100
493,89,80011,1,0,0:0:0:0:
493,89,80126,2,0,P|445:104|421:144,1,100,2|0,3:0|0:0,0:0:0:0:
315,97,80588,6,0,L|335:23,1,75,0|2,0:0|3:0,0:0:0:0:
225,51,81049,6,0,L|198:149,2,100,2|0|4,3:0|0:0|3:0,0:0:0:0:
89,118,81741,1,0,0:0:0:0:
83,137,81857,1,0,0:0:0:0:
79,156,81972,1,2,3:0:0:0:
14,257,82203,1,0,0:0:0:0:
92,347,82434,2,0,L|191:360,1,100
479,305,82895,1,2,3:0:0:0:
479,305,83126,22,0,L|280:277,1,200
294,61,83818,1,2,3:0:0:0:
288,75,83934,1,0,0:0:0:0:
282,89,84049,1,0,0:0:0:0:
276,103,84165,1,0,0:0:0:0:
270,117,84280,2,0,L|231:210,1,100
12,307,84741,1,0,0:0:0:0:
12,307,84972,2,0,L|51:214,1,100,0|4,0:0|1:0,0:0:0:0:
132,76,85434,5,2,0:0:0:0:
132,76,85665,1,8,0:0:0:0:
209,216,85895,1,2,0:0:0:0:
209,216,86126,1,8,0:0:0:0:
128,354,86357,1,2,0:0:0:0:
247,344,86588,2,0,L|346:362,1,100,8|2,0:0|0:0,0:0:0:0:
495,282,87049,6,0,L|396:264,1,100,8|2,0:0|0:0,0:0:0:0:
337,250,87395,1,0,0:0:0:0:
337,250,87511,1,8,0:0:0:0:
431,65,87741,1,2,0:0:0:0:
238,18,87972,2,0,L|278:115,1,100,8|2,0:0|0:0,0:0:0:0:
303,164,88318,1,0,0:0:0:0:
303,164,88434,1,8,0:0:0:0:
250,304,88665,1,2,0:0:0:0:
143,358,88895,22,0,L|44:358,1,100,8|2,0:0|0:0,0:0:0:0:
9,205,89357,1,8,0:0:0:0:
9,205,89588,2,0,L|109:205,1,100,2|8,0:0|0:0,0:0:0:0:
234,50,90049,1,2,0:0:0:0:
280,203,90280,1,8,0:0:0:0:
119,88,90511,1,2,0:0:0:0:
164,241,90742,6,0,L|143:313,1,75,4|0,1:0|0:0,0:0:0:0:
223,331,91203,6,0,L|255:221,1,112.500004291535,4|0,1:0|0:0,0:0:0:0:
345,202,91665,22,0,L|303:349,1,150,4|0,1:0|0:0,0:0:0:0:
383,367,92126,6,0,L|434:184,1,187.5,4|0,1:0|0:0,0:0:0:0:
256,32,92588,1,4,1:0:0:0:
464,32,92818,1,0,1:0:0:0:
256,32,93049,5,0,1:0:0:0:
464,32,93280,1,0,1:0:0:0:
256,32,93511,5,0,1:0:0:0:
352,184,93741,1,0,0:0:0:0:
379,219,93857,1,0,0:0:0:0:
406,254,93972,1,0,0:0:0:0:
292,357,94203,1,0,0:0:0:0:
265,322,94318,1,0,0:0:0:0:
238,287,94434,6,0,P|187:327|128:337,1,125,4|0,0:0|0:0,0:0:0:0:
55,320,94780,1,0,0:0:0:0:
23,252,94895,2,0,P|13:187|34:131,1,125,8|0,0:0|0:0,0:0:0:0:
258,23,95357,2,0,P|267:87|246:143,1,125,2|0,0:0|0:0,0:0:0:0:
280,209,95703,1,0,0:0:0:0:
346,243,95818,2,0,L|408:256,1,62.5,8|0,0:0|0:0,0:0:0:0:
476,343,96049,2,0,L|414:330,1,62.5
200,363,96280,6,0,P|135:372|79:351,1,125,2|0,0:0|0:0,0:0:0:0:
38,288,96626,1,0,0:0:0:0:
91,226,96741,2,0,P|155:216|211:237,1,125,8|0,0:0|0:0,0:0:0:0:
322,25,97203,2,0,P|362:75|372:135,1,125,2|0,0:0|0:0,0:0:0:0:
395,205,97549,1,0,0:0:0:0:
468,223,97665,2,0,L|492:162,1,62.5,8|0,0:0|0:0,0:0:0:0:
411,281,97895,2,0,L|388:339,1,62.5
192,312,98126,6,0,P|142:352|82:362,1,125,2|0,0:0|0:0,0:0:0:0:
45,296,98472,1,0,0:0:0:0:
72,225,98588,2,0,P|61:166|21:116,1,125,8|0,0:0|0:0,0:0:0:0:
231,12,99049,2,0,P|241:70|281:120,1,125,2|0,0:0|0:0,0:0:0:0:
349,153,99395,1,0,0:0:0:0:
423,144,99511,2,0,L|469:103,1,62.5,8|0,0:0|0:0,0:0:0:0:
488,242,99741,2,0,L|441:282,1,62.5
298,337,99972,6,0,P|234:331|179:357,1,125,2|0,0:0|0:0,0:0:0:0:
128,301,100318,1,0,0:0:0:0:
99,231,100434,2,0,P|53:276|56:332,1,125,8|0,0:0|0:0,0:0:0:0:
258,161,100895,2,0,P|195:145|170:95,1,125,2|0,0:0|0:0,0:0:0:0:
157,19,101241,1,0,0:0:0:0:
231,19,101357,2,0,L|293:5,1,62.5,8|0,0:0|0:0,0:0:0:0:
393,120,101588,2,0,L|446:153,1,62.5
492,297,101818,6,0,B|451:340|451:340|388:355,1,125,4|0,1:0|0:0,0:0:0:0:
20,87,102280,2,0,B|61:44|61:44|124:29,1,125,8|0,0:0|0:0,0:0:0:0:
256,192,102741,1,4,1:0:0:0:
123,250,102972,2,0,L|59:226,1,62.5
181,315,103203,2,0,L|192:382,1,62.5,8|0,0:0|0:0,0:0:0:0:
208,232,103434,2,0,L|260:188,1,62.5
492,87,103665,6,0,B|451:44|451:44|388:29,1,125,4|0,1:0|0:0,0:0:0:0:
20,297,104126,2,0,B|61:340|61:340|124:355,1,125,8|0,0:0|0:0,0:0:0:0:
256,192,104588,1,4,1:0:0:0:
447,155,104818,2,0,L|389:134,1,62.5
320,7,105049,2,0,L|331:69,1,62.5,8|0,0:0|0:0,0:0:0:0:
255,191,105280,2,0,L|304:152,1,62.5
96,312,105511,5,4,1:0:0:0:
24,72,105741,1,0,0:0:0:0:
86,297,105972,1,8,0:0:0:0:
35,52,106203,1,0,0:0:0:0:
77,282,106434,1,4,1:0:0:0:
344,336,106665,2,0,L|408:352,1,62.5
472,216,106895,2,0,L|488:152,1,62.5,8|0,0:0|0:0,0:0:0:0:
376,48,107126,2,0,L|312:32,1,62.5
112,48,107357,5,4,1:0:0:0:
41,286,107588,1,0,0:0:0:0:
280,357,107818,1,8,0:0:0:0:
350,118,108049,1,0,0:0:0:0:
32,160,108280,5,4,1:0:0:0:
149,378,108511,1,0,0:0:0:0:
369,259,108741,1,8,0:0:0:0:
249,40,108972,1,0,0:0:0:0:
192,208,109203,5,4,1:0:0:0:
472,144,109665,5,8,0:0:0:0:
368,208,109895,1,0,0:0:0:0:
359,322,110126,2,0,P|400:352|448:360,2,100,2|0|8,0:0|0:0|0:0,0:0:0:0:
368,208,110818,1,0,0:0:0:0:
264,264,111049,6,0,P|223:294|175:302,1,100,2|0,0:0|0:0,0:0:0:0:
57,263,111511,2,0,P|19:293|-1:340,2,100,8|0|2,0:0|0:0|0:0,0:0:0:0:
1,156,112203,1,0,0:0:0:0:
75,61,112434,1,8,0:0:0:0:
135,164,112665,1,0,0:0:0:0:
135,164,112780,1,0,0:0:0:0:
135,164,112895,1,2,0:0:0:0:
327,291,113126,5,0,0:0:0:0:
444,313,113357,2,0,P|478:275|490:227,2,100,8|0|2,0:0|0:0|0:0,0:0:0:0:
396,202,114049,1,0,0:0:0:0:
474,111,114280,2,0,P|436:77|388:65,1,100,8|0,0:0|0:0,0:0:0:0:
216,18,114741,6,0,B|214:75|177:111|177:111|131:113,1,150,2|0,0:0|0:0,0:0:0:0:
51,161,115203,2,0,P|32:96|82:40,1,150,8|0,0:0|0:0,0:0:0:0:
123,216,115665,2,0,B|96:289|96:289|33:328,1,150,2|0,0:0|0:0,0:0:0:0:
194,302,116126,2,0,B|221:229|221:229|284:190,1,150,8|0,0:0|0:0,0:0:0:0:
256,192,116588,12,0,117972,0:0:0:0:
189,250,118434,6,0,L|88:304,2,112.500004291535
256,192,119588,21,0,0:0:0:0:
256,168,119818,5,0,0:0:0:0:
256,144,120049,5,0,0:0:0:0:
323,250,120280,22,0,L|424:304,2,112.500004291535
256,312,121318,1,0,0:0:0:0:
184,360,121665,2,0,L|104:360,1,75.0000028610231
12,258,122126,6,0,B|12:218|12:218|0:184|0:184|0:144,2,112.500004291535
80,40,123280,2,0,L|80:120,2,75.0000028610231
200,8,123972,6,0,B|255:-2|255:-2|312:8,1,112.500004291535
458,97,124665,2,0,B|403:107|403:107|346:97,1,112.500004291535
287,192,125357,2,0,L|207:192,1,75.0000028610231,8|0,0:0|0:0,0:0:0:0:
81,178,125818,22,0,P|43:218|29:274,1,112.500004291535,8|0,0:0|0:0,0:0:0:0:
31,317,126280,1,8,0:0:0:0:
104,369,126511,1,0,0:0:0:0:
181,322,126741,1,8,0:0:0:0:
188,304,126857,1,0,0:0:0:0:
195,286,126972,1,0,0:0:0:0:
281,343,127203,2,0,P|316:355|353:355,1,75.0000028610231,8|0,0:0|0:0,0:0:0:0:
474,248,127665,6,0,P|501:200|505:142,1,112.500004291535,8|0,0:0|0:0,0:0:0:0:
500,99,128126,1,8,0:0:0:0:
327,4,128357,2,0,P|300:52|296:110,1,112.500004291535
303,152,128818,1,0,0:0:0:0:
303,242,129049,2,0,L|282:319,1,75.0000028610231,8|0,0:0|0:0,0:0:0:0:
192,309,129511,6,0,P|152:347|96:361,1,112.500004291535,8|0,0:0|0:0,0:0:0:0:
53,359,129972,1,8,0:0:0:0:
1,286,130203,1,0,0:0:0:0:
48,209,130434,1,8,0:0:0:0:
66,202,130549,1,0,0:0:0:0:
84,195,130665,1,0,0:0:0:0:
163,76,130895,2,0,L|92:100,1,75.0000028610231,8|0,0:0|0:0,0:0:0:0:
242,24,131357,22,0,P|287:57|342:69,1,112.500004291535,8|0,0:0|0:0,0:0:0:0:
386,74,131818,1,8,0:0:0:0:
498,175,132049,2,0,P|453:208|398:220,1,112.500004291535
353,219,132511,1,0,0:0:0:0:
304,296,132741,2,0,L|257:296,1,37.5000014305115,2|0,3:0|0:0,0:0:0:0:
360,368,132972,2,0,L|313:368,1,37.5000014305115,2|0,3:0|0:0,0:0:0:0:
207,346,133203,6,0,P|151:366|95:366,1,112.500004291535,4|0,0:0|0:0,0:0:0:0:
3,347,133665,2,0,P|36:329|72:328,1,75.0000028610231,8|0,0:0|0:0,0:0:0:0:
72,237,134126,1,0,0:0:0:0:
76,218,134241,1,0,0:0:0:0:
81,200,134357,1,0,0:0:0:0:
186,107,134588,2,0,L|167:180,1,75.0000028610231,8|0,0:0|0:0,0:0:0:0:
480,192,135049,6,0,P|416:192|392:256,1,112.500004291535
328,264,135511,1,8,0:0:0:0:
376,208,135741,2,0,P|280:208|256:280,1,150.000005722046
396,80,136434,2,0,L|423:7,1,75.0000028610231,8|0,0:0|0:0,0:0:0:0:
305,58,136895,22,0,P|260:82|199:85,1,112.500004291535,0|0,0:0|0:0,0:0:0:0:
61,119,137357,2,0,P|87:92|122:75,1,75.0000028610231,8|0,0:0|0:0,0:0:0:0:
106,201,137818,1,0,0:0:0:0:
16,269,138049,1,0,0:0:0:0:
83,359,138280,1,8,0:0:0:0:
172,290,138511,1,0,0:0:0:0:
336,352,138741,6,0,P|336:288|400:264,1,112.500004291535
408,200,139203,1,8,0:0:0:0:
352,248,139434,2,0,P|352:152|424:128,1,150.000005722046
277,20,140126,1,0,0:0:0:0:
268,36,140241,1,0,0:0:0:0:
259,52,140357,1,0,0:0:0:0:
250,68,140472,1,0,0:0:0:0:
242,85,140588,6,0,L|360:80,2,100,4|0|8,0:0|0:0|0:0,0:0:0:0:
144,112,141280,2,0,L|16:120,2,100,0|4|0,0:0|0:0|0:0,0:0:0:0:
144,152,141857,2,0,L|128:200,1,50,0|8,0:0|0:0,0:0:0:0:
152,288,142203,21,0,0:0:0:0:
168,288,142318,1,0,0:0:0:0:
184,288,142434,2,0,B|216:288|245:296|245:296|285:296,2,100,4|0|8,0:0|0:0|0:0,0:0:0:0:
452,364,143126,2,0,B|420:364|420:364|391:356|391:356|351:356,2,100,0|4|0,0:0|0:0|0:0,0:0:0:0:
482,337,143703,2,0,L|482:281,1,50,0|8,0:0|0:0,0:0:0:0:
471,67,144049,1,0,0:0:0:0:
384,168,144280,6,0,B|353:198|291:204|291:204|251:173,1,150,4|0,0:0|0:0,0:0:0:0:
257,149,144741,2,0,P|261:98|242:55,1,100,8|0,0:0|0:0,0:0:0:0:
172,219,145203,2,0,B|141:189|79:183|79:183|39:214,1,150,4|0,0:0|0:0,0:0:0:0:
38,237,145665,2,0,P|42:288|23:331,1,100,8|0,0:0|0:0,0:0:0:0:
289,369,146126,6,0,P|285:318|304:275,1,100,4|0,0:0|0:0,0:0:0:0:
407,336,146588,1,8,0:0:0:0:
407,336,146818,1,0,0:0:0:0:
469,233,147049,2,0,L|469:99,2,133.333333333333,4|0|0,1:0|1:0|1:0,0:0:0:0:
256,192,147972,21,4,0:0:0:0:
176,40,148203,1,0,0:0:0:0:
176,40,148318,1,0,0:0:0:0:
176,40,148434,2,0,P|159:85|121:121,1,100,8|0,0:0|0:0,0:0:0:0:
117,240,148895,2,0,P|79:270|28:282,2,100,4|0|8,0:0|0:0|0:0,0:0:0:0:
19,168,149588,1,0,0:0:0:0:
183,348,149818,6,0,L|282:348,1,100,4|0,0:0|0:0,0:0:0:0:
483,279,150280,2,0,L|384:279,1,100,8|0,0:0|0:0,0:0:0:0:
297,193,150741,1,4,0:0:0:0:
297,193,150972,1,0,0:0:0:0:
404,88,151203,2,0,P|363:57|314:44,1,100,8|0,0:0|0:0,0:0:0:0:
256,41,151549,1,0,0:0:0:0:
195,44,151665,2,0,P|149:57|108:88,1,100
256,276,152357,5,0,0:0:0:0:
256,286,152818,21,0,0:0:0:0:
256,295,153280,5,0,0:0:0:0:
256,305,153741,5,0,0:0:0:0:
256,315,154203,21,0,0:0:0:0:
256,325,154665,6,0,L|256:374,2,50
256,208,155126,6,0,L|256:128,1,75.0000028610231
216,64,155357,22,0,P|172:27|108:33,1,125,4|0,0:0|0:0,0:0:0:0:
66,96,155703,1,0,0:0:0:0:
47,168,155818,2,0,P|53:232|16:276,1,125,8|0,0:0|0:0,0:0:0:0:
225,373,156280,2,0,P|219:309|256:265,1,125,2|0,0:0|0:0,0:0:0:0:
329,248,156626,1,0,0:0:0:0:
378,304,156742,38,0,L|426:361,1,75.0000028610231,8|0,0:0|0:0,0:0:0:0:
496,192,156972,2,0,L|505:118,1,75.0000028610231,0|0,0:0|0:0,0:0:0:0:
367,33,157203,6,0,P|303:27|259:64,1,125,2|0,0:0|0:0,0:0:0:0:
183,70,157549,1,0,0:0:0:0:
136,129,157665,2,0,P|92:166|28:160,1,125,8|0,0:0|0:0,0:0:0:0:
233,363,158126,2,0,P|277:326|341:332,1,125,2|0,0:0|0:0,0:0:0:0:
414,316,158472,1,0,0:0:0:0:
456,189,158588,38,0,L|486:257,1,75.0000028610231,8|0,0:0|0:0,0:0:0:0:
376,79,158818,2,0,L|316:35,1,75.0000028610231
226,176,159049,6,0,P|182:213|118:207,1,125,2|0,0:0|0:0,0:0:0:0:
57,162,159395,1,0,0:0:0:0:
119,208,159511,2,0,P|129:264|91:317,1,125,8|0,0:0|0:0,0:0:0:0:
354,369,159972,2,0,P|406:331|463:341,1,125,2|0,0:0|0:0,0:0:0:0:
496,274,160318,1,0,0:0:0:0:
500,198,160434,38,0,L|507:120,1,75.0000028610231,8|0,0:0|0:0,0:0:0:0:
369,12,160665,2,0,L|362:90,1,75.0000028610231
299,215,160895,6,0,P|279:269|220:295,1,125,2|0,0:0|0:0,0:0:0:0:
114,204,161241,1,0,0:0:0:0:
114,204,161357,2,0,P|59:223|33:282,1,125,8|0,0:0|0:0,0:0:0:0:
275,366,161818,2,0,P|329:346|355:287,1,125,2|0,0:0|0:0,0:0:0:0:
415,240,162165,1,0,0:0:0:0:
484,267,162280,38,0,L|498:340,1,75.0000028610231,8|0,0:0|0:0,0:0:0:0:
459,132,162511,2,0,L|445:59,1,75.0000028610231
256,16,162741,5,4,1:0:0:0:
128,232,162972,1,0,0:0:0:0:
128,72,163203,1,8,0:0:0:0:
256,288,163434,1,0,0:0:0:0:
8,152,163665,1,4,1:0:0:0:
256,16,163895,38,0,L|331:31,1,75.0000028610231
481,144,164126,2,0,L|430:201,1,75.0000028610231,8|0,0:0|0:0,0:0:0:0:
273,351,164357,2,0,L|288:276,1,75.0000028610231
255,45,164588,5,4,1:0:0:0:
343,310,164818,1,0,0:0:0:0:
115,147,165049,1,8,0:0:0:0:
395,145,165280,1,0,0:0:0:0:
170,311,165511,1,4,1:0:0:0:
395,145,165742,38,0,L|430:76,1,75.0000028610231
486,269,165972,2,0,L|490:346,1,75.0000028610231,8|0,0:0|0:0,0:0:0:0:
292,263,166203,2,0,L|249:198,1,75.0000028610231
345,353,166434,5,4,1:0:0:0:
232,73,166665,1,0,0:0:0:0:
190,349,166895,1,8,0:0:0:0:
77,69,167126,1,0,0:0:0:0:
35,345,167357,1,4,1:0:0:0:
77,69,167588,38,0,L|141:28,1,75.0000028610231
95,242,167818,2,0,L|27:207,1,75.0000028610231,8|0,0:0|0:0,0:0:0:0:
278,152,168049,2,0,L|281:227,1,75.0000028610231
77,69,168280,5,4,1:0:0:0:
270,17,168511,1,0,0:0:0:0:
435,315,168742,1,8,0:0:0:0:
242,367,168972,1,0,0:0:0:0:
2,176,169203,5,4,1:0:0:0:
175,76,169434,1,0,0:0:0:0:
510,208,169665,1,8,0:0:0:0:
337,308,169895,5,0,0:0:0:0:
297,250,170011,1,0,0:0:0:0:
256,192,170126,1,4,1:0:0:0:
16,48,170588,22,0,P|16:96|40:144,1,100,8|0,0:0|0:0,0:0:0:0:
83,253,171049,2,0,P|59:294|14:324,2,100,2|0|8,0:0|0:0|0:0,0:0:0:0:
190,197,171742,1,0,0:0:0:0:
250,300,171972,6,0,P|288:331|338:340,1,100,2|0,0:0|0:0,0:0:0:0:
510,295,172434,2,0,P|472:264|422:255,1,100,8|0,0:0|0:0,0:0:0:0:
462,49,172895,1,2,0:0:0:0:
384,141,173126,1,0,0:0:0:0:
238,74,173357,1,8,0:0:0:0:
81,108,173588,1,0,0:0:0:0:
71,125,173703,1,0,0:0:0:0:
61,142,173818,1,2,0:0:0:0:
123,244,174049,6,0,L|70:332,2,100,0|8|0,0:0|0:0|0:0,0:0:0:0:
189,143,174742,2,0,L|242:55,2,100,2|0|8,0:0|0:0|0:0,0:0:0:0:
289,208,175434,1,0,0:0:0:0:
376,126,175665,22,0,B|421:110|421:110|442:129|461:165|462:211,1,150,2|0,0:0|0:0,0:0:0:0:
510,277,176126,2,0,P|435:286|385:235,1,150,8|0,0:0|0:0,0:0:0:0:
301,189,176588,2,0,B|304:261|304:261|253:320,1,150,2|0,0:0|0:0,0:0:0:0:
94,358,177049,2,0,L|193:245,1,150,8|0,0:0|0:0,0:0:0:0:
156,99,177511,5,2,0:0:0:0:
72,185,177742,1,0,0:0:0:0:
72,185,177857,1,0,0:0:0:0:
72,185,177972,2,0,L|4:259,1,100,8|0,0:0|0:0,0:0:0:0:
13,111,178434,2,0,L|80:36,1,100,2|0,0:0|0:0,0:0:0:0:
197,10,178895,1,8,0:0:0:0:
315,10,179126,1,0,0:0:0:0:
458,96,179357,6,0,B|472:161|472:161|461:219|414:228,1,150,2|0,0:0|0:0,0:0:0:0:
334,266,179818,2,0,P|326:192|375:141,1,150,8|0,0:0|0:0,0:0:0:0:
501,312,180280,2,0,B|446:354|446:354|365:354,1,150,2|0,0:0|0:0,0:0:0:0:
174,363,180742,2,0,P|240:328|248:256,1,150,8|0,0:0|0:0,0:0:0:0:
86,309,181203,21,4,0:0:0:0:
1,223,181434,1,0,0:0:0:0:
86,309,181665,2,0,L|152:228,1,100,0|0,1:0|0:0,0:0:0:0:
254,293,182126,5,8,0:0:0:0:
149,231,182357,1,0,0:0:0:0:
254,293,182588,2,0,L|297:190,1,110.000003356934,0|0,1:0|0:0,0:0:0:0:
413,234,183049,5,8,0:0:0:0:
295,201,183280,1,0,0:0:0:0:
413,234,183511,2,0,L|433:116,1,119.999996337891,0|0,1:0|0:0,0:0:0:0:
268,15,183972,5,8,0:0:0:0:
248,136,184203,1,0,0:0:0:0:
64,184,184434,2,0,L|82:56,1,129.999994049073,0|0,1:0|0:0,0:0:0:0:
160,336,184895,5,4,0:0:0:0:
40,336,185126,1,0,0:0:0:0:
160,336,185357,2,0,L|264:336,1,100,0|0,1:0|0:0,0:0:0:0:
352,232,185818,5,8,0:0:0:0:
472,232,186049,1,0,0:0:0:0:
352,232,186280,2,0,L|232:232,1,115.000002193451,0|0,1:0|0:0,0:0:0:0:
160,128,186742,21,8,0:0:0:0:
40,128,186972,1,0,0:0:0:0:
160,128,187203,2,0,L|296:128,1,129.999994049073,0|0,1:0|0:0,0:0:0:0:
352,24,187665,5,8,0:0:0:0:
464,192,187895,1,0,0:0:0:0:
352,24,188126,2,0,L|200:24,1,145.000004425049,0|0,1:0|0:0,0:0:0:0:
69,105,188588,5,4,0:0:0:0:
18,213,188818,1,0,0:0:0:0:
11,237,188934,1,0,0:0:0:0:
11,261,189049,2,0,P|19:314|50:352,1,100,8|0,0:0|0:0,0:0:0:0:
167,354,189511,1,4,0:0:0:0:
284,332,189742,1,0,0:0:0:0:
291,308,189857,1,0,0:0:0:0:
291,284,189972,2,0,P|283:231|252:193,1,100,8|0,0:0|0:0,0:0:0:0:
60,61,190434,22,0,P|95:88|148:96,1,100,4|0,0:0|0:0,0:0:0:0:
173,99,190780,1,0,0:0:0:0:
197,98,190895,1,8,0:0:0:0:
342,30,191126,1,0,0:0:0:0:
468,128,191357,2,0,P|460:181|432:216,1,100,4|0,0:0|0:0,0:0:0:0:
415,235,191703,1,0,0:0:0:0:
394,248,191818,1,8,0:0:0:0:
234,240,192049,1,0,0:0:0:0:
125,358,192280,5,4,0:0:0:0:
5,251,192511,1,0,0:0:0:0:
5,251,192626,1,0,0:0:0:0:
5,251,192742,1,8,0:0:0:0:
116,136,192972,1,0,0:0:0:0:
125,358,193203,5,4,0:0:0:0:
234,240,193434,1,0,0:0:0:0:
234,240,193549,1,0,0:0:0:0:
234,240,193665,1,8,0:0:0:0:
355,343,193895,1,0,0:0:0:0:
485,250,194126,5,4,0:0:0:0:
455,92,194357,1,0,0:0:0:0:
455,92,194472,1,0,0:0:0:0:
455,92,194588,1,8,0:0:0:0:
305,36,194818,1,0,0:0:0:0:
152,83,195049,21,4,0:0:0:0:
182,241,195280,1,0,0:0:0:0:
182,241,195395,1,0,0:0:0:0:
182,241,195511,1,8,0:0:0:0:
333,235,195742,6,0,L|305:278,1,50
179,149,196203,2,0,L|207:106,1,50
367,323,196665,6,0,L|339:366,1,50
145,61,197126,2,0,L|173:18,1,50
256,192,197588,6,0,L|228:235,1,50
