osu file format v12

[General]
AudioFilename: IA66.mp3
AudioLeadIn: 0
PreviewTime: 48041
Countdown: 0
SampleSet: Soft
StackLeniency: 0.7
Mode: 0
LetterboxInBreaks: 0

[Editor]
DistanceSpacing: 1.21
BeatDivisor: 4
GridSize: 8

[Metadata]
Title:Ifuudoudou
TitleUnicode:威風堂々
Artist:Umetora
ArtistUnicode:梅とら
Creator:Nymph
Version:Easy
Source:
Tags:goodbye eveless CHIE ILLUSTLATION DIVINE-DIVA IHUDODO If U Do Do Vocaloid Hatsune Miku Megurine Luka Megpoid Gumi IA Kagamine Rin Ruka
BeatmapID:233824
BeatmapSetID:84023

[Difficulty]
HPDrainRate:2
CircleSize:3
OverallDifficulty:2
ApproachRate:3
SliderMultiplier:0.899999999999999
SliderTickRate:1

[Events]
//Background and Video events
0,0,"555554444.jpg",0,0
Video,0,"tt.flv"
//Break Periods
2,63249,68994
2,118426,131763
2,151865,153917
//Storyboard Layer 0 (Background)
//Storyboard Layer 1 (Fail)
//Storyboard Layer 2 (Pass)
//Storyboard Layer 3 (Foreground)
//Storyboard Sound Samples
//Background Colour Transformations
3,100,163,162,255

[TimingPoints]
18742,461.538461538462,4,2,1,35,1,0
26242,-100,4,2,1,50,0,0
27972,-100,4,2,1,35,0,0
28088,-100,4,2,1,50,0,0
29818,-100,4,2,1,35,0,0
29934,-100,4,2,1,50,0,0
31665,-100,4,2,1,35,0,0
31780,-100,4,2,1,45,0,0
32126,-100,4,2,1,40,0,0
32357,-100,4,2,1,35,0,0
32588,-100,4,2,1,30,0,0
33049,-100,4,2,1,10,0,0
33511,-100,4,2,1,50,0,0
39165,-100,4,2,1,32,0,0
39972,-100,4,2,1,38,0,0
40434,-100,4,2,1,45,0,0
40895,-100,4,2,1,50,0,0
41818,-100,4,2,2,50,0,0
41934,-100,4,2,1,50,0,0
42626,-100,4,2,2,50,0,0
42857,-100,4,2,1,50,0,0
43665,-100,4,2,2,50,0,0
43780,-100,4,2,1,50,0,0
44588,-100,4,2,2,40,0,0
47934,-100,4,2,1,70,0,0
48280,-100,4,2,3,70,0,1
63049,-100,4,2,1,40,0,0
63511,-100,4,2,1,48,0,0
64434,-100,4,2,1,55,0,0
65357,-100,4,2,1,63,0,0
66280,-100,4,2,1,70,0,0
66742,-100,4,2,2,40,0,0
76203,-100,4,2,2,35,0,0
76434,-100,4,2,2,30,0,0
76665,-100,4,2,2,25,0,0
76895,-100,4,2,2,25,0,0
77588,-100,4,2,1,45,0,0
77818,-100,4,2,1,60,0,0
78280,-100,4,2,1,80,0,0
78395,-100,4,2,1,60,0,0
78742,-100,4,2,1,60,0,0
79203,-100,4,2,1,80,0,0
79318,-100,4,2,1,60,0,0
80126,-100,4,2,1,80,0,0
80242,-100,4,2,1,60,0,0
80472,-100,4,2,1,60,0,0
80934,-100,4,2,1,80,0,0
81049,-100,4,2,1,80,0,0
81165,-100,4,2,1,60,0,0
81972,-100,4,2,1,80,0,0
82088,-100,4,2,1,60,0,0
82895,-100,4,2,1,80,0,0
83011,-100,4,2,1,60,0,0
83818,-100,4,2,1,80,0,0
83934,-100,4,2,1,60,0,0
85203,-100,4,2,2,60,0,0
85665,-100,4,2,1,60,0,0
85780,-100,4,2,2,60,0,0
86588,-100,4,2,1,60,0,0
86703,-100,4,2,2,60,0,0
87511,-100,4,2,1,60,0,0
87626,-100,4,2,2,60,0,0
88434,-100,4,2,1,60,0,0
88549,-100,4,2,2,60,0,0
89357,-100,4,2,1,60,0,0
89472,-100,4,2,2,60,0,0
90280,-100,4,2,1,60,0,0
90395,-100,4,2,2,60,0,0
90742,-100,4,2,1,40,0,0
91088,-100,4,2,1,5,0,0
91203,-100,4,2,1,50,0,0
91549,-100,4,2,1,5,0,0
91665,-100,4,2,1,60,0,0
92011,-100,4,2,1,5,0,0
92126,-100,4,2,1,70,0,0
92472,-100,4,2,1,5,0,0
92588,-100,4,2,1,50,0,0
94434,-100,4,2,3,70,0,1
109203,-100,4,2,4,70,0,0
116588,-100,4,2,1,40,0,0
117972,-100,4,2,1,5,0,0
118434,-100,4,2,1,30,0,0
125357,-100,4,2,2,30,0,0
125818,-100,4,2,2,40,0,0
132742,-100,4,2,2,55,0,0
133203,-100,4,2,0,70,0,0
140588,-100,4,2,4,65,0,0
147049,-100,4,2,4,50,0,0
147972,-100,4,2,4,65,0,0
155126,-100,4,2,4,65,0,0
155357,-100,4,2,3,75,0,1
156742,-100,4,2,3,75,0,1
157203,-100,4,2,3,75,0,1
158588,-100,4,2,3,75,0,1
159049,-100,4,2,3,75,0,1
160434,-100,4,2,3,75,0,1
160895,-100,4,2,3,75,0,1
162280,-100,4,2,3,75,0,1
162742,-100,4,2,3,75,0,1
163895,-100,4,2,3,75,0,1
164588,-100,4,2,3,75,0,1
165742,-100,4,2,3,75,0,1
166434,-100,4,2,3,75,0,1
167588,-100,4,2,3,75,0,1
168280,-100,4,2,3,75,0,1
170126,-100,4,2,4,75,0,0
181203,-100,4,2,4,75,0,0
182126,-100,4,2,4,85,0,0
183049,-100,4,2,4,92,0,0
183972,-100,4,2,4,100,0,0
184895,-100,4,2,4,75,0,0
185818,-100,4,2,4,85,0,0
186742,-100,4,2,4,92,0,0
187665,-100,4,2,4,100,0,0
188588,-100,4,2,3,75,0,0
195742,-100,4,2,4,10,0,0

[Colours]
Combo1 : 255,205,155
Combo2 : 209,164,255
Combo3 : 157,206,255
Combo4 : 255,202,255
Combo5 : 113,255,184
Combo6 : 255,113,113

[HitObjects]
224,64,26126,2,0,P|187:144|103:168,1,180,0|0,1:0|0:0,0:0:0:0:
25,242,27511,1,0,0:0:0:0:
101,318,27972,2,0,B|166:319|166:319|213:337|213:337|278:337,1,180,0|0,1:0|0:0,0:0:0:0:
384,356,29357,1,0,0:0:0:0:
487,326,29818,6,0,P|498:242|424:194,1,180,0|0,1:0|0:0,0:0:0:0:
323,160,31203,1,0,0:0:0:0:
411,97,31665,2,0,L|473:28,2,89.9999999999999
195,99,33511,6,0,P|181:143|150:176,1,89.9999999999999,0|0,1:0|0:0,0:0:0:0:
47,203,34434,2,0,P|61:247|92:280,1,89.9999999999999
165,356,35357,1,0,1:0:0:0:
251,291,35818,1,0,0:0:0:0:
339,353,36280,2,0,P|385:360|429:353,1,89.9999999999999
490,265,37203,6,0,L|508:172,2,89.9999999999999,0|0|0,1:0|0:0|0:0,0:0:0:0:
416,184,38588,2,0,L|434:91,2,89.9999999999999,0|0|0,0:0|1:0|0:0,0:0:0:0:
312,152,39972,1,0,0:0:0:0:
256,64,40434,1,0,0:0:0:0:
208,160,40895,6,0,P|193:201|155:232,1,89.9999999999999,4|8,0:0|0:0,0:0:0:0:
56,270,41818,2,0,P|21:299|6:340,2,89.9999999999999,2|8|2,0:0|0:0|0:0,0:0:0:0:
14,170,43203,1,8,0:0:0:0:
119,147,43665,2,0,P|104:106|69:76,2,89.9999999999999,2|8|2,0:0|0:0|0:0,0:0:0:0:
209,87,45049,1,8,0:0:0:0:
308,129,45511,2,0,L|400:129,1,89.9999999999999,0|8,0:0|0:0,0:0:0:0:
256,192,46434,12,0,47818,0:0:0:0:
256,259,48280,6,0,L|226:348,1,89.9999999999999,4|8,0:0|0:0,0:0:0:0:
127,303,49203,2,0,L|56:365,1,89.9999999999999,0|8,0:0|0:0,0:0:0:0:
15,263,50126,1,0,0:0:0:0:
15,154,50588,1,8,0:0:0:0:
113,109,51049,2,0,P|87:70|47:51,2,89.9999999999999,0|8|0,0:0|0:0|0:0,0:0:0:0:
210,61,52434,5,8,0:0:0:0:
308,104,52895,2,0,P|354:111|398:105,1,89.9999999999999,0|8,0:0|0:0,0:0:0:0:
475,179,53818,2,0,L|433:265,1,89.9999999999999,0|8,0:0|0:0,0:0:0:0:
327,263,54742,2,0,L|285:349,1,89.9999999999999,0|8,0:0|0:0,0:0:0:0:
180,357,55665,6,0,P|91:337|40:266,1,180,4|4,1:0|0:0,0:0:0:0:
37,160,57049,1,8,0:0:0:0:
129,104,57511,2,0,P|218:124|269:195,1,180,4|4,1:0|0:0,0:0:0:0:
312,290,58895,1,8,0:0:0:0:
397,356,59357,6,0,B|452:342|472:288|448:240|448:240|456:208,1,180,4|4,1:0|0:0,0:0:0:0:
470,101,60742,1,8,0:0:0:0:
368,63,61203,2,0,L|274:38,1,89.9999999999999,4|8,1:0|0:0,0:0:0:0:
233,136,62126,2,0,L|147:165,1,89.9999999999999,4|8,0:0|0:0,0:0:0:0:
48,207,63049,1,4,0:0:0:0:
119,81,70434,6,0,L|64:164,1,89.9999999999999,0|0,1:0|0:0,0:0:0:0:
169,197,71357,2,0,L|224:280,1,89.9999999999999
291,352,72280,1,0,1:0:0:0:
399,354,72742,1,0,0:0:0:0:
492,299,73203,2,0,L|509:211,1,89.9999999999999
420,148,74126,6,0,L|437:60,2,89.9999999999999,0|0|0,1:0|0:0|0:0,0:0:0:0:
325,95,75511,1,0,0:0:0:0:
241,162,75972,2,0,L|142:162,1,89.9999999999999,0|0,1:0|0:0,0:0:0:0:
106,260,76895,2,0,L|7:260,2,89.9999999999999,0|0|4,0:0|0:0|0:0,0:0:0:0:
187,330,78280,6,0,P|271:358|359:329,1,180,2|2,3:0|3:0,0:0:0:0:
342,224,79665,1,0,0:0:0:0:
447,248,80126,2,0,P|475:164|446:76,1,180,2|2,3:0|3:0,0:0:0:0:
345,45,81511,6,0,L|255:7,1,89.9999999999999,0|2,0:0|3:0,0:0:0:0:
194,94,82434,2,0,L|104:56,2,89.9999999999999,0|2|0,0:0|3:0|0:0,0:0:0:0:
256,182,83818,1,2,3:0:0:0:
256,290,84280,2,0,L|256:380,2,89.9999999999999,0|0|4,0:0|0:0|0:0,0:0:0:0:
256,182,85665,5,8,0:0:0:0:
181,104,86126,1,2,0:0:0:0:
256,26,86588,1,8,0:0:0:0:
331,104,87049,6,0,L|424:104,1,89.9999999999999,2|8,0:0|0:0,0:0:0:0:
410,211,87972,2,0,L|503:211,2,89.9999999999999,2|8|2,0:0|0:0|0:0,0:0:0:0:
369,311,89357,1,8,0:0:0:0:
267,347,89818,2,0,L|174:347,1,89.9999999999999,2|8,0:0|0:0,0:0:0:0:
68,347,90741,5,0,1:0:0:0:
127,257,91203,1,0,1:0:0:0:
54,177,91665,1,0,1:0:0:0:
113,87,92126,1,0,1:0:0:0:
221,87,92588,2,0,L|271:87,4,45,0|0|0|0|0,1:0|0:0|0:0|0:0|0:0,0:0:0:0:
498,96,94434,5,4,0:0:0:0:
407,154,94895,1,8,0:0:0:0:
481,232,95357,2,0,L|444:313,1,89.9999999999999,0|8,0:0|0:0,0:0:0:0:
356,250,96280,1,0,0:0:0:0:
341,356,96741,1,8,0:0:0:0:
248,297,97203,2,0,L|175:348,1,89.9999999999999,0|8,0:0|0:0,0:0:0:0:
66,345,98126,5,0,0:0:0:0:
134,261,98588,1,8,0:0:0:0:
200,176,99049,2,0,L|148:103,1,89.9999999999999,0|8,0:0|0:0,0:0:0:0:
216,16,99972,2,0,L|267:88,1,89.9999999999999,0|8,0:0|0:0,0:0:0:0:
376,104,100895,2,0,L|427:176,1,89.9999999999999,0|8,0:0|0:0,0:0:0:0:
487,267,101818,6,0,P|448:345|362:357,1,180,4|4,1:0|0:0,0:0:0:0:
257,334,103203,1,8,0:0:0:0:
150,357,103665,2,0,P|64:345|25:267,1,180,4|4,1:0|0:0,0:0:0:0:
102,192,105049,1,8,0:0:0:0:
25,117,105511,6,0,P|64:39|150:27,1,180,4|4,1:0|0:0,0:0:0:0:
256,38,106895,1,8,0:0:0:0:
363,26,107357,2,0,L|453:50,1,89.9999999999999,4|8,1:0|0:0,0:0:0:0:
413,150,108280,2,0,L|503:174,2,89.9999999999999,4|8|4,0:0|0:0|0:0,0:0:0:0:
312,189,109665,5,8,0:0:0:0:
337,293,110126,2,0,P|314:336|282:362,1,89.9999999999999,0|8,0:0|0:0,0:0:0:0:
179,330,111049,2,0,P|138:336|96:362,2,89.9999999999999,0|8|0,0:0|0:0|0:0,0:0:0:0:
112,244,112434,1,8,0:0:0:0:
16,194,112895,6,0,P|20:149|43:110,1,89.9999999999999,0|8,0:0|0:0,0:0:0:0:
78,9,113818,2,0,P|116:30|142:67,1,89.9999999999999,0|8,0:0|0:0,0:0:0:0:
239,115,114741,5,0,0:0:0:0:
336,69,115203,1,8,0:0:0:0:
384,165,115665,1,0,0:0:0:0:
481,119,116126,1,8,0:0:0:0:
256,192,116588,12,0,117972,0:0:0:0:
125,82,133203,5,4,0:0:0:0:
68,174,133665,1,8,0:0:0:0:
147,247,134126,2,0,B|125:287|125:287|84:305,2,89.9999999999999,0|8|0,0:0|0:0|0:0,0:0:0:0:
240,192,135511,2,0,L|343:207,1,89.9999999999999,8|0,0:0|0:0,0:0:0:0:
312,311,136434,2,0,L|415:326,1,89.9999999999999,8|0,0:0|0:0,0:0:0:0:
497,275,137357,5,8,0:0:0:0:
445,180,137818,1,0,0:0:0:0:
365,107,138280,2,0,L|387:13,2,89.9999999999999,8|0|8,0:0|0:0|0:0,0:0:0:0:
271,52,139665,1,0,0:0:0:0:
170,92,140126,2,0,L|70:92,1,89.9999999999999,8|4,0:0|0:0,0:0:0:0:
33,189,141049,5,8,0:0:0:0:
119,253,141511,2,0,P|101:294|68:325,1,89.9999999999999,4|8,0:0|0:0,0:0:0:0:
169,363,142434,1,4,0:0:0:0:
226,271,142895,1,8,0:0:0:0:
311,336,143357,2,0,P|349:359|393:366,1,89.9999999999999,4|8,0:0|0:0,0:0:0:0:
484,309,144280,6,0,P|498:266|486:223,1,89.9999999999999,4|8,0:0|0:0,0:0:0:0:
424,135,145203,2,0,P|410:92|421:49,1,89.9999999999999,4|8,0:0|0:0,0:0:0:0:
316,22,146126,2,0,P|273:36|230:24,2,89.9999999999999,4|8|0,0:0|0:0|0:0,0:0:0:0:
171,182,147972,6,0,L|129:274,1,89.9999999999999,4|8,0:0|0:0,0:0:0:0:
33,222,148895,1,4,0:0:0:0:
46,329,149357,1,8,0:0:0:0:
146,367,149818,2,0,L|239:376,1,89.9999999999999,4|8,0:0|0:0,0:0:0:0:
325,315,150741,2,0,L|418:324,1,89.9999999999999,4|8,0:0|0:0,0:0:0:0:
500,258,151665,1,0,0:0:0:0:
256,55,155357,5,4,0:0:0:0:
256,162,155818,1,8,0:0:0:0:
256,270,156280,2,0,L|208:346,1,89.9999999999999,0|8,0:0|0:0,0:0:0:0:
141,260,157203,5,0,0:0:0:0:
53,323,157665,1,8,0:0:0:0:
47,215,158126,2,0,L|-1:139,1,89.9999999999999,0|8,0:0|0:0,0:0:0:0:
58,48,159049,5,0,0:0:0:0:
164,28,159511,1,8,0:0:0:0:
258,80,159972,2,0,L|306:156,1,89.9999999999999,0|8,0:0|0:0,0:0:0:0:
413,170,160895,6,0,L|461:246,1,89.9999999999999,0|8,0:0|0:0,0:0:0:0:
398,334,161818,2,0,L|350:258,1,89.9999999999999,0|8,0:0|0:0,0:0:0:0:
280,341,162741,6,0,B|211:341|211:341|174:318|174:318|107:318,1,180,4|4,1:0|0:0,0:0:0:0:
31,240,164126,1,8,0:0:0:0:
104,160,164588,2,0,B|173:160|173:160|210:183|210:183|277:183,1,180,4|4,1:0|0:0,0:0:0:0:
362,116,165972,1,8,0:0:0:0:
322,15,166434,6,0,P|409:12|468:78,1,180,4|4,1:0|0:0,0:0:0:0:
480,183,167818,1,8,0:0:0:0:
477,291,168280,2,0,L|414:369,1,89.9999999999999,4|8,1:0|0:0,0:0:0:0:
322,314,169203,2,0,L|228:350,1,89.9999999999999,4|8,0:0|0:0,0:0:0:0:
131,367,170126,5,4,0:0:0:0:
102,262,170588,2,0,P|87:218|50:187,1,89.9999999999999,8|0,0:0|0:0,0:0:0:0:
114,99,171511,2,0,P|79:68|31:60,2,89.9999999999999,8|0|8,0:0|0:0|0:0,0:0:0:0:
221,90,172895,2,0,L|314:52,1,89.9999999999999,0|8,0:0|0:0,0:0:0:0:
409,32,173818,5,0,0:0:0:0:
490,102,174280,2,0,P|489:151|465:191,1,89.9999999999999,8|0,0:0|0:0,0:0:0:0:
366,219,175203,1,8,0:0:0:0:
447,289,175665,6,0,L|516:356,1,89.9999999999999,0|8,0:0|0:0,0:0:0:0:
405,371,176588,2,0,L|340:308,1,89.9999999999999,0|8,0:0|0:0,0:0:0:0:
256,239,177511,6,0,L|256:136,1,89.9999999999999,0|8,0:0|0:0,0:0:0:0:
195,59,178434,1,0,0:0:0:0:
87,59,178895,1,8,0:0:0:0:
41,157,179357,6,0,L|6:239,1,89.9999999999999,0|8,0:0|0:0,0:0:0:0:
100,292,180280,2,0,L|65:374,2,89.9999999999999,0|8|4,0:0|0:0|0:0,0:0:0:0:
179,218,181665,5,0,1:0:0:0:
225,315,182126,2,0,L|310:351,1,89.9999999999999,0|0,0:0|1:0,0:0:0:0:
369,261,183049,2,0,L|460:249,1,89.9999999999999,0|0,0:0|1:0,0:0:0:0:
415,150,183972,2,0,L|488:94,1,89.9999999999999,0|0,0:0|1:0,0:0:0:0:
393,41,184895,5,4,0:0:0:0:
284,36,185357,1,0,1:0:0:0:
213,117,185818,2,0,L|128:81,1,89.9999999999999,0|0,0:0|1:0,0:0:0:0:
112,188,186742,2,0,L|20:199,1,89.9999999999999,0|0,0:0|1:0,0:0:0:0:
77,292,187665,2,0,L|3:347,2,89.9999999999999,0|0|4,0:0|1:0|0:0,0:0:0:0:
159,362,189049,5,8,0:0:0:0:
267,364,189511,2,0,L|362:376,1,89.9999999999999,4|8,0:0|0:0,0:0:0:0:
460,347,190434,1,4,0:0:0:0:
497,245,190895,1,8,0:0:0:0:
450,147,191357,2,0,L|355:135,1,89.9999999999999,4|8,0:0|0:0,0:0:0:0:
290,53,192280,5,4,0:0:0:0:
253,154,192742,1,8,0:0:0:0:
210,253,193203,2,0,L|198:342,2,89.9999999999999,4|8|4,0:0|0:0|0:0,0:0:0:0:
102,243,194588,1,8,0:0:0:0:
134,140,195049,2,0,L|145:50,2,89.9999999999999,4|8|0,0:0|0:0|0:0,0:0:0:0:
256,192,196088,12,0,197703,0:0:0:0:
