osu file format v12

[General]
AudioFilename: paranoia .mp3
AudioLeadIn: 300
PreviewTime: 52107
Countdown: 0
SampleSet: Soft
StackLeniency: 0.7
Mode: 0
LetterboxInBreaks: 1
WidescreenStoryboard: 0

[Editor]
DistanceSpacing: 0.8
BeatDivisor: 4
GridSize: 4
TimelineZoom: 1

[Metadata]
Title:paranoia
TitleUnicode:paranoia
Artist:Umeri
ArtistUnicode:梅里
Creator:captin1
Version:Insane
Source:
Tags:Hatsune Miku vocaloid utaite cover Tsunamaru MezameP Tiara
BeatmapID:372170
BeatmapSetID:150914

[Difficulty]
HPDrainRate:6
CircleSize:4
OverallDifficulty:8
ApproachRate:9
SliderMultiplier:1.8
SliderTickRate:1

[Events]
//Background and Video events
0,0,"39498621.jpg",0,0
//Break Periods
2,77107,88907
2,166507,168107
//Storyboard Layer 0 (Background)
//Storyboard Layer 1 (Fail)
//Storyboard Layer 2 (Pass)
//Storyboard Layer 3 (Foreground)
//Storyboard Sound Samples
//Background Colour Transformations
3,100,163,162,255

[TimingPoints]
1707,400,4,2,2,40,1,0
1707,-166.666666666667,4,2,2,40,0,0
7307,-142.857142857143,4,2,2,40,0,0
7707,-125,4,2,2,40,0,0
8107,-111.111111111111,4,2,2,50,0,0
13707,-111.111111111111,4,2,2,30,0,0
14507,-100,4,2,1,50,0,0
27307,-100,4,2,2,50,0,0
38907,-100,4,2,1,60,0,0
52907,-100,4,2,1,65,0,1
76907,-100,4,2,1,60,0,0
115307,-100,4,2,1,65,0,1
140907,-133.333333333333,4,2,1,60,0,0
163407,-133.333333333333,4,2,1,5,0,0
168907,-133.333333333333,4,2,1,50,0,0
172907,-100,4,2,1,60,0,0
177107,-100,4,2,1,40,0,0
177707,-100,4,2,1,70,0,1
184107,-100,4,2,1,70,0,0
190907,-100,4,2,1,70,0,1
203307,-100,4,2,1,70,0,0

[Colours]
Combo1 : 192,192,192
Combo2 : 0,210,210
Combo3 : 18,124,255

[HitObjects]
136,184,1707,6,0,P|148:216|144:256,1,53.9999983520508,2|0,0:0|0:0,0:0:0:0:
232,188,2107,1,0,0:0:0:0:
358,153,2507,2,0,P|374:175|396:192,1,53.9999983520508,2|0,0:0|0:0,0:0:0:0:
384,288,2907,1,0,0:0:0:0:
280,152,3307,6,0,P|288:120|304:96,1,53.9999983520508,2|0,0:0|0:0,0:0:0:0:
232,32,3707,1,0,0:0:0:0:
160,168,4107,2,0,P|144:204|144:232,1,53.9999983520508,2|0,0:0|0:0,0:0:0:0:
48,216,4507,1,0,0:0:0:0:
252,176,4907,6,0,P|236:204|216:224,1,53.9999983520508,2|0,0:0|0:0,0:0:0:0:
140,272,5307,1,0,0:0:0:0:
292,312,5707,2,0,P|308:284|340:260,1,53.9999983520508,2|0,0:0|0:0,0:0:0:0:
284,184,6107,1,0,0:0:0:0:
386,103,6507,6,0,L|372:52,2,53.9999983520508,2|0|0,0:0|0:0|0:0,0:0:0:0:
296,268,7107,1,0,0:0:0:0:
152,192,7307,2,0,L|92:132,1,62.9999980773926,2|0,0:0|0:0,0:0:0:0:
184,304,7707,2,0,L|184:384,1,72,2|0,0:0|0:0,0:0:0:0:
344,348,8107,5,10,0:0:0:0:
356,344,8207,1,0,0:0:0:0:
368,340,8307,1,0,0:0:0:0:
380,336,8407,1,0,0:0:0:0:
392,332,8507,2,0,P|436:304|452:260,1,80.9999975280763,8|0,0:0|0:0,0:0:0:0:
372,160,8907,1,10,0:0:0:0:
360,168,9007,1,0,0:0:0:0:
348,176,9107,1,0,0:0:0:0:
336,184,9207,1,0,0:0:0:0:
324,192,9307,2,0,P|268:216|244:216,1,80.9999975280763,8|0,0:0|0:0,0:0:0:0:
120,120,9707,6,0,P|164:136|192:164,1,80.9999975280763,10|0,0:0|0:0,0:0:0:0:
176,296,10107,1,10,0:0:0:0:
164,300,10207,1,0,0:0:0:0:
152,304,10307,1,0,0:0:0:0:
140,308,10407,1,0,0:0:0:0:
128,312,10507,2,0,P|72:316|40:304,1,80.9999975280763,10|0,0:0|0:0,0:0:0:0:
48,160,10907,2,0,P|80:188|96:232,1,80.9999975280763,8|0,0:0|0:0,0:0:0:0:
236,356,11307,6,0,P|248:312|300:264,1,80.9999975280763,10|0,0:0|0:0,0:0:0:0:
164,228,11707,2,0,P|136:192|120:140,1,80.9999975280763,8|0,0:0|0:0,0:0:0:0:
308,168,12107,2,0,P|352:172|404:156,1,80.9999975280763,10|0,0:0|0:0,0:0:0:0:
216,72,12507,2,0,P|176:68|120:84,1,80.9999975280763,10|0,0:0|0:0,0:0:0:0:
300,344,12907,6,0,P|293:304|301:264,1,80.9999975280763,10|0,0:0|0:0,0:0:0:0:
208,112,13307,2,0,P|216:68|208:28,1,80.9999975280763,10|0,0:0|0:0,0:0:0:0:
224,220,13707,2,8,L|212:236,3,20.2499993820191
256,172,13907,2,8,L|256:136,3,20.2499993820191
288,220,14107,2,8,L|299:236,4,20.2499993820191
136,336,14507,5,6,0:0:0:0:
32,168,14707,2,0,L|72:128,1,45
156,160,14907,2,0,L|160:104,1,45,8|0,0:0|0:0,0:0:0:0:
208,32,15107,1,0,0:0:0:0:
220,36,15207,1,0,0:0:0:0:
232,40,15307,1,2,0:0:0:0:
304,220,15507,1,0,0:0:0:0:
212,292,15707,2,0,P|164:268|140:228,1,90,8|0,0:0|0:0,0:0:0:0:
140,224,16007,1,0,0:0:0:0:
140,212,16107,5,2,0:0:0:0:
288,152,16307,1,0,0:0:0:0:
88,132,16507,1,8,0:0:0:0:
228,212,16707,1,0,0:0:0:0:
240,216,16807,1,0,0:0:0:0:
252,220,16907,2,0,P|296:248|316:280,1,90,2|0,0:0|0:0,0:0:0:0:
472,200,17307,1,8,0:0:0:0:
400,96,17507,1,0,0:0:0:0:
388,100,17607,1,0,0:0:0:0:
376,104,17707,6,0,P|308:108|272:88,1,90,2|0,0:0|0:0,0:0:0:0:
112,228,18107,1,8,0:0:0:0:
244,328,18307,1,0,0:0:0:0:
256,324,18407,1,0,0:0:0:0:
268,320,18507,1,2,0:0:0:0:
240,192,18707,1,0,0:0:0:0:
144,320,18907,1,8,0:0:0:0:
312,248,19107,1,0,0:0:0:0:
160,144,19307,6,0,P|124:116|104:68,1,90,2|0,0:0|0:0,0:0:0:0:
316,136,19707,1,8,0:0:0:0:
112,228,19907,2,0,L|64:196,1,45
36,112,20107,1,2,0:0:0:0:
240,192,20307,2,0,L|251:248,1,45
204,324,20507,1,8,0:0:0:0:
356,328,20707,1,8,0:0:0:0:
356,328,20807,1,8,0:0:0:0:
356,328,20907,6,0,P|404:312|448:320,1,90,6|2,0:0|0:0,0:0:0:0:
452,148,21307,2,0,P|428:200|312:220,1,180,8|2,0:0|0:0,0:0:0:0:
196,232,21807,2,0,P|236:272|244:320,1,90,8|0,0:0|0:0,0:0:0:0:
316,256,22107,1,8,0:0:0:0:
256,128,22307,1,8,0:0:0:0:
244,124,22407,1,8,0:0:0:0:
232,120,22507,6,0,P|188:96|168:56,1,90,2|2,0:0|0:0,0:0:0:0:
112,164,22907,2,0,P|112:220|12:280,1,180,8|2,0:0|0:0,0:0:0:0:
108,360,23407,2,0,P|146:319|192:308,1,90,8|0,0:0|0:0,0:0:0:0:
192,224,23707,1,8,0:0:0:0:
40,96,23907,1,8,0:0:0:0:
32,108,24007,1,8,0:0:0:0:
24,120,24107,6,0,P|16:176|36:228,1,90,6|2,0:0|0:0,0:0:0:0:
208,288,24507,2,0,L|232:328,1,45,8|0,0:0|0:0,0:0:0:0:
308,276,24707,2,0,L|356:300,1,45
420,240,24907,2,0,P|468:240|508:212,1,90,2|0,0:0|0:0,0:0:0:0:
360,96,25307,2,0,P|344:144|356:192,1,90,8|0,0:0|0:0,0:0:0:0:
140,224,25707,6,0,P|96:240|64:280,1,90,2|0,0:0|0:0,0:0:0:0:
228,64,26107,2,0,L|272:24,1,45,12|0,0:0|0:0,0:0:0:0:
228,156,26307,2,0,L|272:136,1,45,8|8,0:0|0:0,0:0:0:0:
288,260,26507,1,2,0:0:0:0:
300,264,26607,1,8,0:0:0:0:
312,268,26707,2,0,L|380:288,1,45,0|2,0:0|0:0,0:0:0:0:
480,280,26907,2,0,P|476:230|440:192,1,90,8|0,0:0|0:0,0:0:0:0:
312,268,27307,5,12,0:0:0:0:
196,332,27507,1,0,0:0:0:0:
96,256,27707,2,0,P|96:204|60:148,1,90,8|0,0:0|0:0,0:0:0:0:
184,24,28107,2,0,P|164:76|180:132,1,90,10|0,0:0|0:0,0:0:0:0:
264,164,28507,1,8,0:0:0:0:
144,228,28707,1,0,0:0:0:0:
304,252,28907,6,0,P|344:220|360:168,1,90,8|0,0:0|0:0,0:0:0:0:
248,64,29307,1,8,0:0:0:0:
227,241,29507,1,0,0:0:0:0:
336,88,29707,2,0,P|320:128|264:156,1,90,10|0,0:0|0:0,0:0:0:0:
240,56,30107,1,8,0:0:0:0:
388,172,30307,1,0,0:0:0:0:
144,228,30507,6,0,P|116:180|121:130,1,90,8|0,0:0|0:0,0:0:0:0:
236,244,30907,1,8,0:0:0:0:
304,348,31107,1,0,0:0:0:0:
256,152,31307,2,0,P|228:116|168:96,1,90,10|0,0:0|0:0,0:0:0:0:
56,176,31707,1,8,0:0:0:0:
160,92,31907,1,0,0:0:0:0:
60,220,32107,6,0,P|84:268|124:288,1,90,8|0,0:0|0:0,0:0:0:0:
244,76,32507,2,0,P|220:28|180:8,1,90,8|0,0:0|0:0,0:0:0:0:
220,260,32907,2,0,B|256:292|306:282|306:282|288:298|281:320,1,135,8|0,0:0|0:0,0:0:0:0:
272,352,33307,2,0,P|312:276|364:252,1,135,8|0,0:0|0:0,0:0:0:0:
368,348,33707,5,12,0:0:0:0:
156,328,33907,1,0,0:0:0:0:
303,181,34107,2,0,P|336:212|352:253,1,90,8|0,0:0|0:0,0:0:0:0:
188,212,34507,2,0,P|172:152|216:72,1,135,10|0,0:0|0:0,0:0:0:0:
232,68,34907,1,8,0:0:0:0:
80,144,35107,1,0,0:0:0:0:
312,104,35307,6,0,P|360:88|404:16,1,135,8|0,0:0|0:0,0:0:0:0:
484,44,35707,2,0,P|464:88|476:144,1,90,8|0,0:0|0:0,0:0:0:0:
352,328,36107,2,0,P|304:324|255:277,1,90,10|0,0:0|0:0,0:0:0:0:
164,120,36507,1,8,0:0:0:0:
312,104,36707,1,0,0:0:0:0:
144,212,36907,6,0,P|96:188|76:140,1,90,8|0,0:0|0:0,0:0:0:0:
260,24,37307,2,0,P|308:8|352:20,1,90,8|0,0:0|0:0,0:0:0:0:
396,212,37707,2,0,B|396:248|396:248|416:280|416:280|424:308|424:344,1,135,10|0,0:0|0:0,0:0:0:0:
340,316,38107,2,0,P|304:266|269:253,1,90,8|0,0:0|0:0,0:0:0:0:
88,104,38507,2,0,P|96:152|136:192,1,90,8|0,0:0|0:0,0:0:0:0:
312,168,38907,5,8,0:0:0:0:
180,288,39107,1,8,0:0:0:0:
168,292,39207,1,8,0:0:0:0:
156,296,39307,1,6,0:0:0:0:
36,248,39507,1,8,0:0:0:0:
48,244,39607,1,8,0:0:0:0:
60,240,39707,1,6,0:0:0:0:
240,212,39907,1,8,0:0:0:0:
248,224,40007,1,8,0:0:0:0:
256,236,40107,6,0,P|272:280|259:332,1,90,6|2,0:0|0:0,0:0:0:0:
128,208,40507,2,0,P|124:148|64:88,1,135,8|0,0:0|0:0,0:0:0:0:
32,64,40907,2,0,P|80:76|148:56,1,90,2|0,0:0|0:0,0:0:0:0:
232,144,41307,1,8,0:0:0:0:
356,88,41507,1,0,0:0:0:0:
352,248,41707,6,0,P|358:293|392:332,1,90,2|2,0:0|0:0,0:0:0:0:
172,372,42107,2,0,P|201:316|179:235,1,135,8|0,0:0|0:0,0:0:0:0:
163,197,42507,2,0,P|211:231|248:232,1,90,2|0,0:0|0:0,0:0:0:0:
356,344,42907,1,8,0:0:0:0:
368,176,43107,1,0,0:0:0:0:
192,308,43307,6,0,P|240:315|279:297,1,90,2|2,0:0|0:0,0:0:0:0:
476,192,43707,2,0,L|512:328,1,135,8|0,0:0|0:0,0:0:0:0:
492,356,44107,1,2,0:0:0:0:
368,176,44307,1,0,0:0:0:0:
356,344,44507,1,8,0:0:0:0:
160,172,44707,1,0,0:0:0:0:
392,264,44907,6,0,P|444:229|460:195,2,90,2|0|8,0:0|0:0|0:0,0:0:0:0:
256,192,45507,1,0,0:0:0:0:
120,120,45707,2,0,P|67:154|51:188,2,90,2|0|8,0:0|0:0|0:0,0:0:0:0:
256,192,46307,1,0,0:0:0:0:
328,315,46507,6,0,P|306:355|270:380,2,90,6|0|8,0:0|0:0|0:0,0:0:0:0:
256,192,47107,1,0,0:0:0:0:
184,67,47307,2,0,P|204:27|241:3,2,90,2|0|8,0:0|0:0|0:0,0:0:0:0:
256,192,47907,1,0,0:0:0:0:
161,256,48107,6,0,P|148:299|152:344,1,90,2|0,0:0|0:0,0:0:0:0:
320,286,48507,2,0,P|363:299|407:296,1,90,8|0,0:0|0:0,0:0:0:0:
350,127,48907,2,0,P|363:84|360:40,1,90,2|0,0:0|0:0,0:0:0:0:
191,98,49307,2,0,P|148:85|104:88,1,90,8|0,0:0|0:0,0:0:0:0:
190,285,49707,6,0,P|255:301|320:286,1,135,2|0,0:0|0:0,0:0:0:0:
404,316,50107,2,0,L|324:376,1,90,8|0,0:0|0:0,0:0:0:0:
108,324,50507,2,0,L|92:260,1,45,2|0,0:0|0:0,0:0:0:0:
152,192,50707,2,0,L|162:126,1,45,0|0,0:0|0:0,0:0:0:0:
80,68,50907,2,0,P|32:116|60:188,1,135,8|0,0:0|0:0,0:0:0:0:
64,204,51307,6,2,L|56:240,2,22.5
152,192,51507,2,0,L|204:224,1,45
220,320,51707,2,0,P|168:324|120:300,1,90,8|2,0:0|0:0,0:0:0:0:
116,280,52007,1,0,0:0:0:0:
112,244,52107,1,2,0:0:0:0:
112,100,52307,6,0,P|128:68|144:52,1,45
272,68,52507,2,0,P|291:97|297:119,1,45,8|0,0:0|0:0,0:0:0:0:
216,220,52707,2,0,P|180:222|158:216,1,45
200,124,52907,6,0,L|296:72,1,90,4|2,0:1|0:0,0:0:0:0:
424,172,53307,2,0,P|436:128|424:72,1,90,0|0,0:0|0:0,0:0:0:0:
284,164,53707,1,2,0:0:0:0:
352,20,53907,1,0,0:0:0:0:
284,164,54107,1,8,0:0:0:0:
224,16,54307,1,0,0:0:0:0:
36,44,54507,6,0,P|4:100|28:164,1,135,2|0,0:0|0:0,0:0:0:0:
56,192,54907,2,0,L|100:152,1,45,8|0,0:0|0:0,0:0:0:0:
96,264,55107,2,0,P|48:276|4:256,1,90,0|2,0:0|0:0,0:0:0:0:
128,128,55507,1,0,0:0:0:0:
192,252,55707,1,8,0:0:0:0:
296,164,55907,1,0,0:0:0:0:
180,20,56107,6,0,P|130:62|128:128,1,135,2|0,0:0|0:0,0:0:0:0:
136,148,56507,1,8,0:0:0:0:
152,324,56707,2,0,P|176:268|180:220,1,90,0|2,0:0|0:0,0:0:0:0:
312,324,57107,2,0,P|300:264|277:222,1,90,0|8,0:0|0:0,0:0:0:0:
216,68,57507,6,0,P|260:120|368:80,1,180
144,84,58107,1,8,0:0:0:0:
131,87,58207,1,0,0:0:0:0:
119,90,58307,1,0,0:0:0:0:
28,240,58507,1,2,0:0:0:0:
36,252,58607,2,0,L|52:312,1,45
116,352,58807,1,0,0:0:0:0:
136,360,58907,1,8,0:0:0:0:
256,228,59107,1,8,0:0:0:0:
256,228,59207,1,8,0:0:0:0:
256,228,59307,6,0,L|248:288,1,45,2|0,0:0|0:0,0:0:0:0:
328,156,59507,2,0,L|364:204,1,45,2|0,0:0|0:0,0:0:0:0:
328,312,59707,1,8,0:0:0:0:
176,272,59907,1,0,0:0:0:0:
188,128,60107,2,0,L|188:76,2,45,2|0|0,0:0|0:0|0:0,0:0:0:0:
56,248,60507,1,8,0:0:0:0:
0,88,60707,1,0,0:0:0:0:
28,260,60907,6,0,L|32:352,1,90,2|0,0:0|0:0,0:0:0:0:
176,272,61307,2,0,P|202:231|200:180,1,90,8|0,0:0|0:0,0:0:0:0:
256,44,61707,1,2,0:0:0:0:
260,56,61807,1,0,0:0:0:0:
264,68,61907,1,0,0:0:0:0:
112,204,62107,2,0,P|82:167|80:108,1,90,8|0,0:0|0:0,0:0:0:0:
232,184,62507,6,0,P|236:236|176:300,1,135,2|0,0:0|0:0,0:0:0:0:
152,304,62907,1,8,0:0:0:0:
304,264,63107,2,0,P|350:255|392:264,1,90,0|2,0:0|0:0,0:0:0:0:
464,100,63507,1,0,0:0:0:0:
320,152,63707,1,8,0:0:0:0:
248,16,63907,1,0,0:0:0:0:
404,164,64107,6,0,L|408:208,1,45,2|0,0:0|0:0,0:0:0:0:
324,248,64307,2,0,L|312:300,1,45
220,288,64507,2,0,P|172:284|120:228,1,90,12|8,0:0|0:0,0:0:0:0:
112,236,64807,1,8,0:0:0:0:
92,204,64907,1,2,0:0:0:0:
88,168,65007,1,8,0:0:0:0:
96,128,65107,6,0,P|103:102|132:72,1,45,2|2,0:0|0:0,0:0:0:0:
260,84,65307,2,0,P|278:103|290:143,1,45,8|8,0:0|0:0,0:0:0:0:
224,252,65507,2,0,P|197:258|157:248,1,45,8|8,0:0|0:0,0:0:0:0:
192,156,65707,6,0,L|272:108,1,90,6|2,0:0|0:0,0:0:0:0:
112,56,66107,1,8,0:0:0:0:
296,80,66307,1,0,0:0:0:0:
124,192,66507,2,0,L|148:284,1,90,2|0,0:0|0:0,0:0:0:0:
272,376,66907,1,8,0:0:0:0:
192,288,67107,1,0,0:0:0:0:
12,336,67307,6,0,P|-15:275|0:211,1,135,2|0,0:0|0:0,0:0:0:0:
32,176,67707,1,8,0:0:0:0:
160,316,67907,2,0,P|204:340|252:340,1,90,0|2,0:0|0:0,0:0:0:0:
292,168,68307,1,0,0:0:0:0:
160,316,68507,1,8,0:0:0:0:
168,184,68707,1,0,0:0:0:0:
316,300,68907,6,0,B|368:320|412:292|412:292|384:256,1,135,2|0,0:0|0:0,0:0:0:0:
360,224,69307,1,8,0:0:0:0:
444,116,69507,2,0,P|472:156|488:204,1,90,0|2,0:0|0:0,0:0:0:0:
272,128,69907,2,0,P|312:100|360:84,1,90,0|8,0:0|0:0,0:0:0:0:
256,272,70307,6,0,B|190:344|160:284|97:369,1,180
340,308,70907,2,0,P|344:248|328:212,1,90,8|0,0:0|0:0,0:0:0:0:
96,52,71307,2,0,P|92:112|108:148,1,90,2|0,0:0|0:0,0:0:0:0:
256,88,71707,1,8,0:0:0:0:
156,256,71907,1,8,0:0:0:0:
148,268,72007,1,8,0:0:0:0:
140,280,72107,6,0,L|120:328,1,45,6|0,0:0|0:0,0:0:0:0:
264,320,72307,2,0,L|220:336,1,45,2|0,0:0|0:0,0:0:0:0:
352,348,72507,1,8,0:0:0:0:
364,344,72607,1,0,0:0:0:0:
376,340,72707,1,0,0:0:0:0:
472,224,72907,1,2,0:0:0:0:
464,212,73007,2,0,L|436:172,1,45
360,128,73207,1,0,0:0:0:0:
344,112,73307,1,8,0:0:0:0:
400,280,73507,1,0,0:0:0:0:
444,116,73707,6,0,P|464:72|500:40,1,90,2|0,0:0|0:0,0:0:0:0:
344,216,74107,2,0,L|300:216,1,45,8|0,0:0|0:0,0:0:0:0:
224,272,74307,2,0,P|192:236|180:192,1,90,0|2,0:0|0:0,0:0:0:0:
260,76,74707,1,0,0:0:0:0:
108,220,74907,1,8,0:0:0:0:
320,136,75107,1,0,0:0:0:0:
340,232,75307,6,0,P|264:224|228:168,1,135,2|0,0:0|0:0,0:0:0:0:
204,208,75707,1,12,0:0:0:0:
392,328,75907,1,8,0:0:0:0:
424,312,76007,1,8,0:0:0:0:
444,280,76107,2,0,L|460:224,1,45,2|8,0:0|0:0,0:0:0:0:
400,100,76307,2,0,L|384:156,1,45,0|2,0:0|0:0,0:0:0:0:
257,257,76507,2,0,P|301:254|340:232,1,90,8|0,0:0|0:0,0:0:0:0:
256,64,76907,5,6,0:0:0:0:
256,280,89507,5,8,0:0:0:0:
256,280,89607,1,8,0:0:0:0:
256,280,89707,2,0,P|224:330|161:351,1,90,6|0,0:0|0:0,0:0:0:0:
36,260,90107,2,0,P|88:276|148:260,1,90,8|0,0:0|0:0,0:0:0:0:
196,204,90407,1,8,0:0:0:0:
184,168,90507,2,0,P|124:144|80:140,1,90,2|0,0:0|0:0,0:0:0:0:
216,68,90907,2,0,P|264:24|282:-17,1,90,8|0,0:0|0:0,0:0:0:0:
288,136,91307,6,0,P|288:192|260:236,1,90,2|0,0:0|0:0,0:0:0:0:
392,348,91707,2,0,P|364:284|376:204,1,135,8|0,0:0|0:0,0:0:0:0:
432,184,92107,2,0,L|384:100,1,90,2|0,0:0|0:0,0:0:0:0:
308,20,92507,1,8,0:0:0:0:
288,136,92707,1,0,0:0:0:0:
128,228,92907,6,0,P|184:192|256:216,1,135,2|0,0:0|0:0,0:0:0:0:
282,282,93307,2,0,P|239:292|198:276,1,90,8|0,0:0|0:0,0:0:0:0:
220,80,93707,2,0,L|252:176,1,90,2|0,0:0|0:0,0:0:0:0:
160,324,94107,1,8,0:0:0:0:
160,140,94307,1,0,0:0:0:0:
84,276,94507,6,0,P|44:300|-4:308,1,90,2|0,0:0|0:0,0:0:0:0:
20,108,94907,2,0,P|60:84|108:76,1,90,8|0,0:0|0:0,0:0:0:0:
216,208,95307,1,2,0:0:0:0:
216,220,95407,1,0,0:0:0:0:
216,232,95507,1,0,0:0:0:0:
216,244,95607,1,0,0:0:0:0:
216,256,95707,2,0,L|224:316,1,45,8|0,0:0|0:0,0:0:0:0:
336,336,95907,2,0,L|328:276,1,45
324,160,96107,6,0,P|284:124|272:60,1,90,6|0,0:0|0:0,0:0:0:0:
120,44,96507,1,8,0:0:0:0:
228,152,96707,1,0,0:0:0:0:
368,80,96907,2,0,P|416:80|464:68,1,90,2|0,0:0|0:0,0:0:0:0:
248,32,97307,1,8,0:0:0:0:
140,164,97507,2,0,L|160:208,1,45
252,256,97707,6,0,P|296:216|300:128,1,135,2|0,0:0|0:0,0:0:0:0:
388,148,98107,2,0,L|376:240,1,90,8|0,0:0|0:0,0:0:0:0:
160,284,98507,2,0,P|156:232|184:184,1,90,2|0,0:0|0:0,0:0:0:0:
388,164,98907,2,0,P|368:208|328:232,1,90,8|0,0:0|0:0,0:0:0:0:
248,72,99307,6,0,B|280:40|280:40|384:48,1,135,2|0,0:0|0:0,0:0:0:0:
450,101,99707,2,0,P|425:139|388:164,1,90,8|0,0:0|0:0,0:0:0:0:
392,316,100107,2,0,L|308:240,1,90,2|0,0:0|0:0,0:0:0:0:
144,284,100507,1,8,0:0:0:0:
288,224,100707,1,0,0:0:0:0:
124,160,100907,6,0,P|68:180|32:172,1,90,2|0,0:0|0:0,0:0:0:0:
212,24,101307,2,0,L|200:124,1,90,8|8,0:0|0:0,0:0:0:0:
204,124,101607,1,8,0:0:0:0:
208,136,101707,1,6,0:0:0:0:
316,288,101907,1,8,0:0:0:0:
303,285,102007,1,8,0:0:0:0:
288,284,102107,1,6,0:0:0:0:
104,308,102307,1,8,0:0:0:0:
113,298,102407,1,8,0:0:0:0:
124,288,102507,5,6,0:0:0:0:
12,248,102707,1,2,0:0:0:0:
204,232,102907,2,0,P|252:208|288:128,1,135,8|0,0:0|0:0,0:0:0:0:
288,88,103307,2,0,P|316:148|348:168,1,90,2|0,0:0|0:0,0:0:0:0:
484,148,103707,1,8,0:0:0:0:
408,28,103907,1,0,0:0:0:0:
376,236,104107,6,0,P|364:282|376:328,1,90,2|2,0:0|0:0,0:0:0:0:
156,264,104507,2,0,P|215:244|271:165,1,135,8|0,0:0|0:0,0:0:0:0:
272,140,104907,2,0,P|274:176|311:224,1,90,2|0,0:0|0:0,0:0:0:0:
176,180,105307,1,8,0:0:0:0:
312,44,105507,1,0,0:0:0:0:
144,196,105707,6,0,L|60:240,1,90,2|2,0:0|0:0,0:0:0:0:
268,328,106107,2,0,P|260:272|308:200,1,135,8|0,0:0|0:0,0:0:0:0:
336,200,106507,1,2,0:0:0:0:
144,196,106707,1,0,0:0:0:0:
312,44,106907,1,8,0:0:0:0:
176,280,107107,1,8,0:0:0:0:
164,288,107207,1,8,0:0:0:0:
152,296,107307,6,0,P|98:320|46:312,2,90,6|0|0,0:0|0:0|0:0,0:0:0:0:
256,192,107907,1,0,0:0:0:0:
360,296,108107,2,0,P|413:320|465:312,2,90
256,192,108707,1,0,0:0:0:0:
100,84,108907,6,0,P|120:136|156:176,2,90,2|0|2,0:0|0:0|0:0,0:0:0:0:
256,24,109507,1,0,0:0:0:0:
412,84,109707,2,0,P|392:136|356:176,2,90,2|0|2,0:0|0:0|0:0,0:0:0:0:
256,24,110307,1,0,0:0:0:0:
140,192,110507,6,0,P|156:240|196:276,1,90,2|0,0:0|0:0,0:0:0:0:
256,76,110907,2,0,P|208:92|172:132,1,90,8|0,0:0|0:0,0:0:0:0:
372,192,111307,2,0,P|356:144|316:108,1,90,2|0,0:0|0:0,0:0:0:0:
256,308,111707,2,0,P|304:292|340:252,1,90,8|0,0:0|0:0,0:0:0:0:
208,144,112107,6,0,P|152:108|64:116,1,135,2|0,0:0|0:0,0:0:0:0:
8,40,112507,2,0,P|52:36|100:8,1,90,8|0,0:0|0:0,0:0:0:0:
240,40,112907,2,0,L|272:84,1,45,2|0,0:0|0:0,0:0:0:0:
344,152,113107,2,0,L|328:208,1,45
248,272,113307,2,0,P|276:316|356:348,1,135,12|0,0:0|0:0,0:0:0:0:
472,272,113707,6,0,L|468:249,2,22.5,0|2|0,0:0|0:0|0:0,0:0:0:0:
424,144,113907,1,0,0:0:0:0:
388,148,114007,2,0,L|360:200,2,45,2|8|0,0:0|0:0|0:0,0:0:0:0:
292,164,114307,2,0,L|272:148,2,22.5,2|0|0,0:0|0:0|0:0,0:0:0:0:
292,260,114507,2,0,L|274:274,2,22.5,2|0|8,0:0|0:0|0:0,0:0:0:0:
392,284,114707,6,0,P|384:316|368:336,1,45,0|2,0:0|0:0,0:0:0:0:
208,348,114907,2,0,P|184:325|174:301,1,45,8|8,0:0|0:0,0:0:0:0:
248,160,115107,2,0,P|279:150|305:154,1,45,8|8,0:0|0:0,0:0:0:0:
292,260,115307,6,0,L|212:312,1,90,6|0,0:0|0:0,0:0:0:0:
52,384,115707,2,0,P|24:332|28:276,1,90,8|0,0:0|0:0,0:0:0:0:
172,168,116107,1,2,0:0:0:0:
124,312,116307,1,0,0:0:0:0:
112,132,116507,1,8,0:0:0:0:
228,284,116707,1,0,0:0:0:0:
400,200,116907,6,0,P|335:215|276:185,1,135,2|0,0:0|0:0,0:0:0:0:
248,156,117307,2,0,L|252:108,1,45,8|0,0:0|0:0,0:0:0:0:
156,148,117507,2,0,P|164:196|200:232,1,90,0|2,0:0|0:0,0:0:0:0:
160,60,117907,1,0,0:0:0:0:
196,224,118107,1,8,0:0:0:0:
256,64,118307,1,0,0:0:0:0:
40,116,118507,6,0,P|60:173|27:256,1,135,2|0,0:0|0:0,0:0:0:0:
24,268,118907,1,8,0:0:0:0:
196,224,119107,2,0,P|248:220|296:236,1,90,0|2,0:0|0:0,0:0:0:0:
128,300,119507,2,0,P|173:325|204:365,1,90,0|8,0:0|0:0,0:0:0:0:
96,188,119907,6,0,P|120:144|252:140,1,180
272,364,120507,1,8,0:0:0:0:
280,352,120607,1,0,0:0:0:0:
288,340,120707,1,0,0:0:0:0:
436,248,120907,1,2,0:0:0:0:
432,236,121007,2,0,L|416:192,1,45
364,120,121207,1,0,0:0:0:0:
340,120,121307,1,8,0:0:0:0:
196,200,121507,2,8,L|180:148,1,45
92,116,121707,6,0,L|120:204,1,90,6|0,0:0|0:0,0:0:0:0:
216,76,122107,1,8,0:0:0:0:
84,136,122307,1,0,0:0:0:0:
213,196,122507,1,2,0:0:0:0:
228,192,122607,1,0,0:0:0:0:
240,188,122707,1,0,0:0:0:0:
488,168,122907,1,8,0:0:0:0:
380,288,123107,1,0,0:0:0:0:
476,140,123307,6,0,L|500:48,1,90,2|0,0:0|0:0,0:0:0:0:
292,32,123707,2,0,P|288:84|304:128,1,90,8|0,0:0|0:0,0:0:0:0:
284,296,124107,2,0,L|272:344,2,45,2|0|0,0:0|0:0|0:0,0:0:0:0:
208,128,124507,2,0,P|164:160|156:220,1,90,8|0,0:0|0:0,0:0:0:0:
320,224,124907,6,0,B|368:224|368:224|408:248|452:248,1,135,2|0,0:0|0:0,0:0:0:0:
476,172,125307,2,0,P|428:168|388:144,1,90,8|0,0:0|0:0,0:0:0:0:
196,52,125707,2,0,L|137:86,1,45,2|0,0:0|0:0,0:0:0:0:
168,176,125907,1,0,0:0:0:0:
292,102,126107,1,8,0:0:0:0:
91,132,126307,1,0,0:0:0:0:
92,328,126507,6,0,L|120:272,1,45,2|0,0:0|0:0,0:0:0:0:
224,280,126707,2,0,L|224:220,1,45
196,108,126907,2,0,P|152:100|120:68,1,90,12|8,0:0|0:0,0:0:0:0:
88,52,127207,1,8,0:0:0:0:
52,60,127307,1,2,0:0:0:0:
28,84,127407,1,8,0:0:0:0:
20,120,127507,6,0,P|16:172|20:192,1,45,2|2,0:0|0:0,0:0:0:0:
170,246,127707,2,8,P|217:223|232:210,1,45
205,53,127907,2,8,P|161:23|142:17,1,45
132,140,128107,6,0,L|188:212,1,90,6|0,0:0|0:0,0:0:0:0:
32,160,128507,1,8,0:0:0:0:
208,204,128707,1,0,0:0:0:0:
360,72,128907,2,0,P|306:63|255:86,1,90,2|0,0:0|0:0,0:0:0:0:
248,244,129307,1,8,0:0:0:0:
388,208,129507,1,0,0:0:0:0:
472,24,129707,6,0,P|452:80|476:156,1,135,2|0,0:0|0:0,0:0:0:0:
492,184,130107,1,8,0:0:0:0:
316,60,130307,2,0,P|284:60|216:108,1,90,0|2,0:0|0:0,0:0:0:0:
192,248,130707,1,0,0:0:0:0:
148,64,130907,1,8,0:0:0:0:
300,148,131107,1,0,0:0:0:0:
116,152,131307,6,0,P|56:136|32:64,1,135,2|0,0:0|0:0,0:0:0:0:
36,40,131707,1,8,0:0:0:0:
88,176,131907,2,0,P|56:216|40:268,1,90,0|2,0:0|0:0,0:0:0:0:
208,208,132307,2,0,P|203:259|219:311,1,90,0|8,0:0|0:0,0:0:0:0:
440,344,132707,6,0,B|432:304|464:288|464:288|492:220|461:173,1,180
172,56,133307,2,0,P|192:100|232:132,1,90,8|0,0:0|0:0,0:0:0:0:
504,88,133707,2,0,P|484:44|444:12,1,90,2|0,0:0|0:0,0:0:0:0:
408,176,134107,1,8,0:0:0:0:
256,32,134307,1,8,0:0:0:0:
244,36,134407,1,8,0:0:0:0:
232,40,134507,6,0,L|180:60,1,45,6|0,0:0|0:0,0:0:0:0:
200,160,134707,2,0,L|171:195,1,45,2|0,0:0|0:0,0:0:0:0:
236,280,134907,1,8,0:0:0:0:
244,292,135007,1,0,0:0:0:0:
252,304,135107,1,0,0:0:0:0:
432,316,135307,1,2,0:0:0:0:
436,304,135407,2,0,L|448:256,1,45
408,176,135607,1,0,0:0:0:0:
388,168,135707,1,8,0:0:0:0:
324,268,135907,1,0,0:0:0:0:
500,204,136107,6,0,L|484:112,1,90,2|0,0:0|0:0,0:0:0:0:
284,56,136507,2,0,L|321:83,1,45,8|0,0:0|0:0,0:0:0:0:
408,56,136707,2,0,L|337:0,1,90,0|2,0:0|0:0,0:0:0:0:
192,144,137107,1,0,0:0:0:0:
344,116,137307,1,8,0:0:0:0:
168,12,137507,1,0,0:0:0:0:
15,131,137707,6,0,P|37:192|97:219,1,135,2|0,0:0|0:0,0:0:0:0:
128,216,138107,1,8,0:0:0:0:
273,145,138307,2,0,L|284:56,1,90,0|2,0:0|0:0,0:0:0:0:
396,160,138707,1,0,0:0:0:0:
264,268,138907,2,0,L|180:284,1,45,8|0,0:0|0:0,0:0:0:0:
128,216,139107,1,0,0:0:0:0:
200,72,139307,5,2,0:0:0:0:
208,84,139407,1,0,0:0:0:0:
216,96,139507,1,0,0:0:0:0:
356,216,139707,2,0,L|436:220,1,45,12|0,0:0|0:0,0:0:0:0:
448,332,139907,2,8,L|403:399,1,45
300,344,140107,1,2,0:0:0:0:
288,336,140207,1,8,0:0:0:0:
276,328,140307,2,2,L|240:256,1,45
272,128,140507,2,0,P|288:180|280:220,1,90,8|0,0:0|0:0,0:0:0:0:
136,120,140907,5,6,0:0:0:0:
52,172,141107,1,0,0:0:0:0:
96,260,141307,1,8,0:0:0:0:
300,344,141607,5,8,0:0:0:0:
336,332,141707,2,0,L|368:264,1,67.5000025749208,2|0,0:0|0:0,0:0:0:0:
284,240,142107,2,0,L|286:164,1,67.5000025749208,8|0,0:0|0:0,0:0:0:0:
200,176,142507,2,0,L|173:105,1,67.5000025749208,2|0,0:0|0:0,0:0:0:0:
68,64,142907,2,0,L|91:127,1,67.5000025749208,8|0,0:0|0:0,0:0:0:0:
256,112,143307,2,0,P|316:84|396:96,1,135.000005149842,2|8,0:0|0:0,0:0:0:0:
472,156,143907,1,0,0:0:0:0:
404,232,144107,6,0,L|392:312,1,67.5000025749208,2|0,0:0|0:0,0:0:0:0:
292,300,144507,2,0,P|236:296|176:232,1,135.000005149842,8|2,0:0|0:0,0:0:0:0:
160,144,145107,1,0,0:0:0:0:
240,80,145307,2,0,P|276:136|268:212,1,135.000005149842,8|2,0:0|0:0,0:0:0:0:
228,292,145907,1,0,0:0:0:0:
320,332,146107,2,0,P|404:320|444:272,1,135.000005149842,8|2,0:0|0:0,0:0:0:0:
400,192,146707,1,0,0:0:0:0:
436,97,146907,2,0,P|404:64|360:52,1,67.5000025749208,8|0,0:0|0:0,0:0:0:0:
288,20,147307,5,6,0:0:0:0:
220,96,147507,1,0,0:0:0:0:
140,36,147707,1,8,0:0:0:0:
80,224,148107,6,0,L|114:282,1,67.5000025749208,2|0,0:0|0:0,0:0:0:0:
192,252,148507,2,0,L|255:298,1,67.5000025749208,8|0,0:0|0:0,0:0:0:0:
306,234,148907,2,0,L|382:252,1,67.5000025749208,2|0,0:0|0:0,0:0:0:0:
401,170,149307,2,0,L|478:157,1,67.5000025749208,8|0,0:0|0:0,0:0:0:0:
312,140,149707,2,0,L|245:151,1,67.5000025749208,2|0,0:0|0:0,0:0:0:0:
444,304,150107,2,0,L|510:292,1,67.5000025749208,8|0,0:0|0:0,0:0:0:0:
212,264,150507,6,0,P|144:260|88:208,1,135.000005149842,2|8,0:0|0:0,0:0:0:0:
92,116,151107,1,0,0:0:0:0:
192,132,151307,2,0,P|260:136|316:188,1,135.000005149842,2|8,0:0|0:0,0:0:0:0:
312,280,151907,1,0,0:0:0:0:
404,324,152107,2,0,P|460:312|500:248,1,135.000005149842,2|8,0:0|0:0,0:0:0:0:
484,148,152707,6,8,L|452:124,1,33.7500012874604
356,104,152907,1,6,0:0:0:0:
484,128,153107,2,8,L|452:104,1,33.7500012874604
356,84,153307,1,6,0:0:0:0:
484,108,153507,2,8,L|452:84,1,33.7500012874604
356,64,153707,5,6,0:0:0:0:
256,88,153907,1,0,0:0:0:0:
156,64,154107,1,8,0:0:0:0:
36,192,154407,5,8,0:0:0:0:
32,224,154507,2,0,L|56:296,1,67.5000025749208,2|0,0:0|0:0,0:0:0:0:
140,236,154907,2,0,L|190:292,1,67.5000025749208,8|0,0:0|0:0,0:0:0:0:
244,204,155307,2,0,L|312:236,1,67.5000025749208,2|0,0:0|0:0,0:0:0:0:
392,192,155707,2,0,L|460:224,1,67.5000025749208,8|0,0:0|0:0,0:0:0:0:
324,120,156107,2,0,L|263:90,1,67.5000025749208,2|0,0:0|0:0,0:0:0:0:
360,284,156507,1,8,0:0:0:0:
360,284,156707,1,8,0:0:0:0:
360,284,156807,1,8,0:0:0:0:
360,284,156907,5,6,0:0:0:0:
256,316,157107,1,0,0:0:0:0:
152,284,157307,1,8,0:0:0:0:
24,92,157707,6,0,L|96:36,1,67.5000025749208,2|0,0:0|0:0,0:0:0:0:
164,128,158107,2,0,L|252:104,1,67.5000025749208,8|0,0:0|0:0,0:0:0:0:
278,215,158507,2,0,L|368:227,1,67.5000025749208,2|0,0:0|0:0,0:0:0:0:
168,264,158907,2,0,L|101:254,1,67.5000025749208,8|0,0:0|0:0,0:0:0:0:
344,124,159307,2,0,L|434:136,1,67.5000025749208,2|0,0:0|0:0,0:0:0:0:
224,336,159707,1,8,0:0:0:0:
24,308,159907,1,0,0:0:0:0:
136,192,160107,5,6,0:0:0:0:
112,356,160307,1,0,0:0:0:0:
20,184,160507,1,8,0:0:0:0:
288,240,160907,6,0,L|336:312,1,67.5000025749208,2|0,0:0|0:0,0:0:0:0:
444,256,161307,2,0,L|516:303,1,67.5000025749208,8|0,0:0|0:0,0:0:0:0:
416,172,161707,2,0,L|359:134,1,67.5000025749208,2|0,0:0|0:0,0:0:0:0:
96,212,162107,2,0,L|152:249,1,67.5000025749208,8|8,0:0|0:0,0:0:0:0:
164,244,162407,1,8,0:0:0:0:
176,240,162507,1,6,0:0:0:0:
240,120,162707,1,8,0:0:0:0:
228,124,162807,1,8,0:0:0:0:
216,128,162907,1,6,0:0:0:0:
256,320,163307,5,0,0:0:0:0:
256,192,163407,12,0,166107,0:0:0:0:
182,296,168907,6,0,L|96:192,1,135.000005149842
96,192,169707,6,0,L|80:232,2,33.7500012874604
132,120,170107,2,0,L|200:112,1,67.5000025749208,2|0,0:0|0:0,0:0:0:0:
248,176,170507,1,0,0:0:0:0:
328,192,170707,1,0,0:0:0:0:
392,144,170907,2,0,L|360:76,1,67.5000025749208,2|0,0:0|0:0,0:0:0:0:
420,28,171307,5,0,0:0:0:0:
420,28,171407,1,0,0:0:0:0:
420,28,171507,1,0,0:0:0:0:
492,64,171707,2,0,L|476:148,1,67.5000025749208,2|0,0:0|0:0,0:0:0:0:
448,204,172107,1,0,0:0:0:0:
476,280,172307,1,0,0:0:0:0:
428,344,172507,2,0,L|352:360,1,67.5000025749208,2|0,0:0|0:0,0:0:0:0:
244,236,172907,6,0,L|196:160,1,90,6|0,0:0|0:0,0:0:0:0:
296,36,173307,2,0,L|280:128,1,90,2|0,0:0|0:0,0:0:0:0:
160,340,173707,2,0,L|152:248,1,90
408,184,174107,2,0,L|308:200,1,90,2|0,0:0|0:0,0:0:0:0:
124,120,174507,5,6,0:0:0:0:
24,216,174707,1,8,0:0:0:0:
36,220,174807,1,8,0:0:0:0:
48,224,174907,1,6,0:0:0:0:
176,172,175107,2,0,L|208:208,1,45,8|8,0:0|0:0,0:0:0:0:
284,260,175307,1,6,0:0:0:0:
468,188,175507,2,8,L|460:136,1,45
400,72,175707,1,6,0:0:0:0:
192,92,175907,1,8,0:0:0:0:
192,92,176007,1,8,0:0:0:0:
192,92,176107,5,6,0:0:0:0:
204,304,176307,2,8,L|220:348,1,45
372,356,176507,2,0,L|356:313,1,45,6|0,0:0|0:0,0:0:0:0:
312,168,176707,1,8,0:0:0:0:
286,139,176807,1,8,0:0:0:0:
251,128,176907,1,6,0:0:0:0:
56,168,177107,6,0,L|14:151,1,45
168,252,177307,2,0,L|209:268,1,45
56,188,177507,2,0,L|14:171,1,45
136,356,177707,6,0,P|188:356|276:272,1,180,4|0,0:1|0:0,0:0:0:0:
376,28,178307,2,0,P|324:28|236:112,1,180,4|0,0:1|0:0,0:0:0:0:
340,332,178907,2,0,L|448:312,1,90,4|0,0:1|0:0,0:0:0:0:
176,228,179307,6,0,B|124:312|88:248|40:336,1,180,4|0,0:1|0:0,0:0:0:0:
336,156,179907,2,0,B|388:72|424:136|472:48,1,180,4|0,0:1|0:0,0:0:0:0:
120,44,180507,1,4,0:1:0:0:
236,144,180707,1,0,0:0:0:0:
120,44,180907,6,0,P|64:80|96:200,1,180,4|0,0:1|0:0,0:0:0:0:
392,340,181507,2,0,P|448:304|416:184,1,180,4|0,0:1|0:0,0:0:0:0:
144,204,182107,2,0,L|36:244,1,90,4|0,0:1|0:0,0:0:0:0:
332,312,182507,6,0,B|387:322|387:322|489:215,1,180,4|0,0:1|0:0,0:0:0:0:
180,72,183107,2,0,B|124:61|124:61|22:168,1,180,4|0,0:1|0:0,0:0:0:0:
160,312,183707,1,4,0:1:0:0:
332,204,183907,1,8,0:0:0:0:
332,204,184007,1,8,0:0:0:0:
332,204,184107,5,4,0:1:0:0:
208,16,184307,2,0,L|184:68,2,45
84,24,184607,2,0,L|60:76,1,45,0|10,0:0|0:0,0:0:0:0:
80,240,184907,1,0,0:0:0:0:
85,227,185007,1,8,0:0:0:0:
91,215,185107,1,8,0:0:0:0:
96,203,185207,1,0,0:0:0:0:
103,191,185307,2,0,L|133:123,1,45,10|0,0:0|0:0,0:0:0:0:
176,244,185507,2,0,L|146:312,1,45,0|8,0:0|0:0,0:0:0:0:
264,260,185707,5,2,0:0:0:0:
408,172,185907,1,8,0:0:0:0:
396,164,186007,1,0,0:0:0:0:
388,156,186107,1,0,0:0:0:0:
248,120,186307,2,0,P|200:68|192:40,1,90,8|0,0:0|0:0,0:0:0:0:
184,44,186607,2,0,P|108:40|84:28,1,90,8|0,0:0|0:0,0:0:0:0:
84,36,186907,2,0,L|60:84,1,45,10|0,0:0|0:0,0:0:0:0:
108,156,187107,2,0,L|84:204,1,45,8|0,0:0|0:0,0:0:0:0:
132,276,187307,5,4,0:1:0:0:
308,292,187507,1,0,0:0:0:0:
336,268,187607,1,0,0:0:0:0:
348,236,187707,1,0,0:0:0:0:
348,199,187807,1,0,0:0:0:0:
332,168,187907,2,0,L|280:120,1,45,10|0,0:0|0:0,0:0:0:0:
197,138,188107,2,0,L|181:207,1,45,0|8,0:0|0:0,0:0:0:0:
238,269,188307,2,0,L|306:248,1,45,8|0,0:0|0:0,0:0:0:0:
440,264,188507,1,10,0:0:0:0:
452,296,188607,1,0,0:0:0:0:
448,332,188707,1,8,0:0:0:0:
420,356,188807,1,8,0:0:0:0:
388,368,188907,6,0,L|302:372,1,60,2|2,0:0|0:0,0:0:0:0:
135,299,189173,2,2,L|162:241,1,60,2|10,0:0|0:0,0:0:0:0:
323,119,189440,2,2,L|357:172,1,60,2|2,0:0|0:0,0:0:0:0:
388,368,189707,6,0,L|312:372,1,45,2|8,0:0|0:0,0:0:0:0:
208,272,189907,2,2,L|204:196,1,45
380,240,190107,2,0,L|384:316,1,45,8|8,0:0|0:0,0:0:0:0:
204,152,190307,2,0,L|248:149,1,45,8|8,0:0|0:0,0:0:0:0:
208,344,190507,5,2,0:0:0:0:
208,344,190707,1,2,0:0:0:0:
340,152,190907,6,0,P|360:104|360:40,1,90,14|0,0:0|0:0,0:0:0:0:
164,152,191307,2,0,P|152:100|132:64,1,90,2|0,0:0|0:0,0:0:0:0:
116,224,191707,1,8,0:0:0:0:
208,64,191907,1,0,0:0:0:0:
476,140,192107,2,0,P|461:203|402:231,1,135,2|0,0:0|0:0,0:0:0:0:
360,232,192507,1,8,0:0:0:0:
236,104,192707,2,0,P|216:56|222:14,1,90,0|2,0:0|0:0,0:0:0:0:
416,80,193107,1,0,0:0:0:0:
292,8,193307,1,8,0:0:0:0:
248,216,193507,1,0,0:0:0:0:
196,60,193707,6,0,P|269:76|297:144,1,135,2|0,0:0|0:0,0:0:0:0:
300,152,194107,2,0,L|352:136,1,45,8|0,0:0|0:0,0:0:0:0:
432,196,194307,2,0,L|312:233,1,90,0|2,0:0|0:0,0:0:0:0:
376,360,194707,2,0,L|256:324,1,90,0|8,0:0|0:0,0:0:0:0:
192,160,195107,2,0,P|176:100|276:32,1,180
116,184,195707,2,0,P|60:180|24:156,1,90,8|0,0:0|0:0,0:0:0:0:
284,124,196107,2,0,P|308:168|308:212,1,90,2|0,0:0|0:0,0:0:0:0:
48,248,196507,2,0,L|48:200,1,45,8|0,0:0|0:0,0:0:0:0:
104,112,196707,1,8,0:0:0:0:
140,100,196807,1,8,0:0:0:0:
176,112,196907,5,6,0:0:0:0:
236,264,197107,2,0,P|216:316|164:336,1,90,0|8,0:0|0:0,0:0:0:0:
152,336,197407,1,0,0:0:0:0:
152,336,197507,1,0,0:0:0:0:
252,168,197707,2,0,L|296:120,1,45,2|0,0:0|0:0,0:0:0:0:
384,168,197907,2,0,L|444:164,1,45
464,268,198107,1,8,0:0:0:0:
364,136,198307,2,0,P|348:76|360:40,1,90,0|2,0:0|0:0,0:0:0:0:
496,144,198707,5,0,0:0:0:0:
368,20,198907,1,8,0:0:0:0:
376,244,199107,2,0,P|340:288|288:300,1,90,0|2,0:0|0:0,0:0:0:0:
114,244,199507,1,0,0:0:0:0:
296,208,199707,1,8,0:0:0:0:
172,72,199907,1,0,0:0:0:0:
176,192,200107,6,0,P|112:164|53:193,1,135,2|0,0:0|0:0,0:0:0:0:
32,244,200507,2,0,L|44:300,1,45,8|0,0:0|0:0,0:0:0:0:
148,368,200707,2,0,B|120:328|120:328|128:304|132:276|112:240,1,135
92,216,201107,1,0,0:0:0:0:
208,312,201307,1,8,0:0:0:0:
184,148,201507,1,0,0:0:0:0:
208,312,201707,5,2,0:0:0:0:
316,188,201907,2,8,L|280:144,1,45
288,36,202107,2,0,P|336:48|384:32,1,90,6|8,0:0|0:0,0:0:0:0:
464,84,202407,1,8,0:0:0:0:
476,92,202507,2,0,L|492:152,1,45,2|8,0:0|0:0,0:0:0:0:
392,228,202707,2,0,L|371:286,1,45,2|2,0:0|0:0,0:0:0:0:
206,205,202907,1,8,0:0:0:0:
189,177,203007,1,8,0:0:0:0:
185,143,203107,1,8,0:0:0:0:
193,111,203207,1,8,0:0:0:0:
214,85,203307,5,6,0:0:0:0:
304,204,203507,1,0,0:0:0:0:
112,296,203707,2,0,L|32:356,1,90,8|0,0:0|0:0,0:0:0:0:
224,316,204107,1,2,0:0:0:0:
72,196,204307,1,0,0:0:0:0:
260,312,204507,2,0,P|304:288|332:244,1,90,8|0,0:0|0:0,0:0:0:0:
252,100,204907,6,0,P|240:152|260:204,1,90,2|0,0:0|0:0,0:0:0:0:
432,236,205307,2,0,L|464:324,1,90,8|0,0:0|0:0,0:0:0:0:
260,312,205707,2,0,L|236:272,2,45,2|0|0,0:0|0:0|0:0,0:0:0:0:
368,168,206107,2,0,P|396:128|400:80,1,90,8|0,0:0|0:0,0:0:0:0:
216,48,206507,5,2,0:0:0:0:
360,20,206707,1,0,0:0:0:0:
252,160,206907,2,0,L|224:280,1,90,8|0,0:0|0:0,0:0:0:0:
360,344,207307,1,2,0:0:0:0:
372,340,207407,1,0,0:0:0:0:
384,336,207507,1,0,0:0:0:0:
432,208,207707,1,8,0:0:0:0:
220,288,207907,6,0,L|112:292,1,90,0|2,0:0|0:0,0:0:0:0:
32,192,208307,1,0,0:0:0:0:
144,48,208507,2,0,L|156:144,1,90,8|8,0:0|0:0,0:0:0:0:
240,180,208807,1,8,0:0:0:0:
268,172,208907,2,0,L|284:64,1,90,2|8,0:0|0:0,0:0:0:0:
360,28,209207,1,8,0:0:0:0:
380,60,209307,2,0,L|424:88,1,45,10|8,0:0|0:0,0:0:0:0:
468,216,209507,2,0,L|430:191,1,45,8|8,0:0|0:0,0:0:0:0:
232,228,209707,6,0,P|184:256|168:296,1,90,6|0,0:0|0:0,0:0:0:0:
344,360,210107,2,0,L|392:348,1,45,8|0,0:0|0:0,0:0:0:0:
396,244,210307,2,0,P|348:272|292:268,1,90,0|2,0:0|0:0,0:0:0:0:
208,132,210707,1,0,0:0:0:0:
372,80,210907,1,8,0:0:0:0:
484,208,211107,6,0,P|492:252|464:312,1,90,0|2,0:0|0:0,0:0:0:0:
324,280,211507,1,0,0:0:0:0:
195,206,211707,2,0,L|220:244,1,45,8|0,0:0|0:0,0:0:0:0:
168,320,211907,2,0,P|151:278|115:252,1,90,0|2,0:0|0:0,0:0:0:0:
32,364,212307,1,0,0:0:0:0:
244,280,212507,1,8,0:0:0:0:
64,120,212707,6,0,P|28:160|28:212,1,90,0|2,0:0|0:0,0:0:0:0:
128,356,213107,1,0,0:0:0:0:
320,328,213307,2,0,L|388:368,1,45,8|0,0:0|0:0,0:0:0:0:
439,290,213507,2,0,P|395:282|360:256,1,90,0|2,0:0|0:0,0:3:0:0:
404,68,213907,1,0,0:0:0:0:
256,192,214107,2,0,P|204:200|160:180,1,90,8|0,0:0|0:0,0:0:0:0:
24,324,214507,6,0,P|64:300|136:308,1,90,2|0,0:0|0:0,0:0:0:0:
192,368,214807,1,0,0:0:0:0:
232,360,214907,2,0,L|296:320,1,45,12|0,0:0|0:0,0:0:0:0:
236,192,215107,2,0,L|244:136,1,45,8|8,0:0|0:0,0:0:0:0:
104,108,215307,2,0,L|116:172,1,45,2|8,0:0|0:0,0:0:0:0:
180,280,215507,2,2,L|248:288,1,45
368,272,215707,2,0,P|420:268|460:288,1,90,8|8,0:0|0:0,0:0:0:0:
500,216,216007,2,4,L|448:192,1,45,8|6,0:0|0:0,0:0:0:0:
