osu file format v14

[General]
AudioFilename: 06 _ - Trident of Sadness.mp3
AudioLeadIn: 0
PreviewTime: 114241
Countdown: 1
SampleSet: Normal
StackLeniency: 0.7
Mode: 1
LetterboxInBreaks: 1
WidescreenStoryboard: 1

[Editor]
Bookmarks: 216654
DistanceSpacing: 0.5
BeatDivisor: 4
GridSize: 32
TimelineZoom: 4.799999

[Metadata]
Title:Trident of Sadness
TitleUnicode:Trident of Sadness
Artist:Umeboshi Chazuke
ArtistUnicode:梅干茶漬け
Creator:kjwkjw
Version:Oni
Source:UNDERTALE
Tags:
BeatmapID:1258992
BeatmapSetID:594608

[Difficulty]
HPDrainRate:5
CircleSize:3
OverallDifficulty:5
ApproachRate:9
SliderMultiplier:1.4
SliderTickRate:1

[Events]
//Background and Video events
0,0,"bg.jpg",0,0
//Break Periods
//Storyboard Layer 0 (Background)
//Storyboard Layer 1 (Fail)
//Storyboard Layer 2 (Pass)
//Storyboard Layer 3 (Foreground)
//Storyboard Sound Samples

[TimingPoints]
2486,625,4,1,0,100,1,0
22173,258.620689655172,4,1,0,100,1,0
68724,-100,4,1,0,100,0,1
101828,258.620689655172,3,1,0,100,1,0
114241,258.620689655172,4,1,0,100,1,0
155878,-100,4,1,0,100,0,1
172172,517.241379310345,4,1,0,100,1,0
188723,258.620689655172,4,1,0,100,1,1
203205,-100,4,1,0,100,0,0
211481,-100,4,1,0,100,0,1
219757,-83.3333333333333,4,1,0,100,0,1
223895,-71.4285714285714,4,1,0,100,0,1
225964,-62.5,4,1,0,100,0,1
228033,-50,4,1,0,100,0,0

[HitObjects]
160,192,1236,5,0,0:0:0:0:
352,192,1861,1,8,0:0:0:0:
160,192,2486,1,0,0:0:0:0:
352,192,3423,1,8,0:0:0:0:
160,192,3736,1,0,0:0:0:0:
160,192,4204,1,0,0:0:0:0:
160,192,4673,1,0,0:0:0:0:
352,192,4986,1,8,0:0:0:0:
160,192,6236,1,0,0:0:0:0:
352,192,6861,1,8,0:0:0:0:
160,192,7486,1,0,0:0:0:0:
352,192,8423,1,8,0:0:0:0:
160,192,8736,1,0,0:0:0:0:
160,192,9204,1,0,0:0:0:0:
352,192,9673,1,8,0:0:0:0:
160,192,9986,1,0,0:0:0:0:
160,192,11236,1,0,0:0:0:0:
160,192,11861,1,0,0:0:0:0:
352,192,12486,1,8,0:0:0:0:
352,192,13423,1,8,0:0:0:0:
160,192,13736,1,0,0:0:0:0:
160,192,14204,1,0,0:0:0:0:
160,192,14673,1,0,0:0:0:0:
352,192,14986,1,8,0:0:0:0:
352,192,15923,1,8,0:0:0:0:
160,192,16236,1,0,0:0:0:0:
352,192,16704,1,8,0:0:0:0:
352,192,17173,1,8,0:0:0:0:
160,192,17486,1,0,0:0:0:0:
352,192,19673,1,8,0:0:0:0:
352,192,19829,1,8,0:0:0:0:
160,192,19986,1,0,0:0:0:0:
160,192,22173,1,0,0:0:0:0:
160,192,22431,1,0,0:0:0:0:
352,192,22690,1,8,0:0:0:0:
160,192,22884,1,0,0:0:0:0:
352,192,22948,1,8,0:0:0:0:
352,192,23078,1,8,0:0:0:0:
160,192,23207,1,0,0:0:0:0:
352,192,23336,1,8,0:0:0:0:
160,192,23466,1,0,0:0:0:0:
352,192,23595,1,8,0:0:0:0:
160,192,23724,1,0,0:0:0:0:
352,192,23983,1,8,0:0:0:0:
160,192,24112,1,0,0:0:0:0:
160,192,24371,1,0,0:0:0:0:
352,192,24500,1,8,0:0:0:0:
352,192,24629,1,8,0:0:0:0:
160,192,24759,1,0,0:0:0:0:
160,192,25017,1,0,0:0:0:0:
160,192,25276,1,0,0:0:0:0:
352,192,25405,1,8,0:0:0:0:
160,192,25535,1,0,0:0:0:0:
352,192,25664,1,8,0:0:0:0:
160,192,25793,1,0,0:0:0:0:
352,192,26052,1,8,0:0:0:0:
160,192,26181,1,0,0:0:0:0:
160,192,26440,1,0,0:0:0:0:
352,192,26569,1,8,0:0:0:0:
352,192,26698,1,8,0:0:0:0:
160,192,26828,1,0,0:0:0:0:
160,192,27086,1,0,0:0:0:0:
160,192,27345,1,0,0:0:0:0:
352,192,27474,1,8,0:0:0:0:
160,192,27604,1,0,0:0:0:0:
352,192,27733,1,8,0:0:0:0:
160,192,27862,1,0,0:0:0:0:
352,192,28121,1,8,0:0:0:0:
160,192,28250,1,0,0:0:0:0:
160,192,28509,1,0,0:0:0:0:
352,192,28638,1,8,0:0:0:0:
352,192,28767,1,8,0:0:0:0:
160,192,28897,1,0,0:0:0:0:
160,192,29155,1,0,0:0:0:0:
160,192,29414,1,0,0:0:0:0:
352,192,29543,1,8,0:0:0:0:
160,192,29673,1,0,0:0:0:0:
352,192,29802,1,8,0:0:0:0:
160,192,29931,1,0,0:0:0:0:
352,192,30190,1,8,0:0:0:0:
160,192,30319,1,0,0:0:0:0:
160,192,30578,1,0,0:0:0:0:
352,192,30707,1,8,0:0:0:0:
160,192,30836,1,0,0:0:0:0:
352,192,30966,1,8,0:0:0:0:
352,192,31095,1,8,0:0:0:0:
160,192,31224,1,0,0:0:0:0:
160,192,31354,1,0,0:0:0:0:
160,192,31483,1,0,0:0:0:0:
352,192,31612,1,8,0:0:0:0:
160,192,31742,1,0,0:0:0:0:
352,192,31871,1,8,0:0:0:0:
160,192,32000,1,0,0:0:0:0:
352,192,32259,1,8,0:0:0:0:
160,192,32388,1,0,0:0:0:0:
160,192,32647,1,0,0:0:0:0:
352,192,32776,1,8,0:0:0:0:
352,192,32905,1,8,0:0:0:0:
160,192,33035,1,0,0:0:0:0:
160,192,33293,1,0,0:0:0:0:
160,192,33552,1,0,0:0:0:0:
352,192,33681,1,8,0:0:0:0:
160,192,33811,1,0,0:0:0:0:
352,192,33940,1,8,0:0:0:0:
160,192,34069,1,0,0:0:0:0:
352,192,34328,1,8,0:0:0:0:
160,192,34457,1,0,0:0:0:0:
160,192,34716,1,0,0:0:0:0:
352,192,34845,1,8,0:0:0:0:
352,192,34974,1,8,0:0:0:0:
160,192,35104,1,0,0:0:0:0:
160,192,35362,1,0,0:0:0:0:
160,192,35621,1,0,0:0:0:0:
352,192,35750,1,8,0:0:0:0:
160,192,35880,1,0,0:0:0:0:
352,192,36009,1,8,0:0:0:0:
160,192,36138,1,0,0:0:0:0:
352,192,36397,1,8,0:0:0:0:
160,192,36526,1,0,0:0:0:0:
160,192,36785,1,0,0:0:0:0:
352,192,36914,1,8,0:0:0:0:
352,192,37043,1,8,0:0:0:0:
160,192,37173,1,0,0:0:0:0:
160,192,37431,1,0,0:0:0:0:
160,96,37690,1,4,0:0:0:0:
352,192,37819,1,8,0:0:0:0:
160,192,37949,1,0,0:0:0:0:
352,192,38078,1,8,0:0:0:0:
160,192,38207,1,0,0:0:0:0:
160,192,38466,1,0,0:0:0:0:
352,64,38595,1,12,0:0:0:0:
160,192,38854,1,0,0:0:0:0:
352,192,38983,1,8,0:0:0:0:
160,192,39177,1,0,0:0:0:0:
352,192,39241,1,8,0:0:0:0:
352,192,39371,1,8,0:0:0:0:
160,192,39500,1,0,0:0:0:0:
160,192,39629,1,0,0:0:0:0:
352,64,39759,1,12,0:0:0:0:
160,192,39888,1,0,0:0:0:0:
352,192,40017,1,8,0:0:0:0:
352,192,40147,1,8,0:0:0:0:
160,192,40276,1,0,0:0:0:0:
160,192,40405,1,0,0:0:0:0:
160,192,40470,1,0,0:0:0:0:
352,192,40535,1,8,0:0:0:0:
160,192,40664,1,0,0:0:0:0:
160,192,40922,1,0,0:0:0:0:
352,192,41052,1,8,0:0:0:0:
352,192,41181,1,8,0:0:0:0:
160,192,41310,1,0,0:0:0:0:
160,192,41440,1,0,0:0:0:0:
352,192,41569,1,8,0:0:0:0:
160,192,41828,1,0,0:0:0:0:
352,192,41957,1,8,0:0:0:0:
160,192,42086,1,0,0:0:0:0:
352,192,42216,1,8,0:0:0:0:
160,192,42345,1,0,0:0:0:0:
160,192,42474,1,0,0:0:0:0:
160,192,42539,1,0,0:0:0:0:
352,192,42604,1,8,0:0:0:0:
160,192,42733,1,0,0:0:0:0:
160,192,42991,1,0,0:0:0:0:
352,192,43121,1,8,0:0:0:0:
352,192,43250,1,8,0:0:0:0:
160,192,43379,1,0,0:0:0:0:
160,192,43509,1,0,0:0:0:0:
352,192,43638,1,8,0:0:0:0:
160,192,43897,1,0,0:0:0:0:
352,192,44026,1,8,0:0:0:0:
160,192,44155,1,0,0:0:0:0:
352,192,44285,1,8,0:0:0:0:
160,192,44414,1,0,0:0:0:0:
160,192,44543,1,0,0:0:0:0:
160,192,44608,1,0,0:0:0:0:
352,192,44673,1,8,0:0:0:0:
160,192,44802,1,0,0:0:0:0:
160,192,45060,1,0,0:0:0:0:
352,192,45190,1,8,0:0:0:0:
352,192,45319,1,8,0:0:0:0:
160,192,45448,1,0,0:0:0:0:
160,192,45578,1,0,0:0:0:0:
352,192,45707,1,8,0:0:0:0:
160,192,45966,1,0,0:0:0:0:
352,192,46095,1,8,0:0:0:0:
160,192,46224,1,0,0:0:0:0:
352,192,46354,1,8,0:0:0:0:
160,192,46483,1,0,0:0:0:0:
160,192,46612,1,0,0:0:0:0:
160,192,46677,1,0,0:0:0:0:
352,192,46742,1,8,0:0:0:0:
160,192,46871,1,0,0:0:0:0:
160,192,47129,1,0,0:0:0:0:
352,192,47259,1,8,0:0:0:0:
160,192,47388,1,0,0:0:0:0:
352,192,47517,1,8,0:0:0:0:
352,192,47582,1,8,0:0:0:0:
160,192,47647,1,0,0:0:0:0:
352,192,47776,1,8,0:0:0:0:
352,192,47905,1,8,0:0:0:0:
160,192,48035,1,0,0:0:0:0:
352,192,48164,1,8,0:0:0:0:
160,192,48293,1,0,0:0:0:0:
352,192,48422,1,8,0:0:0:0:
160,192,48552,1,0,0:0:0:0:
160,192,48681,1,0,0:0:0:0:
160,192,48746,1,0,0:0:0:0:
352,192,48811,1,8,0:0:0:0:
160,192,48940,1,0,0:0:0:0:
160,192,49198,1,0,0:0:0:0:
352,192,49328,1,8,0:0:0:0:
352,192,49457,1,8,0:0:0:0:
160,192,49586,1,0,0:0:0:0:
160,192,49716,1,0,0:0:0:0:
352,192,49845,1,8,0:0:0:0:
160,192,50104,1,0,0:0:0:0:
352,192,50233,1,8,0:0:0:0:
160,192,50362,1,0,0:0:0:0:
352,192,50492,1,8,0:0:0:0:
160,192,50621,1,0,0:0:0:0:
160,192,50750,1,0,0:0:0:0:
160,192,50815,1,0,0:0:0:0:
352,192,50880,1,8,0:0:0:0:
160,192,51009,1,0,0:0:0:0:
160,192,51267,1,0,0:0:0:0:
352,192,51397,1,8,0:0:0:0:
352,192,51526,1,8,0:0:0:0:
160,192,51655,1,0,0:0:0:0:
160,192,51785,1,0,0:0:0:0:
352,192,51914,1,8,0:0:0:0:
160,192,52173,1,0,0:0:0:0:
352,192,52302,1,8,0:0:0:0:
160,192,52431,1,0,0:0:0:0:
352,192,52561,1,8,0:0:0:0:
160,192,52690,1,0,0:0:0:0:
160,192,52819,1,0,0:0:0:0:
160,192,52884,1,0,0:0:0:0:
352,192,52949,1,8,0:0:0:0:
160,192,53078,1,0,0:0:0:0:
160,192,53336,1,0,0:0:0:0:
352,192,53466,1,8,0:0:0:0:
352,192,53595,1,8,0:0:0:0:
160,192,53724,1,0,0:0:0:0:
160,192,53854,1,0,0:0:0:0:
352,192,53983,1,8,0:0:0:0:
160,192,54242,1,0,0:0:0:0:
352,192,54371,1,8,0:0:0:0:
160,192,54500,1,0,0:0:0:0:
352,192,54630,1,8,0:0:0:0:
160,192,54759,1,0,0:0:0:0:
160,192,54888,1,0,0:0:0:0:
160,192,54953,1,0,0:0:0:0:
352,192,55018,1,8,0:0:0:0:
160,192,55147,1,0,0:0:0:0:
160,192,55405,1,0,0:0:0:0:
352,192,55535,1,8,0:0:0:0:
160,192,55664,1,0,0:0:0:0:
352,192,55729,1,8,0:0:0:0:
160,192,55793,1,0,0:0:0:0:
352,192,55922,1,8,0:0:0:0:
352,192,56052,1,8,0:0:0:0:
160,192,56181,1,0,0:0:0:0:
352,96,56311,1,12,0:0:0:0:
160,96,56698,1,4,0:0:0:0:
352,96,57086,1,12,0:0:0:0:
160,96,57345,1,4,0:0:0:0:
160,96,57733,1,4,0:0:0:0:
352,96,58121,1,12,0:0:0:0:
352,96,58379,1,12,0:0:0:0:
160,96,58767,1,4,0:0:0:0:
352,96,59155,1,12,0:0:0:0:
160,96,59414,1,4,0:0:0:0:
160,96,59802,1,4,0:0:0:0:
352,96,60190,1,12,0:0:0:0:
256,192,60448,12,0,62259,0:0:0:0:
352,128,62517,5,12,0:0:0:0:
160,128,62905,1,4,0:0:0:0:
352,128,63293,1,12,0:0:0:0:
160,128,63552,1,4,0:0:0:0:
160,128,63940,1,4,0:0:0:0:
352,128,64328,1,12,0:0:0:0:
160,224,64586,1,0,0:0:0:0:
160,224,64845,1,0,0:0:0:0:
160,224,65104,1,0,0:0:0:0:
352,224,65297,1,8,0:0:0:0:
160,224,65362,1,0,0:0:0:0:
352,224,65491,1,8,0:0:0:0:
160,224,65621,1,0,0:0:0:0:
352,224,65750,1,8,0:0:0:0:
352,224,65879,1,8,0:0:0:0:
160,224,66138,1,0,0:0:0:0:
352,224,66332,1,8,0:0:0:0:
160,224,66397,1,0,0:0:0:0:
352,224,66526,1,8,0:0:0:0:
352,224,66655,1,8,0:0:0:0:
352,224,66914,1,8,0:0:0:0:
352,224,67172,1,8,0:0:0:0:
352,224,67431,1,8,0:0:0:0:
352,224,67560,1,8,0:0:0:0:
160,96,67690,1,4,0:0:0:0:
352,96,68207,1,12,0:0:0:0:
160,96,68724,1,4,0:0:0:0:
352,192,68983,1,8,0:0:0:0:
160,192,69112,1,0,0:0:0:0:
352,192,69241,1,8,0:0:0:0:
352,192,69306,1,8,0:0:0:0:
160,192,69371,1,0,0:0:0:0:
352,192,69500,1,8,0:0:0:0:
160,192,69759,1,0,0:0:0:0:
160,192,69888,1,0,0:0:0:0:
352,192,70017,1,8,0:0:0:0:
160,192,70147,1,0,0:0:0:0:
160,192,70211,1,0,0:0:0:0:
352,192,70276,1,8,0:0:0:0:
160,192,70405,1,0,0:0:0:0:
352,192,70535,1,8,0:0:0:0:
160,192,70793,1,0,0:0:0:0:
352,192,71052,1,8,0:0:0:0:
160,192,71181,1,0,0:0:0:0:
352,192,71310,1,8,0:0:0:0:
352,192,71375,1,8,0:0:0:0:
160,192,71440,1,0,0:0:0:0:
352,192,71569,1,8,0:0:0:0:
160,192,71828,1,0,0:0:0:0:
160,192,71957,1,0,0:0:0:0:
352,192,72086,1,8,0:0:0:0:
160,192,72216,1,0,0:0:0:0:
160,192,72280,1,0,0:0:0:0:
352,192,72345,1,8,0:0:0:0:
352,192,72604,1,8,0:0:0:0:
160,192,72862,1,0,0:0:0:0:
352,192,73121,1,8,0:0:0:0:
160,192,73250,1,0,0:0:0:0:
352,192,73379,1,8,0:0:0:0:
352,192,73444,1,8,0:0:0:0:
160,192,73509,1,0,0:0:0:0:
352,192,73638,1,8,0:0:0:0:
160,192,73897,1,0,0:0:0:0:
160,192,74026,1,0,0:0:0:0:
352,192,74155,1,8,0:0:0:0:
160,192,74285,1,0,0:0:0:0:
160,192,74349,1,0,0:0:0:0:
352,192,74414,1,8,0:0:0:0:
160,192,74543,1,0,0:0:0:0:
352,192,74673,1,8,0:0:0:0:
160,192,74931,1,0,0:0:0:0:
352,192,75190,1,8,0:0:0:0:
160,192,75319,1,0,0:0:0:0:
352,192,75448,1,8,0:0:0:0:
352,192,75513,1,8,0:0:0:0:
160,192,75578,1,0,0:0:0:0:
352,192,75707,1,8,0:0:0:0:
160,192,75966,1,0,0:0:0:0:
160,192,76095,1,0,0:0:0:0:
352,192,76224,1,8,0:0:0:0:
160,192,76354,1,0,0:0:0:0:
160,192,76418,1,0,0:0:0:0:
352,192,76483,1,8,0:0:0:0:
352,96,76742,1,12,0:0:0:0:
160,96,77000,1,4,0:0:0:0:
352,192,77259,1,8,0:0:0:0:
160,192,77517,1,0,0:0:0:0:
160,192,77647,1,0,0:0:0:0:
352,192,77776,1,8,0:0:0:0:
160,192,78035,1,0,0:0:0:0:
160,192,78164,1,0,0:0:0:0:
352,192,78293,1,8,0:0:0:0:
160,192,78422,1,0,0:0:0:0:
352,192,78487,1,8,0:0:0:0:
160,192,78552,1,0,0:0:0:0:
160,192,78681,1,0,0:0:0:0:
352,192,78810,1,8,0:0:0:0:
160,192,79069,1,0,0:0:0:0:
352,192,79328,1,8,0:0:0:0:
160,192,79586,1,0,0:0:0:0:
160,192,79716,1,0,0:0:0:0:
352,192,79845,1,8,0:0:0:0:
160,192,80104,1,0,0:0:0:0:
160,192,80233,1,0,0:0:0:0:
352,192,80362,1,8,0:0:0:0:
160,192,80491,1,0,0:0:0:0:
352,192,80556,1,8,0:0:0:0:
352,192,80621,1,8,0:0:0:0:
352,192,80750,1,8,0:0:0:0:
160,192,80879,1,0,0:0:0:0:
160,192,81138,1,0,0:0:0:0:
352,192,81397,1,8,0:0:0:0:
160,192,81655,1,0,0:0:0:0:
160,192,81785,1,0,0:0:0:0:
352,192,81914,1,8,0:0:0:0:
160,192,82172,1,0,0:0:0:0:
160,192,82302,1,0,0:0:0:0:
352,192,82431,1,8,0:0:0:0:
352,192,82690,1,8,0:0:0:0:
160,192,82819,1,0,0:0:0:0:
352,192,82948,1,8,0:0:0:0:
352,192,83078,1,8,0:0:0:0:
160,192,83207,1,0,0:0:0:0:
352,192,83466,1,8,0:0:0:0:
160,192,83724,1,0,0:0:0:0:
160,192,83854,1,0,0:0:0:0:
352,192,83983,1,8,0:0:0:0:
160,192,84241,1,0,0:0:0:0:
160,192,84371,1,0,0:0:0:0:
352,192,84500,1,8,0:0:0:0:
160,192,84759,1,0,0:0:0:0:
160,192,84888,1,0,0:0:0:0:
352,64,85017,1,12,0:0:0:0:
160,96,85276,1,4,0:0:0:0:
352,192,85535,1,8,0:0:0:0:
160,192,85664,1,0,0:0:0:0:
352,192,85793,1,8,0:0:0:0:
352,192,85858,1,8,0:0:0:0:
160,192,85923,1,0,0:0:0:0:
352,192,86052,1,8,0:0:0:0:
160,192,86311,1,0,0:0:0:0:
160,192,86440,1,0,0:0:0:0:
352,192,86569,1,8,0:0:0:0:
160,192,86699,1,0,0:0:0:0:
160,192,86763,1,0,0:0:0:0:
352,192,86828,1,8,0:0:0:0:
160,192,86957,1,0,0:0:0:0:
352,192,87087,1,8,0:0:0:0:
160,192,87345,1,0,0:0:0:0:
352,192,87604,1,8,0:0:0:0:
160,192,87733,1,0,0:0:0:0:
352,192,87862,1,8,0:0:0:0:
352,192,87927,1,8,0:0:0:0:
160,192,87992,1,0,0:0:0:0:
352,192,88121,1,8,0:0:0:0:
160,192,88380,1,0,0:0:0:0:
160,192,88509,1,0,0:0:0:0:
352,192,88638,1,8,0:0:0:0:
160,192,88768,1,0,0:0:0:0:
160,192,88832,1,0,0:0:0:0:
352,192,88897,1,8,0:0:0:0:
352,192,89156,1,8,0:0:0:0:
160,192,89414,1,0,0:0:0:0:
352,192,89673,1,8,0:0:0:0:
160,192,89802,1,0,0:0:0:0:
352,192,89931,1,8,0:0:0:0:
352,192,89996,1,8,0:0:0:0:
160,192,90061,1,0,0:0:0:0:
352,192,90190,1,8,0:0:0:0:
160,192,90449,1,0,0:0:0:0:
160,192,90578,1,0,0:0:0:0:
352,192,90707,1,8,0:0:0:0:
160,192,90837,1,0,0:0:0:0:
160,192,90901,1,0,0:0:0:0:
352,192,90966,1,8,0:0:0:0:
160,192,91095,1,0,0:0:0:0:
352,192,91225,1,8,0:0:0:0:
160,192,91483,1,0,0:0:0:0:
352,192,91742,1,8,0:0:0:0:
160,192,91871,1,0,0:0:0:0:
352,192,92000,1,8,0:0:0:0:
352,192,92065,1,8,0:0:0:0:
160,192,92130,1,0,0:0:0:0:
352,192,92259,1,8,0:0:0:0:
160,192,92518,1,0,0:0:0:0:
160,192,92647,1,0,0:0:0:0:
352,192,92776,1,8,0:0:0:0:
160,192,92906,1,0,0:0:0:0:
160,192,92970,1,0,0:0:0:0:
352,192,93035,1,8,0:0:0:0:
352,96,93294,1,12,0:0:0:0:
160,96,93552,1,4,0:0:0:0:
352,192,93811,1,8,0:0:0:0:
160,192,94069,1,0,0:0:0:0:
160,192,94199,1,0,0:0:0:0:
352,192,94328,1,8,0:0:0:0:
160,192,94587,1,0,0:0:0:0:
160,192,94716,1,0,0:0:0:0:
352,192,94845,1,8,0:0:0:0:
160,192,94974,1,0,0:0:0:0:
352,192,95039,1,8,0:0:0:0:
160,192,95104,1,0,0:0:0:0:
160,192,95233,1,0,0:0:0:0:
352,192,95362,1,8,0:0:0:0:
160,192,95621,1,0,0:0:0:0:
352,192,95880,1,8,0:0:0:0:
160,192,96138,1,0,0:0:0:0:
160,192,96268,1,0,0:0:0:0:
352,192,96397,1,8,0:0:0:0:
160,192,96656,1,0,0:0:0:0:
160,192,96785,1,0,0:0:0:0:
352,192,96914,1,8,0:0:0:0:
160,192,97043,1,0,0:0:0:0:
352,192,97108,1,8,0:0:0:0:
352,192,97173,1,8,0:0:0:0:
352,192,97302,1,8,0:0:0:0:
160,192,97431,1,0,0:0:0:0:
160,192,97690,1,0,0:0:0:0:
352,192,97949,1,8,0:0:0:0:
160,192,98207,1,0,0:0:0:0:
160,192,98337,1,0,0:0:0:0:
352,192,98466,1,8,0:0:0:0:
160,192,98724,1,0,0:0:0:0:
160,192,98854,1,0,0:0:0:0:
352,192,98983,1,8,0:0:0:0:
352,192,99242,1,8,0:0:0:0:
160,192,99371,1,0,0:0:0:0:
352,192,99500,1,8,0:0:0:0:
352,192,99630,1,8,0:0:0:0:
160,192,99759,1,0,0:0:0:0:
160,192,100147,1,0,0:0:0:0:
352,192,100276,1,8,0:0:0:0:
352,192,100664,1,8,0:0:0:0:
352,192,100922,1,8,0:0:0:0:
160,192,101052,1,0,0:0:0:0:
352,192,101310,1,8,0:0:0:0:
352,192,101569,1,8,0:0:0:0:
160,96,101828,1,4,0:0:0:0:
160,96,102603,1,4,0:0:0:0:
160,96,103379,1,4,0:0:0:0:
160,96,104155,1,4,0:0:0:0:
160,96,104931,1,4,0:0:0:0:
160,96,105706,1,4,0:0:0:0:
160,96,106482,1,4,0:0:0:0:
160,96,107258,1,4,0:0:0:0:
352,192,107517,1,8,0:0:0:0:
160,192,107646,1,0,0:0:0:0:
160,192,107776,1,0,0:0:0:0:
160,192,107905,1,0,0:0:0:0:
352,96,108034,1,12,0:0:0:0:
160,192,108164,1,0,0:0:0:0:
160,192,108293,1,0,0:0:0:0:
352,192,108422,1,8,0:0:0:0:
160,192,108552,1,0,0:0:0:0:
352,96,108810,1,12,0:0:0:0:
160,192,108940,1,0,0:0:0:0:
160,192,109069,1,0,0:0:0:0:
352,192,109198,1,8,0:0:0:0:
160,192,109327,1,0,0:0:0:0:
352,96,109586,1,12,0:0:0:0:
160,192,109715,1,0,0:0:0:0:
352,192,109845,1,8,0:0:0:0:
352,192,109974,1,8,0:0:0:0:
160,192,110103,1,0,0:0:0:0:
352,96,110362,1,12,0:0:0:0:
160,192,110491,1,0,0:0:0:0:
160,192,110621,1,0,0:0:0:0:
352,192,110750,1,8,0:0:0:0:
160,192,110879,1,0,0:0:0:0:
352,96,111138,1,12,0:0:0:0:
160,192,111267,1,0,0:0:0:0:
160,192,111396,1,0,0:0:0:0:
352,192,111526,1,8,0:0:0:0:
160,192,111655,1,0,0:0:0:0:
352,96,111914,1,12,0:0:0:0:
160,192,112043,1,0,0:0:0:0:
160,192,112172,1,0,0:0:0:0:
352,192,112302,1,8,0:0:0:0:
352,192,112431,1,8,0:0:0:0:
160,192,112690,1,0,0:0:0:0:
352,192,112948,1,8,0:0:0:0:
352,192,113207,1,8,0:0:0:0:
352,192,113465,1,8,0:0:0:0:
160,192,113724,1,0,0:0:0:0:
352,192,113983,1,8,0:0:0:0:
160,64,114241,1,4,0:0:0:0:
352,192,114370,1,8,0:0:0:0:
352,192,114435,1,8,0:0:0:0:
160,192,114499,1,0,0:0:0:0:
352,192,114629,1,8,0:0:0:0:
160,192,114758,1,0,0:0:0:0:
160,192,114887,1,0,0:0:0:0:
352,192,115017,1,8,0:0:0:0:
160,192,115146,1,0,0:0:0:0:
160,192,115404,1,0,0:0:0:0:
352,192,115534,1,8,0:0:0:0:
352,192,115663,1,8,0:0:0:0:
160,192,115792,1,0,0:0:0:0:
352,192,116051,1,8,0:0:0:0:
160,192,116310,1,0,0:0:0:0:
352,192,116439,1,8,0:0:0:0:
352,192,116504,1,8,0:0:0:0:
160,192,116568,1,0,0:0:0:0:
352,192,116698,1,8,0:0:0:0:
160,192,116827,1,0,0:0:0:0:
160,192,116956,1,0,0:0:0:0:
352,192,117086,1,8,0:0:0:0:
160,192,117215,1,0,0:0:0:0:
160,192,117473,1,0,0:0:0:0:
352,192,117603,1,8,0:0:0:0:
352,192,117732,1,8,0:0:0:0:
160,192,117861,1,0,0:0:0:0:
352,192,118120,1,8,0:0:0:0:
160,192,118379,1,0,0:0:0:0:
352,192,118508,1,8,0:0:0:0:
352,192,118573,1,8,0:0:0:0:
160,192,118637,1,0,0:0:0:0:
352,192,118767,1,8,0:0:0:0:
160,192,118896,1,0,0:0:0:0:
160,192,119025,1,0,0:0:0:0:
352,192,119155,1,8,0:0:0:0:
160,192,119284,1,0,0:0:0:0:
160,192,119542,1,0,0:0:0:0:
352,192,119672,1,8,0:0:0:0:
352,192,119801,1,8,0:0:0:0:
160,192,119930,1,0,0:0:0:0:
352,192,120189,1,8,0:0:0:0:
160,192,120448,1,0,0:0:0:0:
352,192,120577,1,8,0:0:0:0:
352,192,120641,1,8,0:0:0:0:
160,192,120706,1,0,0:0:0:0:
352,192,120836,1,8,0:0:0:0:
160,192,120965,1,0,0:0:0:0:
160,192,121094,1,0,0:0:0:0:
352,192,121224,1,8,0:0:0:0:
160,192,121353,1,0,0:0:0:0:
160,192,121418,1,0,0:0:0:0:
352,192,121482,1,8,0:0:0:0:
352,192,121611,1,8,0:0:0:0:
160,192,121870,1,0,0:0:0:0:
352,192,121999,1,8,0:0:0:0:
352,192,122064,1,8,0:0:0:0:
160,192,122129,1,0,0:0:0:0:
352,96,122258,1,12,0:0:0:0:
160,64,122516,1,4,0:0:0:0:
352,192,122645,1,8,0:0:0:0:
352,192,122710,1,8,0:0:0:0:
160,192,122774,1,0,0:0:0:0:
352,192,122904,1,8,0:0:0:0:
160,192,123033,1,0,0:0:0:0:
160,192,123162,1,0,0:0:0:0:
352,192,123292,1,8,0:0:0:0:
160,192,123421,1,0,0:0:0:0:
160,192,123679,1,0,0:0:0:0:
352,192,123809,1,8,0:0:0:0:
352,192,123938,1,8,0:0:0:0:
160,192,124067,1,0,0:0:0:0:
352,192,124326,1,8,0:0:0:0:
160,192,124585,1,0,0:0:0:0:
352,192,124714,1,8,0:0:0:0:
352,192,124779,1,8,0:0:0:0:
160,192,124843,1,0,0:0:0:0:
352,192,124973,1,8,0:0:0:0:
160,192,125102,1,0,0:0:0:0:
160,192,125231,1,0,0:0:0:0:
352,192,125361,1,8,0:0:0:0:
160,192,125490,1,0,0:0:0:0:
160,192,125748,1,0,0:0:0:0:
352,192,125878,1,8,0:0:0:0:
352,192,126007,1,8,0:0:0:0:
160,192,126136,1,0,0:0:0:0:
352,192,126395,1,8,0:0:0:0:
160,192,126654,1,0,0:0:0:0:
352,192,126783,1,8,0:0:0:0:
352,192,126848,1,8,0:0:0:0:
160,192,126912,1,0,0:0:0:0:
352,192,127042,1,8,0:0:0:0:
160,192,127171,1,0,0:0:0:0:
160,192,127300,1,0,0:0:0:0:
352,192,127430,1,8,0:0:0:0:
160,192,127559,1,0,0:0:0:0:
160,192,127817,1,0,0:0:0:0:
352,192,127947,1,8,0:0:0:0:
352,192,128076,1,8,0:0:0:0:
160,192,128205,1,0,0:0:0:0:
352,192,128464,1,8,0:0:0:0:
160,192,128723,1,0,0:0:0:0:
352,192,128852,1,8,0:0:0:0:
352,192,128916,1,8,0:0:0:0:
160,192,128981,1,0,0:0:0:0:
352,192,129111,1,8,0:0:0:0:
160,192,129240,1,0,0:0:0:0:
160,192,129369,1,0,0:0:0:0:
352,192,129499,1,8,0:0:0:0:
160,192,129628,1,0,0:0:0:0:
160,192,129693,1,0,0:0:0:0:
352,192,129757,1,8,0:0:0:0:
352,192,129886,1,8,0:0:0:0:
160,192,130145,1,0,0:0:0:0:
352,192,130274,1,8,0:0:0:0:
352,192,130339,1,8,0:0:0:0:
160,192,130404,1,0,0:0:0:0:
352,192,130534,1,8,0:0:0:0:
352,192,130663,1,8,0:0:0:0:
160,64,130792,1,4,0:0:0:0:
352,192,130921,1,8,0:0:0:0:
352,192,130986,1,8,0:0:0:0:
160,192,131050,1,0,0:0:0:0:
352,192,131180,1,8,0:0:0:0:
160,192,131309,1,0,0:0:0:0:
160,192,131438,1,0,0:0:0:0:
352,192,131568,1,8,0:0:0:0:
160,192,131697,1,0,0:0:0:0:
160,192,131955,1,0,0:0:0:0:
352,192,132085,1,8,0:0:0:0:
352,192,132214,1,8,0:0:0:0:
160,192,132343,1,0,0:0:0:0:
352,192,132602,1,8,0:0:0:0:
160,192,132861,1,0,0:0:0:0:
352,192,132990,1,8,0:0:0:0:
352,192,133055,1,8,0:0:0:0:
160,192,133119,1,0,0:0:0:0:
352,192,133249,1,8,0:0:0:0:
160,192,133378,1,0,0:0:0:0:
160,192,133507,1,0,0:0:0:0:
352,192,133637,1,8,0:0:0:0:
160,192,133766,1,0,0:0:0:0:
160,192,134024,1,0,0:0:0:0:
352,192,134154,1,8,0:0:0:0:
352,192,134283,1,8,0:0:0:0:
160,192,134412,1,0,0:0:0:0:
352,192,134671,1,8,0:0:0:0:
160,192,134930,1,0,0:0:0:0:
352,192,135059,1,8,0:0:0:0:
352,192,135124,1,8,0:0:0:0:
160,192,135188,1,0,0:0:0:0:
352,192,135318,1,8,0:0:0:0:
160,192,135447,1,0,0:0:0:0:
160,192,135576,1,0,0:0:0:0:
352,192,135706,1,8,0:0:0:0:
160,192,135835,1,0,0:0:0:0:
160,192,136093,1,0,0:0:0:0:
352,192,136223,1,8,0:0:0:0:
352,192,136352,1,8,0:0:0:0:
160,192,136481,1,0,0:0:0:0:
352,192,136740,1,8,0:0:0:0:
160,192,136999,1,0,0:0:0:0:
352,192,137128,1,8,0:0:0:0:
352,192,137192,1,8,0:0:0:0:
160,192,137257,1,0,0:0:0:0:
352,192,137387,1,8,0:0:0:0:
160,192,137516,1,0,0:0:0:0:
160,192,137645,1,0,0:0:0:0:
352,192,137775,1,8,0:0:0:0:
160,192,137904,1,0,0:0:0:0:
160,192,137969,1,0,0:0:0:0:
352,192,138033,1,8,0:0:0:0:
352,192,138162,1,8,0:0:0:0:
160,192,138421,1,0,0:0:0:0:
352,192,138550,1,8,0:0:0:0:
352,192,138615,1,8,0:0:0:0:
160,192,138680,1,0,0:0:0:0:
352,96,138809,1,12,0:0:0:0:
160,64,139068,1,4,0:0:0:0:
352,192,139197,1,8,0:0:0:0:
352,192,139262,1,8,0:0:0:0:
160,192,139326,1,0,0:0:0:0:
352,192,139456,1,8,0:0:0:0:
160,192,139585,1,0,0:0:0:0:
160,192,139714,1,0,0:0:0:0:
352,192,139844,1,8,0:0:0:0:
160,192,139973,1,0,0:0:0:0:
160,192,140231,1,0,0:0:0:0:
352,192,140361,1,8,0:0:0:0:
352,192,140490,1,8,0:0:0:0:
160,192,140619,1,0,0:0:0:0:
352,192,140878,1,8,0:0:0:0:
160,192,141137,1,0,0:0:0:0:
352,192,141266,1,8,0:0:0:0:
352,192,141331,1,8,0:0:0:0:
160,192,141395,1,0,0:0:0:0:
352,192,141525,1,8,0:0:0:0:
160,192,141654,1,0,0:0:0:0:
160,192,141783,1,0,0:0:0:0:
352,192,141913,1,8,0:0:0:0:
160,192,142042,1,0,0:0:0:0:
160,192,142300,1,0,0:0:0:0:
352,192,142430,1,8,0:0:0:0:
352,192,142559,1,8,0:0:0:0:
160,192,142688,1,0,0:0:0:0:
352,192,142947,1,8,0:0:0:0:
160,192,143206,1,0,0:0:0:0:
352,192,143335,1,8,0:0:0:0:
352,192,143400,1,8,0:0:0:0:
160,192,143464,1,0,0:0:0:0:
352,192,143594,1,8,0:0:0:0:
160,192,143723,1,0,0:0:0:0:
160,192,143852,1,0,0:0:0:0:
352,192,143982,1,8,0:0:0:0:
160,192,144111,1,0,0:0:0:0:
160,192,144369,1,0,0:0:0:0:
352,192,144499,1,8,0:0:0:0:
352,192,144628,1,8,0:0:0:0:
160,192,144757,1,0,0:0:0:0:
352,192,145016,1,8,0:0:0:0:
160,192,145275,1,0,0:0:0:0:
352,96,145534,1,12,0:0:0:0:
160,192,145792,1,0,0:0:0:0:
160,192,145922,1,0,0:0:0:0:
352,96,146051,1,12,0:0:0:0:
160,192,146309,1,0,0:0:0:0:
160,192,146439,1,0,0:0:0:0:
352,96,146568,1,12,0:0:0:0:
160,192,146827,1,0,0:0:0:0:
160,192,146956,1,0,0:0:0:0:
352,96,147085,1,12,0:0:0:0:
160,96,147344,1,4,0:0:0:0:
160,192,148896,1,0,0:0:0:0:
160,192,149154,1,0,0:0:0:0:
352,192,149413,1,8,0:0:0:0:
160,192,150189,1,0,0:0:0:0:
352,192,150447,1,8,0:0:0:0:
160,192,150577,1,0,0:0:0:0:
160,192,150835,1,0,0:0:0:0:
352,192,151223,1,8,0:0:0:0:
160,192,151482,1,0,0:0:0:0:
160,192,152516,1,0,0:0:0:0:
160,192,152904,1,0,0:0:0:0:
352,192,153292,1,8,0:0:0:0:
160,192,153551,1,0,0:0:0:0:
160,96,154585,1,4,0:0:0:0:
160,96,154973,1,4,0:0:0:0:
352,96,155361,1,12,0:0:0:0:
160,192,155620,1,0,0:0:0:0:
160,192,155684,1,0,0:0:0:0:
160,192,155749,1,0,0:0:0:0:
352,96,155878,1,12,0:0:0:0:
160,192,156137,1,0,0:0:0:0:
160,192,156266,1,0,0:0:0:0:
352,192,156396,1,8,0:0:0:0:
160,192,156525,1,0,0:0:0:0:
352,192,156654,1,8,0:0:0:0:
160,192,156784,1,0,0:0:0:0:
160,192,156913,1,0,0:0:0:0:
160,192,157042,1,0,0:0:0:0:
352,192,157172,1,8,0:0:0:0:
160,192,157301,1,0,0:0:0:0:
352,192,157430,1,8,0:0:0:0:
352,192,157559,1,8,0:0:0:0:
352,192,157689,1,8,0:0:0:0:
352,192,157883,1,8,0:0:0:0:
352,192,158077,1,8,0:0:0:0:
352,192,158206,1,8,0:0:0:0:
160,192,158335,1,0,0:0:0:0:
160,192,158465,1,0,0:0:0:0:
352,192,158594,1,8,0:0:0:0:
160,192,158723,1,0,0:0:0:0:
160,192,158853,1,0,0:0:0:0:
352,192,158982,1,8,0:0:0:0:
352,192,159111,1,8,0:0:0:0:
352,192,159240,1,8,0:0:0:0:
160,192,159370,1,0,0:0:0:0:
352,192,159499,1,8,0:0:0:0:
160,192,159628,1,0,0:0:0:0:
352,192,159758,1,8,0:0:0:0:
160,192,159887,1,0,0:0:0:0:
160,192,160016,1,0,0:0:0:0:
352,192,160146,1,8,0:0:0:0:
352,192,160275,1,8,0:0:0:0:
160,192,160404,1,0,0:0:0:0:
352,192,160534,1,8,0:0:0:0:
352,192,160663,1,8,0:0:0:0:
160,192,160792,1,0,0:0:0:0:
160,192,160922,1,0,0:0:0:0:
352,192,161051,1,8,0:0:0:0:
160,192,161180,1,0,0:0:0:0:
352,192,161309,1,8,0:0:0:0:
160,192,161439,1,0,0:0:0:0:
352,192,161568,1,8,0:0:0:0:
352,192,161697,1,8,0:0:0:0:
352,192,161827,1,8,0:0:0:0:
352,192,162021,1,8,0:0:0:0:
352,192,162215,1,8,0:0:0:0:
352,192,162409,1,8,0:0:0:0:
160,192,162603,1,0,0:0:0:0:
352,192,162732,1,8,0:0:0:0:
352,192,162861,1,8,0:0:0:0:
160,192,162990,1,0,0:0:0:0:
352,192,163120,1,8,0:0:0:0:
160,192,163249,1,0,0:0:0:0:
352,192,163378,1,8,0:0:0:0:
352,192,163443,1,8,0:0:0:0:
160,192,163508,1,0,0:0:0:0:
352,192,163637,1,8,0:0:0:0:
352,192,163702,1,8,0:0:0:0:
160,192,163766,1,0,0:0:0:0:
352,96,163896,1,12,0:0:0:0:
352,192,164154,1,8,0:0:0:0:
160,192,164284,1,0,0:0:0:0:
160,192,164413,1,0,0:0:0:0:
352,192,164542,1,8,0:0:0:0:
352,192,164672,1,8,0:0:0:0:
160,192,164801,1,0,0:0:0:0:
352,192,164930,1,8,0:0:0:0:
160,192,165059,1,0,0:0:0:0:
160,192,165189,1,0,0:0:0:0:
352,192,165318,1,8,0:0:0:0:
352,192,165447,1,8,0:0:0:0:
160,192,165577,1,0,0:0:0:0:
160,192,165706,1,0,0:0:0:0:
352,192,165835,1,8,0:0:0:0:
352,192,165965,1,8,0:0:0:0:
160,192,166094,1,0,0:0:0:0:
352,192,166223,1,8,0:0:0:0:
160,192,166353,1,0,0:0:0:0:
352,192,166482,1,8,0:0:0:0:
160,192,166611,1,0,0:0:0:0:
352,192,166740,1,8,0:0:0:0:
352,192,166870,1,8,0:0:0:0:
160,192,166999,1,0,0:0:0:0:
352,192,167193,1,8,0:0:0:0:
160,192,167387,1,0,0:0:0:0:
352,192,167581,1,8,0:0:0:0:
160,192,167775,1,0,0:0:0:0:
352,192,167904,1,8,0:0:0:0:
160,192,168034,1,0,0:0:0:0:
160,192,168163,1,0,0:0:0:0:
352,192,168292,1,8,0:0:0:0:
352,192,168422,1,8,0:0:0:0:
160,192,168551,1,0,0:0:0:0:
160,192,168680,1,0,0:0:0:0:
352,192,168809,1,8,0:0:0:0:
352,192,168939,1,8,0:0:0:0:
160,192,169068,1,0,0:0:0:0:
352,192,169197,1,8,0:0:0:0:
160,192,169327,1,0,0:0:0:0:
352,192,169456,1,8,0:0:0:0:
160,192,169585,1,0,0:0:0:0:
352,192,169715,1,8,0:0:0:0:
160,192,169844,1,0,0:0:0:0:
352,192,169973,1,8,0:0:0:0:
352,192,170103,1,8,0:0:0:0:
160,192,170232,1,0,0:0:0:0:
352,192,170361,1,8,0:0:0:0:
160,192,170490,1,0,0:0:0:0:
160,192,170555,1,0,0:0:0:0:
352,192,170620,1,8,0:0:0:0:
160,192,170749,1,0,0:0:0:0:
352,192,170878,1,8,0:0:0:0:
160,192,171008,1,0,0:0:0:0:
352,192,171137,1,8,0:0:0:0:
160,192,171266,1,0,0:0:0:0:
352,192,171396,1,8,0:0:0:0:
160,192,171525,1,0,0:0:0:0:
352,192,171654,1,8,0:0:0:0:
352,192,171719,1,8,0:0:0:0:
352,192,171784,1,8,0:0:0:0:
352,192,171848,1,8,0:0:0:0:
352,192,171913,1,8,0:0:0:0:
352,192,171978,1,8,0:0:0:0:
352,192,172042,1,8,0:0:0:0:
352,192,172107,1,8,0:0:0:0:
160,96,172172,1,4,0:0:0:0:
160,192,173206,1,0,0:0:0:0:
160,192,174240,1,0,0:0:0:0:
160,192,174758,1,0,0:0:0:0:
352,192,175275,1,8,0:0:0:0:
352,192,176309,1,8,0:0:0:0:
160,192,177344,1,0,0:0:0:0:
352,192,178378,1,8,0:0:0:0:
352,192,178896,1,8,0:0:0:0:
352,192,179413,1,8,0:0:0:0:
352,192,180447,1,8,0:0:0:0:
352,192,180577,1,8,0:0:0:0:
160,192,180706,1,0,0:0:0:0:
160,192,180835,1,0,0:0:0:0:
352,192,180965,1,8,0:0:0:0:
160,192,181223,1,0,0:0:0:0:
352,192,181482,1,8,0:0:0:0:
160,192,181870,1,0,0:0:0:0:
160,192,182258,1,0,0:0:0:0:
160,192,182387,1,0,0:0:0:0:
352,192,182516,1,8,0:0:0:0:
352,192,182904,1,8,0:0:0:0:
160,192,183163,1,0,0:0:0:0:
352,192,183292,1,8,0:0:0:0:
160,192,183551,1,0,0:0:0:0:
352,192,184585,1,8,0:0:0:0:
352,192,184715,1,8,0:0:0:0:
160,192,184844,1,0,0:0:0:0:
160,192,184973,1,0,0:0:0:0:
352,192,185103,1,8,0:0:0:0:
160,192,185361,1,0,0:0:0:0:
352,192,185620,1,8,0:0:0:0:
160,192,186008,1,0,0:0:0:0:
160,192,186396,1,0,0:0:0:0:
160,192,186525,1,0,0:0:0:0:
352,192,186654,1,8,0:0:0:0:
160,192,187042,1,0,0:0:0:0:
160,192,187301,1,0,0:0:0:0:
352,192,187430,1,8,0:0:0:0:
160,192,187689,1,0,0:0:0:0:
352,192,187947,1,8,0:0:0:0:
352,192,188206,1,8,0:0:0:0:
352,192,188465,1,8,0:0:0:0:
160,96,188723,1,4,0:0:0:0:
160,192,188852,1,0,0:0:0:0:
352,192,188981,1,8,0:0:0:0:
352,192,189110,1,8,0:0:0:0:
160,192,189240,1,0,0:0:0:0:
352,192,189369,1,8,0:0:0:0:
352,192,189434,1,8,0:0:0:0:
160,192,189498,1,0,0:0:0:0:
352,192,189628,1,8,0:0:0:0:
160,192,189757,1,0,0:0:0:0:
352,192,190016,1,8,0:0:0:0:
160,192,190145,1,0,0:0:0:0:
160,192,190404,1,0,0:0:0:0:
352,192,190533,1,8,0:0:0:0:
352,192,190662,1,8,0:0:0:0:
160,192,190791,1,0,0:0:0:0:
160,192,190921,1,0,0:0:0:0:
352,192,191050,1,8,0:0:0:0:
352,192,191179,1,8,0:0:0:0:
160,192,191309,1,0,0:0:0:0:
160,192,191438,1,0,0:0:0:0:
352,192,191567,1,8,0:0:0:0:
352,192,191697,1,8,0:0:0:0:
160,192,191826,1,0,0:0:0:0:
160,192,191891,1,0,0:0:0:0:
160,192,191955,1,0,0:0:0:0:
352,192,192085,1,8,0:0:0:0:
352,192,192149,1,8,0:0:0:0:
352,192,192214,1,8,0:0:0:0:
160,192,192343,1,0,0:0:0:0:
352,192,192602,1,8,0:0:0:0:
160,192,192731,1,0,0:0:0:0:
352,192,192860,1,8,0:0:0:0:
352,192,192990,1,8,0:0:0:0:
160,192,193119,1,0,0:0:0:0:
160,192,193248,1,0,0:0:0:0:
352,192,193378,1,8,0:0:0:0:
160,192,193507,1,0,0:0:0:0:
352,192,193636,1,8,0:0:0:0:
352,192,193766,1,8,0:0:0:0:
160,192,193895,1,0,0:0:0:0:
160,192,193960,1,0,0:0:0:0:
160,192,194024,1,0,0:0:0:0:
352,192,194154,1,8,0:0:0:0:
160,192,194283,1,0,0:0:0:0:
160,192,194348,1,0,0:0:0:0:
160,192,194412,1,0,0:0:0:0:
160,192,194541,1,0,0:0:0:0:
352,192,194671,1,8,0:0:0:0:
352,192,194800,1,8,0:0:0:0:
160,192,194929,1,0,0:0:0:0:
352,192,195188,1,8,0:0:0:0:
352,192,195317,1,8,0:0:0:0:
160,192,195447,1,0,0:0:0:0:
160,192,195576,1,0,0:0:0:0:
352,192,195705,1,8,0:0:0:0:
352,192,195835,1,8,0:0:0:0:
160,96,195964,1,4,0:0:0:0:
352,96,196223,1,12,0:0:0:0:
160,96,196481,1,4,0:0:0:0:
352,96,196740,1,12,0:0:0:0:
160,192,196998,1,0,0:0:0:0:
160,192,197128,1,0,0:0:0:0:
352,192,197256,1,8,0:0:0:0:
352,192,197385,1,8,0:0:0:0:
160,192,197515,1,0,0:0:0:0:
352,192,197644,1,8,0:0:0:0:
352,192,197709,1,8,0:0:0:0:
160,192,197773,1,0,0:0:0:0:
352,192,197903,1,8,0:0:0:0:
160,192,198032,1,0,0:0:0:0:
352,192,198291,1,8,0:0:0:0:
160,192,198420,1,0,0:0:0:0:
160,192,198679,1,0,0:0:0:0:
352,192,198808,1,8,0:0:0:0:
352,192,198937,1,8,0:0:0:0:
160,192,199066,1,0,0:0:0:0:
160,192,199197,1,0,0:0:0:0:
352,192,199326,1,8,0:0:0:0:
352,192,199454,1,8,0:0:0:0:
160,192,199584,1,0,0:0:0:0:
160,192,199713,1,0,0:0:0:0:
352,192,199842,1,8,0:0:0:0:
352,192,199972,1,8,0:0:0:0:
160,192,200101,1,0,0:0:0:0:
160,192,200166,1,0,0:0:0:0:
160,192,200230,1,0,0:0:0:0:
352,192,200360,1,8,0:0:0:0:
352,192,200424,1,8,0:0:0:0:
352,192,200489,1,8,0:0:0:0:
160,192,200619,1,0,0:0:0:0:
352,192,200877,1,8,0:0:0:0:
160,192,201006,1,0,0:0:0:0:
352,192,201135,1,8,0:0:0:0:
352,192,201265,1,8,0:0:0:0:
160,192,201394,1,0,0:0:0:0:
160,192,201523,1,0,0:0:0:0:
352,192,201653,1,8,0:0:0:0:
160,192,201782,1,0,0:0:0:0:
352,192,201911,1,8,0:0:0:0:
352,192,202041,1,8,0:0:0:0:
160,192,202170,1,0,0:0:0:0:
160,192,202235,1,0,0:0:0:0:
160,192,202300,1,0,0:0:0:0:
352,192,202429,1,8,0:0:0:0:
160,192,202558,1,0,0:0:0:0:
160,192,202623,1,0,0:0:0:0:
160,192,202687,1,0,0:0:0:0:
160,192,202817,1,0,0:0:0:0:
352,192,202947,1,8,0:0:0:0:
352,192,203076,1,8,0:0:0:0:
160,96,203204,1,4,0:0:0:0:
352,192,203463,1,8,0:0:0:0:
160,192,203593,1,0,0:0:0:0:
352,192,203852,1,8,0:0:0:0:
160,192,203981,1,0,0:0:0:0:
160,192,204046,1,0,0:0:0:0:
160,192,204110,1,0,0:0:0:0:
352,192,204240,1,8,0:0:0:0:
160,192,204498,1,0,0:0:0:0:
352,192,204628,1,8,0:0:0:0:
352,192,204886,1,8,0:0:0:0:
160,192,205016,1,0,0:0:0:0:
352,192,205145,1,8,0:0:0:0:
160,192,205274,1,0,0:0:0:0:
352,192,205533,1,8,0:0:0:0:
160,192,205662,1,0,0:0:0:0:
352,192,205921,1,8,0:0:0:0:
160,192,206050,1,0,0:0:0:0:
160,192,206115,1,0,0:0:0:0:
160,192,206179,1,0,0:0:0:0:
352,192,206309,1,8,0:0:0:0:
160,192,206567,1,0,0:0:0:0:
352,192,206697,1,8,0:0:0:0:
352,192,206955,1,8,0:0:0:0:
160,192,207085,1,0,0:0:0:0:
352,192,207214,1,8,0:0:0:0:
160,96,207343,1,4,0:0:0:0:
352,192,207602,1,8,0:0:0:0:
160,192,207732,1,0,0:0:0:0:
352,192,207991,1,8,0:0:0:0:
160,192,208120,1,0,0:0:0:0:
160,192,208184,1,0,0:0:0:0:
160,192,208249,1,0,0:0:0:0:
352,96,208379,1,12,0:0:0:0:
160,192,208637,1,0,0:0:0:0:
352,192,208767,1,8,0:0:0:0:
352,192,209025,1,8,0:0:0:0:
160,192,209155,1,0,0:0:0:0:
352,192,209284,1,8,0:0:0:0:
160,96,209413,1,4,0:0:0:0:
352,192,209672,1,8,0:0:0:0:
160,192,209800,1,0,0:0:0:0:
160,96,209929,1,4,0:0:0:0:
352,192,210060,1,8,0:0:0:0:
160,192,210188,1,0,0:0:0:0:
160,192,210253,1,0,0:0:0:0:
352,192,210317,1,8,0:0:0:0:
160,96,210447,1,4,0:0:0:0:
352,192,210576,1,8,0:0:0:0:
352,192,210705,1,8,0:0:0:0:
352,192,210835,1,8,0:0:0:0:
352,192,210964,1,8,0:0:0:0:
352,192,211093,1,8,0:0:0:0:
160,192,211222,1,0,0:0:0:0:
160,192,211352,1,0,0:0:0:0:
352,192,211481,1,8,0:0:0:0:
160,192,211740,1,0,0:0:0:0:
352,192,211869,1,8,0:0:0:0:
160,192,212128,1,0,0:0:0:0:
352,192,212257,1,8,0:0:0:0:
352,192,212516,1,8,0:0:0:0:
160,192,212774,1,0,0:0:0:0:
352,192,212903,1,8,0:0:0:0:
160,192,213162,1,0,0:0:0:0:
352,192,213291,1,8,0:0:0:0:
352,192,213550,1,8,0:0:0:0:
160,192,213809,1,0,0:0:0:0:
352,192,213938,1,8,0:0:0:0:
160,192,214197,1,0,0:0:0:0:
352,192,214326,1,8,0:0:0:0:
352,192,214585,1,8,0:0:0:0:
160,192,214843,1,0,0:0:0:0:
352,192,214972,1,8,0:0:0:0:
160,192,215231,1,0,0:0:0:0:
352,192,215360,1,8,0:0:0:0:
352,192,215619,1,8,0:0:0:0:
160,192,215878,1,0,0:0:0:0:
352,192,216007,1,8,0:0:0:0:
160,192,216266,1,0,0:0:0:0:
352,192,216395,1,8,0:0:0:0:
352,192,216654,1,8,0:0:0:0:
160,192,216912,1,0,0:0:0:0:
352,192,217041,1,8,0:0:0:0:
160,192,217300,1,0,0:0:0:0:
352,192,217429,1,8,0:0:0:0:
352,192,217688,1,8,0:0:0:0:
160,192,217946,1,0,0:0:0:0:
352,192,218075,1,8,0:0:0:0:
160,192,218334,1,0,0:0:0:0:
352,192,218463,1,8,0:0:0:0:
352,192,218722,1,8,0:0:0:0:
160,192,218981,1,0,0:0:0:0:
352,192,219110,1,8,0:0:0:0:
160,192,219369,1,0,0:0:0:0:
352,96,219498,1,14,0:0:0:0:
352,96,219757,1,12,0:0:0:0:
160,96,220144,1,4,0:0:0:0:
352,96,220532,1,12,0:0:0:0:
160,96,220791,1,4,0:0:0:0:
160,96,221179,1,4,0:0:0:0:
352,96,221567,1,12,0:0:0:0:
352,96,221825,1,12,0:0:0:0:
160,96,222213,1,4,0:0:0:0:
352,96,222601,1,12,0:0:0:0:
160,96,222860,1,4,0:0:0:0:
160,96,223248,1,4,0:0:0:0:
352,96,223636,1,12,0:0:0:0:
256,192,223894,12,0,225705,0:0:0:0:
352,96,225964,5,12,0:0:0:0:
160,192,226093,1,0,0:0:0:0:
160,192,226222,1,0,0:0:0:0:
352,96,226352,1,12,0:0:0:0:
160,192,226481,1,0,0:0:0:0:
160,192,226610,1,0,0:0:0:0:
352,96,226740,1,12,0:0:0:0:
160,192,226869,1,0,0:0:0:0:
352,96,226998,1,12,0:0:0:0:
160,192,227128,1,0,0:0:0:0:
160,192,227257,1,0,0:0:0:0:
352,96,227386,1,12,0:0:0:0:
160,192,227516,1,0,0:0:0:0:
160,192,227645,1,0,0:0:0:0:
352,96,227774,1,12,0:0:0:0:
160,192,227904,1,0,0:0:0:0:
352,96,228033,1,12,0:0:0:0:
