osu file format v14

[General]
AudioFilename: ratsyks.mp3
AudioLeadIn: 0
PreviewTime: 58443
Countdown: 0
SampleSet: Normal
StackLeniency: 0.7
Mode: 1
LetterboxInBreaks: 0
WidescreenStoryboard: 1

[Editor]
Bookmarks: 16118,65997
DistanceSpacing: 1.1
BeatDivisor: 4
GridSize: 4
TimelineZoom: 2.699999

[Metadata]
Title:Kakushinteki*Metamaruphose!
TitleUnicode:かくしん的☆めたまるふぉ~ぜっ!
Artist:Umaru Doma [CV: Aimi Tanaka]
ArtistUnicode:土間うまる[CV:田中あいみ]
Creator:-H a y a-
Version:Light Oni!
Source:干物妹! うまるちゃん!
Tags:Himouto! Umaruchan opening anime tv size
BeatmapID:742568
BeatmapSetID:334440

[Difficulty]
HPDrainRate:5
CircleSize:4
OverallDifficulty:4.2
ApproachRate:9
SliderMultiplier:1
SliderTickRate:1

[Events]
//Background and Video events
0,0,"BG.jpg",0,0
//Break Periods
//Storyboard Layer 0 (Background)
//Storyboard Layer 1 (Fail)
//Storyboard Layer 2 (Pass)
//Storyboard Layer 3 (Foreground)
//Storyboard Sound Samples

[TimingPoints]
-69,215.827338129496,4,1,0,80,1,0
41369,301.507537688442,3,1,0,80,1,0
41369,-71.4285714285714,3,1,0,80,0,0
51321,215.827338129496,4,1,0,80,1,0
59090,-100,4,1,0,80,0,1
76356,-100,4,1,0,80,0,0

[HitObjects]
248,124,1657,5,0,0:0:0:0:
240,120,1873,1,0,0:0:0:0:
232,128,2089,1,8,0:0:0:0:
232,128,2197,1,8,0:0:0:0:
248,124,2305,1,8,0:0:0:0:
240,120,2520,1,0,0:0:0:0:
240,120,2736,1,0,0:0:0:0:
236,124,2952,1,8,0:0:0:0:
236,124,3060,1,8,0:0:0:0:
260,116,3168,1,8,0:0:0:0:
260,112,3384,1,0,0:0:0:0:
244,108,3600,1,8,0:0:0:0:
244,108,3707,1,0,0:0:0:0:
244,108,3815,1,8,0:0:0:0:
244,108,4031,1,0,0:0:0:0:
248,112,4247,1,12,0:0:0:0:
264,108,4463,1,12,0:0:0:0:
260,116,4679,1,12,0:0:0:0:
264,100,5110,1,0,0:0:0:0:
248,108,5326,1,0,0:0:0:0:
252,108,5542,1,8,0:0:0:0:
252,108,5650,1,8,0:0:0:0:
264,100,5758,1,8,0:0:0:0:
264,100,5974,1,0,0:0:0:0:
264,96,6189,1,0,0:0:0:0:
252,108,6405,1,8,0:0:0:0:
252,108,6513,1,8,0:0:0:0:
264,100,6621,1,8,0:0:0:0:
264,100,6837,1,0,0:0:0:0:
264,100,7053,1,8,0:0:0:0:
264,96,7161,1,0,0:0:0:0:
264,100,7269,1,8,0:0:0:0:
264,100,7484,1,0,0:0:0:0:
264,100,7700,1,8,0:0:0:0:
256,104,7916,1,0,0:0:0:0:
256,104,8024,1,0,0:0:0:0:
264,100,8132,1,12,0:0:0:0:
272,96,8348,1,4,0:0:0:0:
264,100,8564,1,4,0:0:0:0:
254,81,8887,1,0,0:0:0:0:
264,100,9211,1,8,0:0:0:0:
264,100,9427,1,12,0:0:0:0:
264,100,10290,1,4,0:0:0:0:
272,94,10614,1,0,0:0:0:0:
268,91,10938,1,8,0:0:0:0:
264,92,11154,1,12,0:0:0:0:
264,88,11801,1,8,0:0:0:0:
264,88,12017,1,0,0:0:0:0:
264,88,12664,1,8,0:0:0:0:
264,88,12880,1,0,0:0:0:0:
264,88,13528,1,8,0:0:0:0:
264,88,13743,1,0,0:0:0:0:
264,88,13959,1,8,0:0:0:0:
248,92,14175,1,8,0:0:0:0:
248,96,14283,1,8,0:0:0:0:
264,88,14391,1,0,0:0:0:0:
264,88,14607,1,0,0:0:0:0:
260,104,14930,1,8,0:0:0:0:
260,104,15038,1,0,0:0:0:0:
264,80,15470,1,12,0:0:0:0:
268,112,15686,1,8,0:0:0:0:
248,96,15794,1,0,0:0:0:0:
260,100,15902,1,8,0:0:0:0:
264,112,16118,1,8,0:0:0:0:
264,112,16225,1,8,0:0:0:0:
264,112,16333,1,0,0:0:0:0:
264,108,16549,1,8,0:0:0:0:
264,80,16765,1,0,0:0:0:0:
256,96,16873,1,0,0:0:0:0:
272,92,16981,1,8,0:0:0:0:
256,96,17197,1,12,0:0:0:0:
256,96,17520,1,12,0:0:0:0:
272,92,17844,1,0,0:0:0:0:
256,96,17952,1,0,0:0:0:0:
256,96,18060,1,8,0:0:0:0:
260,68,18707,1,0,0:0:0:0:
260,68,18923,1,8,0:0:0:0:
260,68,19139,1,0,0:0:0:0:
248,80,19355,1,0,0:0:0:0:
273,81,19463,1,0,0:0:0:0:
248,80,19571,1,8,0:0:0:0:
248,80,19787,1,0,0:0:0:0:
274,96,20218,1,0,0:0:0:0:
248,80,20434,1,8,0:0:0:0:
248,80,20542,1,0,0:0:0:0:
248,76,20650,1,8,0:0:0:0:
272,60,20866,1,0,0:0:0:0:
264,52,21082,1,8,0:0:0:0:
272,60,21189,1,8,0:0:0:0:
272,60,21297,1,0,0:0:0:0:
248,72,21513,1,0,0:0:0:0:
248,80,21621,1,8,0:0:0:0:
248,72,21729,1,0,0:0:0:0:
248,80,21945,1,8,0:0:0:0:
248,80,22053,1,8,0:0:0:0:
264,52,22161,1,0,0:0:0:0:
264,52,22377,1,8,0:0:0:0:
244,84,22484,1,8,0:0:0:0:
276,56,22592,1,0,0:0:0:0:
260,80,22808,1,8,0:0:0:0:
276,56,23024,1,0,0:0:0:0:
260,80,23240,1,8,0:0:0:0:
272,64,23348,1,0,0:0:0:0:
272,64,23456,1,8,0:0:0:0:
264,64,23564,1,0,0:0:0:0:
264,60,23672,1,8,0:0:0:0:
248,72,23887,1,0,0:0:0:0:
248,72,24103,1,8,0:0:0:0:
260,60,24319,1,0,0:0:0:0:
248,72,24535,1,8,0:0:0:0:
260,60,24643,1,8,0:0:0:0:
260,60,24751,1,0,0:0:0:0:
248,68,24966,1,8,0:0:0:0:
248,80,25074,1,0,0:0:0:0:
256,60,25182,1,0,0:0:0:0:
248,80,25290,1,8,0:0:0:0:
252,64,25398,1,8,0:0:0:0:
248,80,25506,1,0,0:0:0:0:
260,60,25614,1,0,0:0:0:0:
252,64,25830,1,12,0:0:0:0:
240,56,26154,1,4,0:0:0:0:
240,56,26477,1,12,0:0:0:0:
252,64,26693,1,4,0:0:0:0:
168,132,26909,2,0,P|136:188|256:188,1,220
256,32,27556,1,0,0:0:0:0:
244,40,27880,1,0,0:0:0:0:
256,32,27988,1,8,0:0:0:0:
252,40,28204,1,0,0:0:0:0:
248,56,28420,1,0,0:0:0:0:
264,44,28528,1,8,0:0:0:0:
264,44,28636,1,0,0:0:0:0:
256,32,28851,1,8,0:0:0:0:
248,56,29067,1,0,0:0:0:0:
248,56,29175,1,0,0:0:0:0:
248,56,29283,1,8,0:0:0:0:
248,48,29607,1,0,0:0:0:0:
256,32,29715,1,8,0:0:0:0:
248,48,29930,1,0,0:0:0:0:
248,48,30038,1,8,0:0:0:0:
260,36,30254,1,8,0:0:0:0:
260,36,30362,1,0,0:0:0:0:
256,40,30578,1,8,0:0:0:0:
244,40,30686,1,8,0:0:0:0:
244,40,30794,1,0,0:0:0:0:
244,36,31010,1,0,0:0:0:0:
251,37,31225,1,0,0:0:0:0:
248,40,31333,1,0,0:0:0:0:
256,40,31441,1,8,0:0:0:0:
248,40,31657,1,0,0:0:0:0:
248,40,31873,1,8,0:0:0:0:
248,40,31981,1,0,0:0:0:0:
248,40,32089,1,8,0:0:0:0:
264,24,32305,1,8,0:0:0:0:
244,36,32520,1,0,0:0:0:0:
248,40,32736,1,8,0:0:0:0:
248,40,32952,1,0,0:0:0:0:
248,40,33060,1,0,0:0:0:0:
264,24,33168,1,8,0:0:0:0:
248,40,33384,1,0,0:0:0:0:
248,40,33600,1,0,0:0:0:0:
264,36,33815,1,8,0:0:0:0:
264,36,33923,1,8,0:0:0:0:
272,32,34031,1,8,0:0:0:0:
248,40,34247,1,8,0:0:0:0:
284,36,34463,1,0,0:0:0:0:
248,40,34787,1,0,0:0:0:0:
276,32,34895,1,8,0:0:0:0:
264,52,35002,1,0,0:0:0:0:
248,40,35218,1,8,0:0:0:0:
264,36,35434,1,8,0:0:0:0:
264,36,35542,1,0,0:0:0:0:
272,36,35758,1,8,0:0:0:0:
248,40,35974,1,0,0:0:0:0:
248,40,36082,1,8,0:0:0:0:
248,40,36189,1,8,0:0:0:0:
248,40,36405,1,0,0:0:0:0:
272,20,36621,1,8,0:0:0:0:
248,40,36729,1,8,0:0:0:0:
248,40,36945,1,8,0:0:0:0:
264,36,37161,1,8,0:0:0:0:
264,36,37269,1,0,0:0:0:0:
276,32,37484,1,8,0:0:0:0:
248,40,37700,1,0,0:0:0:0:
248,40,37808,1,8,0:0:0:0:
276,36,37916,1,0,0:0:0:0:
248,40,38240,1,0,0:0:0:0:
276,32,38348,1,8,0:0:0:0:
248,44,38564,1,0,0:0:0:0:
248,44,38779,1,8,0:0:0:0:
248,40,38995,1,8,0:0:0:0:
248,40,39103,1,0,0:0:0:0:
280,28,39211,1,8,0:0:0:0:
248,44,39427,1,0,0:0:0:0:
264,24,39643,1,0,0:0:0:0:
264,24,40074,1,8,0:0:0:0:
264,24,40506,1,0,0:0:0:0:
256,36,40938,1,8,0:0:0:0:
260,36,40992,1,8,0:0:0:0:
264,16,41369,5,0,0:0:0:0:
256,32,41821,1,8,0:0:0:0:
268,20,41972,1,8,0:0:0:0:
276,48,42122,1,0,0:0:0:0:
200,92,42273,2,0,P|136:176|264:148,1,279.999991455078
264,8,43178,1,0,0:0:0:0:
272,40,43781,1,8,0:0:0:0:
272,36,43931,1,8,0:0:0:0:
208,112,44082,2,0,P|136:176|288:220,1,279.999991455078
264,8,44987,1,0,0:0:0:0:
252,32,45439,1,8,0:0:0:0:
252,32,45590,1,0,0:0:0:0:
196,112,45891,2,0,P|208:208|336:112,1,279.999991455078
256,16,46796,1,0,0:0:0:0:
256,40,47399,1,0,0:0:0:0:
256,40,47549,1,8,0:0:0:0:
256,16,47700,1,8,0:0:0:0:
252,56,48303,1,8,0:0:0:0:
248,60,48454,1,0,0:0:0:0:
248,60,48605,1,8,0:0:0:0:
236,24,49057,1,8,0:0:0:0:
236,32,49208,1,0,0:0:0:0:
236,8,49509,1,0,0:0:0:0:
236,8,49811,1,8,0:0:0:0:
236,8,50112,1,8,0:0:0:0:
236,8,50414,1,0,0:0:0:0:
240,40,51017,1,8,0:0:0:0:
240,40,51167,1,0,0:0:0:0:
240,52,51318,1,8,0:0:0:0:
248,56,51752,1,4,0:0:0:0:
248,56,51968,1,12,0:0:0:0:
236,8,52184,1,4,0:0:0:0:
240,40,52400,1,8,0:0:0:0:
248,56,52508,1,8,0:0:0:0:
248,56,52615,1,8,0:0:0:0:
248,56,52831,1,8,0:0:0:0:
236,8,53047,1,0,0:0:0:0:
240,36,53155,1,0,0:0:0:0:
248,56,53263,1,0,0:0:0:0:
248,56,53479,1,8,0:0:0:0:
248,52,53587,1,0,0:0:0:0:
232,56,53695,1,8,0:0:0:0:
232,60,53910,1,0,0:0:0:0:
248,56,54126,1,8,0:0:0:0:
248,56,54234,1,0,0:0:0:0:
248,56,54450,1,0,0:0:0:0:
248,56,54558,1,8,0:0:0:0:
249,70,54774,1,8,0:0:0:0:
232,56,55205,1,8,0:0:0:0:
232,40,55421,1,8,0:0:0:0:
232,58,55529,1,8,0:0:0:0:
232,58,55637,1,0,0:0:0:0:
256,62,55853,1,8,0:0:0:0:
256,62,56069,1,0,0:0:0:0:
232,40,56285,1,8,0:0:0:0:
216,52,56500,1,0,0:0:0:0:
216,52,56608,1,8,0:0:0:0:
216,48,56716,1,8,0:0:0:0:
232,40,56932,1,8,0:0:0:0:
231,34,57148,1,8,0:0:0:0:
220,48,57256,1,8,0:0:0:0:
216,40,57364,1,0,0:0:0:0:
224,28,57579,1,12,0:0:0:0:
220,32,57795,1,12,0:0:0:0:
224,28,58011,1,12,0:0:0:0:
228,44,58227,1,4,0:0:0:0:
240,56,58443,1,0,0:0:0:0:
240,56,58551,1,0,0:0:0:0:
228,44,58659,1,8,0:0:0:0:
245,56,58874,1,8,0:0:0:0:
220,44,59090,1,4,0:0:0:0:
224,48,59306,1,8,0:0:0:0:
220,40,59522,1,0,0:0:0:0:
232,40,59630,1,0,0:0:0:0:
224,44,59738,1,8,0:0:0:0:
228,44,59954,1,8,0:0:0:0:
228,44,60169,1,0,0:0:0:0:
228,44,60385,1,8,0:0:0:0:
220,44,60493,1,0,0:0:0:0:
220,32,60601,1,8,0:0:0:0:
220,32,60817,1,0,0:0:0:0:
232,48,61033,1,8,0:0:0:0:
211,38,61141,1,0,0:0:0:0:
224,56,61249,1,8,0:0:0:0:
216,8,61464,1,0,0:0:0:0:
216,8,61680,1,8,0:0:0:0:
228,44,61896,1,0,0:0:0:0:
232,48,62112,1,8,0:0:0:0:
224,36,62328,1,0,0:0:0:0:
232,48,62436,1,8,0:0:0:0:
232,48,62544,1,0,0:0:0:0:
220,40,62759,1,8,0:0:0:0:
224,40,62975,1,0,0:0:0:0:
224,40,63083,1,0,0:0:0:0:
228,44,63191,1,8,0:0:0:0:
228,36,63407,1,0,0:0:0:0:
228,36,63623,1,8,0:0:0:0:
232,24,63838,1,0,0:0:0:0:
232,16,63946,1,0,0:0:0:0:
232,24,64054,1,8,0:0:0:0:
236,40,64270,1,8,0:0:0:0:
236,36,64486,1,8,0:0:0:0:
224,32,64702,1,8,0:0:0:0:
220,32,64810,1,8,0:0:0:0:
236,36,64918,1,0,0:0:0:0:
236,36,65133,1,8,0:0:0:0:
236,36,65349,1,8,0:0:0:0:
234,43,65457,1,0,0:0:0:0:
234,44,65565,1,8,0:0:0:0:
223,64,65997,1,0,0:0:0:0:
224,56,66213,1,8,0:0:0:0:
224,56,66320,1,0,0:0:0:0:
224,56,66536,1,0,0:0:0:0:
224,32,66644,1,8,0:0:0:0:
224,48,66860,1,8,0:0:0:0:
224,48,67076,1,0,0:0:0:0:
236,32,67292,1,8,0:0:0:0:
212,48,67400,1,8,0:0:0:0:
212,48,67508,1,0,0:0:0:0:
212,48,67723,1,0,0:0:0:0:
212,48,67939,1,0,0:0:0:0:
212,48,68047,1,8,0:0:0:0:
212,48,68263,1,0,0:0:0:0:
224,32,68371,1,8,0:0:0:0:
224,32,68587,1,8,0:0:0:0:
232,36,69018,1,8,0:0:0:0:
232,36,69126,1,8,0:0:0:0:
232,36,69234,1,0,0:0:0:0:
232,32,69450,1,0,0:0:0:0:
232,40,69666,1,8,0:0:0:0:
232,40,69882,1,0,0:0:0:0:
232,40,69990,1,0,0:0:0:0:
232,28,70097,1,8,0:0:0:0:
232,28,70313,1,0,0:0:0:0:
240,48,70529,1,8,0:0:0:0:
232,28,70745,1,0,0:0:0:0:
228,32,70853,1,0,0:0:0:0:
232,28,70961,1,8,0:0:0:0:
232,28,71177,1,0,0:0:0:0:
220,20,71392,1,8,0:0:0:0:
220,20,71608,1,0,0:0:0:0:
220,20,71716,1,8,0:0:0:0:
232,28,71824,1,8,0:0:0:0:
232,28,72040,1,0,0:0:0:0:
224,48,72256,1,8,0:0:0:0:
220,20,72472,1,8,0:0:0:0:
224,48,72579,1,8,0:0:0:0:
232,28,72687,1,0,0:0:0:0:
232,28,72903,1,0,0:0:0:0:
220,20,73119,1,0,0:0:0:0:
236,28,73227,1,0,0:0:0:0:
232,28,73335,1,8,0:0:0:0:
232,28,73767,1,0,0:0:0:0:
236,28,73982,1,0,0:0:0:0:
236,28,74090,1,0,0:0:0:0:
232,28,74198,1,8,0:0:0:0:
228,40,74414,1,0,0:0:0:0:
236,28,74630,1,8,0:0:0:0:
236,28,74738,1,0,0:0:0:0:
236,28,74846,1,8,0:0:0:0:
240,28,74954,1,0,0:0:0:0:
240,28,75062,1,8,0:0:0:0:
240,28,75277,1,0,0:0:0:0:
232,28,75493,1,8,0:0:0:0:
236,28,75601,1,0,0:0:0:0:
240,28,75709,1,8,0:0:0:0:
236,28,75817,1,0,0:0:0:0:
232,28,75925,1,8,0:0:0:0:
236,28,76141,1,8,0:0:0:0:
236,24,76356,1,4,0:0:0:0:
236,24,77220,1,12,0:0:0:0:
236,24,78083,1,0,0:0:0:0:
224,12,78299,1,0,0:0:0:0:
248,16,78515,1,8,0:0:0:0:
248,16,78623,1,8,0:0:0:0:
236,24,78731,1,8,0:0:0:0:
236,24,78946,1,0,0:0:0:0:
224,12,79162,1,0,0:0:0:0:
252,20,79378,1,8,0:0:0:0:
252,20,79486,1,8,0:0:0:0:
236,24,79594,1,8,0:0:0:0:
236,24,79810,1,0,0:0:0:0:
224,12,80026,1,8,0:0:0:0:
256,16,80133,1,0,0:0:0:0:
236,24,80241,1,8,0:0:0:0:
224,12,80457,1,0,0:0:0:0:
256,16,80673,1,12,0:0:0:0:
236,24,80889,1,12,0:0:0:0:
256,16,81105,1,12,0:0:0:0:
236,28,81536,1,0,0:0:0:0:
260,16,81752,1,8,0:0:0:0:
236,28,81968,1,8,0:0:0:0:
232,16,82076,1,8,0:0:0:0:
224,8,82184,1,8,0:0:0:0:
236,28,82400,1,0,0:0:0:0:
232,12,82615,1,8,0:0:0:0:
236,28,82831,1,8,0:0:0:0:
224,8,82939,1,8,0:0:0:0:
244,24,83047,1,8,0:0:0:0:
244,24,83263,1,0,0:0:0:0:
236,28,83479,1,0,0:0:0:0:
239,28,83587,1,0,0:0:0:0:
244,24,83695,1,8,0:0:0:0:
248,20,83803,1,8,0:0:0:0:
236,28,83910,1,0,0:0:0:0:
248,16,84126,1,12,0:0:0:0:
248,16,84342,1,12,0:0:0:0:
244,24,84558,1,12,0:0:0:0:
256,192,84990,12,0,86500,0:0:0:0:
240,168,86716,5,8,0:0:0:0:
240,168,86932,1,0,0:0:0:0:
240,168,87040,1,8,0:0:0:0:
240,168,87364,1,4,0:0:0:0:
240,128,87579,5,12,0:0:0:0:
256,192,88011,12,0,88443,0:0:0:0:
