osu file format v14

[General]
AudioFilename: ratsyks.mp3
AudioLeadIn: 0
PreviewTime: 58443
Countdown: 0
SampleSet: Normal
StackLeniency: 0.7
Mode: 1
LetterboxInBreaks: 0
WidescreenStoryboard: 1

[Editor]
Bookmarks: 65997
DistanceSpacing: 1.1
BeatDivisor: 4
GridSize: 4
TimelineZoom: 2.799999

[Metadata]
Title:Kakushinteki*Metamaruphose!
TitleUnicode:かくしん的☆めたまるふぉ~ぜっ!
Artist:Umaru Doma [CV: Aimi Tanaka]
ArtistUnicode:土間うまる[CV:田中あいみ]
Creator:-H a y a-
Version:Kantan!
Source:干物妹! うまるちゃん!
Tags:Himouto! Umaruchan opening anime tv size
BeatmapID:741455
BeatmapSetID:334440

[Difficulty]
HPDrainRate:3
CircleSize:4
OverallDifficulty:3
ApproachRate:9
SliderMultiplier:0.8
SliderTickRate:1

[Events]
//Background and Video events
0,0,"BG.jpg",0,0
//Break Periods
//Storyboard Layer 0 (Background)
//Storyboard Layer 1 (Fail)
//Storyboard Layer 2 (Pass)
//Storyboard Layer 3 (Foreground)
//Storyboard Sound Samples

[TimingPoints]
-69,215.827338129496,4,1,0,80,1,0
41369,301.507537688442,3,1,0,80,1,0
41369,-83.3333333333333,3,1,0,80,0,0
51321,215.827338129496,4,1,0,80,1,0
59090,-100,4,1,0,80,0,1
76356,-100,4,1,0,80,0,0

[HitObjects]
256,152,1657,5,4,0:0:0:0:
256,152,2520,1,4,0:0:0:0:
256,152,3384,1,0,0:0:0:0:
256,152,3815,1,0,0:0:0:0:
264,144,4247,1,8,0:0:0:0:
256,152,4679,1,8,0:0:0:0:
256,152,5110,1,4,0:0:0:0:
256,152,5974,1,4,0:0:0:0:
256,152,6837,1,0,0:0:0:0:
256,152,7269,1,0,0:0:0:0:
256,152,7700,1,8,0:0:0:0:
252,160,8564,1,4,0:0:0:0:
244,156,9427,1,0,0:0:0:0:
244,156,10290,1,0,0:0:0:0:
244,156,11154,1,0,0:0:0:0:
244,156,11585,1,8,0:0:0:0:
244,156,12017,1,0,0:0:0:0:
244,156,12880,1,0,0:0:0:0:
244,156,13743,1,0,0:0:0:0:
244,156,14175,1,0,0:0:0:0:
244,156,14607,1,8,0:0:0:0:
244,156,15470,1,0,0:0:0:0:
244,156,16333,1,8,0:0:0:0:
232,144,17197,1,0,0:0:0:0:
232,144,18060,1,8,0:0:0:0:
232,144,18923,1,0,0:0:0:0:
232,144,19787,1,0,0:0:0:0:
232,144,20650,1,8,0:0:0:0:
232,144,21513,1,8,0:0:0:0:
248,128,22377,1,8,0:0:0:0:
248,128,23240,1,8,0:0:0:0:
248,128,23672,1,8,0:0:0:0:
248,128,24103,1,8,0:0:0:0:
248,128,24966,1,8,0:0:0:0:
248,128,25830,1,8,0:0:0:0:
248,128,26693,1,12,0:0:0:0:
248,120,27556,1,0,0:0:0:0:
252,104,27988,1,8,0:0:0:0:
248,104,28851,1,8,0:0:0:0:
248,104,29715,1,8,0:0:0:0:
248,112,30578,1,8,0:0:0:0:
248,108,31010,1,0,0:0:0:0:
248,112,31441,1,8,0:0:0:0:
248,108,32305,1,8,0:0:0:0:
248,108,33168,1,8,0:0:0:0:
248,108,34031,1,8,0:0:0:0:
248,108,34463,1,0,0:0:0:0:
248,108,34895,1,8,0:0:0:0:
248,108,35758,1,8,0:0:0:0:
248,108,36621,1,8,0:0:0:0:
256,100,37484,1,8,0:0:0:0:
256,100,37916,1,0,0:0:0:0:
256,100,38348,1,8,0:0:0:0:
256,100,39211,1,8,0:0:0:0:
256,100,39643,1,0,0:0:0:0:
256,100,40074,1,8,0:0:0:0:
256,100,40506,1,4,0:0:0:0:
256,100,41369,5,0,0:0:0:0:
176,132,42273,2,0,P|132:196|224:208,1,191.999994140625
200,140,43178,1,0,0:0:0:0:
184,104,44082,2,0,P|132:180|216:200,1,191.999994140625
184,120,44987,1,0,0:0:0:0:
184,108,45891,2,0,P|120:120|172:200,1,191.999994140625
164,136,46796,1,0,0:0:0:0:
180,128,47700,1,8,0:0:0:0:
188,132,48605,1,0,0:0:0:0:
192,132,49509,1,8,0:0:0:0:
192,128,50112,1,0,0:0:0:0:
192,132,50414,1,8,0:0:0:0:
192,132,51318,1,8,0:0:0:0:
184,128,52184,1,12,0:0:0:0:
184,128,53047,1,8,0:0:0:0:
196,116,53910,1,8,0:0:0:0:
196,116,54774,1,8,0:0:0:0:
196,104,55205,1,8,0:0:0:0:
192,104,55637,1,0,0:0:0:0:
196,104,56285,1,8,0:0:0:0:
196,104,57364,1,0,0:0:0:0:
200,100,58227,1,4,0:0:0:0:
200,100,59090,1,0,0:0:0:0:
200,100,59522,1,8,0:0:0:0:
200,100,59954,1,0,0:0:0:0:
200,100,60817,1,0,0:0:0:0:
200,100,61249,1,8,0:0:0:0:
200,100,61680,1,0,0:0:0:0:
192,104,62544,1,4,0:0:0:0:
192,104,63407,1,4,0:0:0:0:
200,92,64270,1,0,0:0:0:0:
200,92,64702,1,0,0:0:0:0:
200,92,65133,1,8,0:0:0:0:
200,92,65565,1,8,0:0:0:0:
200,92,65997,1,0,0:0:0:0:
200,92,66860,1,8,0:0:0:0:
200,92,67723,1,0,0:0:0:0:
200,92,68155,1,0,0:0:0:0:
200,92,68587,1,8,0:0:0:0:
200,92,69450,1,0,0:0:0:0:
200,92,70313,1,8,0:0:0:0:
192,92,71177,1,0,0:0:0:0:
192,92,72040,1,8,0:0:0:0:
192,92,72472,1,8,0:0:0:0:
192,92,72903,1,0,0:0:0:0:
192,92,73335,1,12,0:0:0:0:
192,92,73767,1,0,0:0:0:0:
192,92,74198,1,12,0:0:0:0:
172,104,74630,1,0,0:0:0:0:
172,104,75062,1,0,0:0:0:0:
172,104,75493,1,12,0:0:0:0:
192,92,76356,1,0,0:0:0:0:
192,92,77220,1,0,0:0:0:0:
192,92,77651,1,12,0:0:0:0:
192,92,78083,1,4,0:0:0:0:
192,92,78946,1,8,0:0:0:0:
192,92,79810,1,0,0:0:0:0:
192,92,80673,1,8,0:0:0:0:
192,92,81105,1,8,0:0:0:0:
192,92,81536,1,0,0:0:0:0:
192,92,82400,1,0,0:0:0:0:
192,92,83263,1,8,0:0:0:0:
107,64,84126,1,0,0:0:0:0:
111,48,84558,1,4,0:0:0:0:
99,48,84990,1,4,0:0:0:0:
220,112,87579,1,12,0:0:0:0:
