osu file format v14

[General]
AudioFilename: ratsyks.mp3
AudioLeadIn: 0
PreviewTime: 58443
Countdown: 0
SampleSet: Normal
StackLeniency: 0.7
Mode: 1
LetterboxInBreaks: 0
WidescreenStoryboard: 1

[Editor]
Bookmarks: 65997
DistanceSpacing: 1.1
BeatDivisor: 4
GridSize: 4
TimelineZoom: 2.799999

[Metadata]
Title:Kakushinteki*Metamaruphose!
TitleUnicode:かくしん的☆めたまるふぉ~ぜっ!
Artist:Umaru Doma [CV: Aimi Tanaka]
ArtistUnicode:土間うまる[CV:田中あいみ]
Creator:-H a y a-
Version:Inner Oni!
Source:干物妹! うまるちゃん!
Tags:Himouto! Umaruchan opening anime tv size
BeatmapID:739990
BeatmapSetID:334440

[Difficulty]
HPDrainRate:5.7
CircleSize:4
OverallDifficulty:5.7
ApproachRate:9
SliderMultiplier:1.4
SliderTickRate:1

[Events]
//Background and Video events
0,0,"BG.jpg",0,0
//Break Periods
//Storyboard Layer 0 (Background)
//Storyboard Layer 1 (Fail)
//Storyboard Layer 2 (Pass)
//Storyboard Layer 3 (Foreground)
//Storyboard Sound Samples

[TimingPoints]
-69,215.827338129496,4,1,0,80,1,0
27880,-133.333333333333,4,1,0,80,0,0
41369,301.507537688442,3,1,0,80,1,0
51321,215.827338129496,4,1,0,80,1,0
59090,-100,4,1,0,80,0,1
76356,-100,4,1,0,80,0,0

[HitObjects]
227,167,578,5,8,0:0:0:0:
224,160,686,1,0,0:0:0:0:
224,160,794,1,8,0:0:0:0:
232,160,1010,1,0,0:0:0:0:
232,160,1064,1,0,0:0:0:0:
232,160,1118,1,8,0:0:0:0:
232,164,1172,1,8,0:0:0:0:
232,164,1225,1,0,0:0:0:0:
232,160,1441,1,8,0:0:0:0:
232,164,1657,1,0,0:0:0:0:
236,144,1765,1,8,0:0:0:0:
236,144,1873,1,0,0:0:0:0:
232,144,1981,1,8,0:0:0:0:
232,144,2089,1,8,0:0:0:0:
236,148,2197,1,0,0:0:0:0:
232,144,2251,1,0,0:0:0:0:
236,148,2305,1,8,0:0:0:0:
232,140,2520,1,8,0:0:0:0:
232,140,2628,1,0,0:0:0:0:
235,126,2682,1,0,0:0:0:0:
232,140,2736,1,8,0:0:0:0:
232,140,2844,1,0,0:0:0:0:
236,136,2952,1,8,0:0:0:0:
232,136,3060,1,0,0:0:0:0:
228,148,3168,1,12,0:0:0:0:
248,136,3384,1,8,0:0:0:0:
232,132,3492,1,0,0:0:0:0:
248,136,3600,1,0,0:0:0:0:
232,120,3654,1,0,0:0:0:0:
248,136,3707,1,8,0:0:0:0:
248,136,3815,1,8,0:0:0:0:
232,120,3923,1,0,0:0:0:0:
232,120,4031,1,8,0:0:0:0:
235,126,4247,1,8,0:0:0:0:
232,124,4301,1,0,0:0:0:0:
232,124,4355,1,0,0:0:0:0:
228,120,4463,1,8,0:0:0:0:
224,120,4571,1,0,0:0:0:0:
224,120,4679,1,8,0:0:0:0:
235,115,4787,1,0,0:0:0:0:
205,103,4895,1,8,0:0:0:0:
232,120,5110,1,8,0:0:0:0:
220,120,5164,1,8,0:0:0:0:
216,120,5218,1,0,0:0:0:0:
216,120,5326,1,8,0:0:0:0:
216,120,5434,1,0,0:0:0:0:
232,120,5542,1,8,0:0:0:0:
232,116,5650,1,0,0:0:0:0:
228,120,5758,1,8,0:0:0:0:
216,112,5974,1,8,0:0:0:0:
216,112,6028,1,8,0:0:0:0:
220,116,6082,1,0,0:0:0:0:
224,108,6189,1,8,0:0:0:0:
220,124,6297,1,0,0:0:0:0:
220,124,6405,1,8,0:0:0:0:
220,112,6513,1,0,0:0:0:0:
220,112,6621,1,8,0:0:0:0:
223,111,6675,1,8,0:0:0:0:
224,100,6729,1,0,0:0:0:0:
220,104,6837,1,8,0:0:0:0:
232,120,7053,1,0,0:0:0:0:
232,120,7125,1,0,0:0:0:0:
232,96,7197,1,8,0:0:0:0:
232,96,7269,1,8,0:0:0:0:
232,92,7341,1,0,0:0:0:0:
232,92,7413,1,0,0:0:0:0:
236,92,7484,1,8,0:0:0:0:
236,96,7556,1,8,0:0:0:0:
240,88,7628,1,0,0:0:0:0:
240,88,7700,1,8,0:0:0:0:
208,104,7916,1,0,0:0:0:0:
228,95,8024,1,8,0:0:0:0:
208,104,8132,1,0,0:0:0:0:
212,108,8348,1,8,0:0:0:0:
212,108,8564,1,4,0:0:0:0:
212,96,9427,1,4,0:0:0:0:
212,96,10290,1,4,0:0:0:0:
212,96,11154,1,4,0:0:0:0:
212,96,11585,1,8,0:0:0:0:
243,87,11801,1,0,0:0:0:0:
232,96,12017,1,4,0:0:0:0:
232,96,12664,1,8,0:0:0:0:
232,96,12772,1,8,0:0:0:0:
232,96,12880,1,0,0:0:0:0:
236,88,13528,1,8,0:0:0:0:
236,88,13743,1,0,0:0:0:0:
236,88,13959,1,8,0:0:0:0:
236,84,14175,1,8,0:0:0:0:
236,84,14391,1,0,0:0:0:0:
247,96,14607,1,8,0:0:0:0:
232,76,14661,1,8,0:0:0:0:
247,96,14715,1,0,0:0:0:0:
226,85,14769,1,0,0:0:0:0:
215,70,14823,1,8,0:0:0:0:
227,116,14930,1,0,0:0:0:0:
232,76,15038,1,8,0:0:0:0:
247,96,15092,1,8,0:0:0:0:
247,96,15146,1,0,0:0:0:0:
255,89,15254,1,8,0:0:0:0:
244,104,15470,1,0,0:0:0:0:
248,92,15794,1,8,0:0:0:0:
248,88,15902,1,0,0:0:0:0:
248,88,16118,1,0,0:0:0:0:
256,84,16333,1,8,0:0:0:0:
252,80,16549,1,0,0:0:0:0:
252,84,16765,1,8,0:0:0:0:
257,80,16873,1,8,0:0:0:0:
252,84,16981,1,0,0:0:0:0:
252,84,17197,1,12,0:0:0:0:
248,88,17520,1,0,0:0:0:0:
264,104,17844,1,8,0:0:0:0:
264,104,18060,1,0,0:0:0:0:
245,76,18707,1,0,0:0:0:0:
264,96,18923,1,8,0:0:0:0:
228,68,19139,1,8,0:0:0:0:
228,69,19247,1,8,0:0:0:0:
228,69,19355,1,0,0:0:0:0:
228,69,19571,1,8,0:0:0:0:
264,88,19787,1,0,0:0:0:0:
268,84,20218,1,8,0:0:0:0:
268,84,20434,1,0,0:0:0:0:
268,84,20650,1,8,0:0:0:0:
264,76,20866,1,0,0:0:0:0:
264,76,20974,1,0,0:0:0:0:
264,80,21082,1,8,0:0:0:0:
264,76,21297,1,0,0:0:0:0:
264,76,21405,1,0,0:0:0:0:
264,80,21513,1,8,0:0:0:0:
264,76,21729,1,0,0:0:0:0:
264,76,21837,1,0,0:0:0:0:
264,80,21945,1,8,0:0:0:0:
264,76,22161,1,0,0:0:0:0:
264,76,22269,1,8,0:0:0:0:
264,80,22377,1,8,0:0:0:0:
264,92,22430,1,8,0:0:0:0:
264,92,22484,1,0,0:0:0:0:
264,76,22592,1,0,0:0:0:0:
264,76,22700,1,0,0:0:0:0:
264,80,22808,1,8,0:0:0:0:
264,76,23024,1,0,0:0:0:0:
264,76,23132,1,0,0:0:0:0:
264,80,23240,1,8,0:0:0:0:
252,80,23294,1,8,0:0:0:0:
250,74,23348,1,0,0:0:0:0:
246,72,23456,1,0,0:0:0:0:
246,72,23564,1,8,0:0:0:0:
256,80,23672,1,0,0:0:0:0:
246,70,23887,1,0,0:0:0:0:
246,55,24103,1,8,0:0:0:0:
246,70,24319,1,8,0:0:0:0:
246,70,24427,1,8,0:0:0:0:
246,69,24535,1,0,0:0:0:0:
250,54,24643,1,0,0:0:0:0:
253,58,24751,1,8,0:0:0:0:
250,54,24966,1,0,0:0:0:0:
250,54,25074,1,0,0:0:0:0:
250,54,25182,1,8,0:0:0:0:
250,54,25398,1,8,0:0:0:0:
246,55,25506,1,8,0:0:0:0:
246,55,25614,1,0,0:0:0:0:
248,48,25830,1,8,0:0:0:0:
248,48,25938,1,8,0:0:0:0:
248,48,26046,1,0,0:0:0:0:
248,44,26261,1,0,0:0:0:0:
248,44,26477,1,8,0:0:0:0:
248,131,26693,1,4,0:0:0:0:
264,136,26909,1,8,0:0:0:0:
241,131,26981,1,0,0:0:0:0:
235,129,27053,1,0,0:0:0:0:
260,148,27125,1,8,0:0:0:0:
264,144,27197,1,8,0:0:0:0:
264,144,27269,1,0,0:0:0:0:
260,144,27341,1,8,0:0:0:0:
260,144,27413,1,0,0:0:0:0:
260,144,27556,1,0,0:0:0:0:
272,148,27880,1,0,0:0:0:0:
272,148,27988,1,8,0:0:0:0:
275,146,28204,1,0,0:0:0:0:
257,148,28420,1,0,0:0:0:0:
260,148,28528,1,8,0:0:0:0:
288,128,28636,1,0,0:0:0:0:
284,152,28743,1,0,0:0:0:0:
284,152,28851,1,8,0:0:0:0:
260,144,29067,1,8,0:0:0:0:
260,149,29283,1,0,0:0:0:0:
260,149,29391,1,8,0:0:0:0:
272,136,29607,1,8,0:0:0:0:
254,133,29715,1,8,0:0:0:0:
254,133,29930,1,0,0:0:0:0:
257,133,30146,1,8,0:0:0:0:
257,133,30254,1,0,0:0:0:0:
257,133,30362,1,8,0:0:0:0:
259,130,30578,1,0,0:0:0:0:
259,130,30686,1,0,0:0:0:0:
259,130,30794,1,8,0:0:0:0:
254,130,30902,1,8,0:0:0:0:
263,142,31010,1,0,0:0:0:0:
263,142,31333,1,0,0:0:0:0:
263,142,31441,1,8,0:0:0:0:
271,128,31657,1,0,0:0:0:0:
239,124,31765,1,8,0:0:0:0:
237,120,31873,1,8,0:0:0:0:
271,128,31981,1,8,0:0:0:0:
271,128,32089,1,0,0:0:0:0:
277,124,32305,1,8,0:0:0:0:
281,109,32520,1,0,0:0:0:0:
277,124,32736,1,0,0:0:0:0:
251,108,32952,1,8,0:0:0:0:
277,124,33168,1,8,0:0:0:0:
277,124,33276,1,8,0:0:0:0:
271,128,33492,1,8,0:0:0:0:
271,128,33600,1,0,0:0:0:0:
277,124,33815,1,8,0:0:0:0:
277,124,33923,1,0,0:0:0:0:
277,124,34031,1,8,0:0:0:0:
277,124,34247,1,0,0:0:0:0:
277,124,34463,1,8,0:0:0:0:
281,136,34571,1,8,0:0:0:0:
283,115,34787,1,8,0:0:0:0:
283,115,34895,1,0,0:0:0:0:
283,114,35110,1,8,0:0:0:0:
283,114,35218,1,0,0:0:0:0:
283,114,35326,1,8,0:0:0:0:
289,108,35434,1,0,0:0:0:0:
288,120,35542,1,0,0:0:0:0:
288,120,35758,1,8,0:0:0:0:
303,119,35974,1,8,0:0:0:0:
305,102,36082,1,8,0:0:0:0:
303,119,36189,1,0,0:0:0:0:
303,119,36405,1,0,0:0:0:0:
309,109,36513,1,0,0:0:0:0:
303,119,36621,1,8,0:0:0:0:
309,109,36729,1,0,0:0:0:0:
309,109,36945,1,8,0:0:0:0:
309,109,37161,1,8,0:0:0:0:
309,109,37269,1,0,0:0:0:0:
309,109,37484,1,0,0:0:0:0:
309,109,37700,1,8,0:0:0:0:
309,109,37808,1,8,0:0:0:0:
309,109,37916,1,0,0:0:0:0:
309,109,38132,1,0,0:0:0:0:
309,109,38240,1,0,0:0:0:0:
309,109,38348,1,8,0:0:0:0:
309,109,38456,1,0,0:0:0:0:
307,115,38564,1,0,0:0:0:0:
309,116,38672,1,8,0:0:0:0:
309,117,38779,1,0,0:0:0:0:
309,117,38995,1,8,0:0:0:0:
309,117,39103,1,8,0:0:0:0:
309,117,39211,1,0,0:0:0:0:
309,118,39427,1,8,0:0:0:0:
309,118,39643,1,4,0:0:0:0:
310,119,40074,1,4,0:0:0:0:
309,117,40506,1,12,0:0:0:0:
309,118,40938,1,8,0:0:0:0:
309,118,40992,1,8,0:0:0:0:
309,118,41046,1,8,0:0:0:0:
310,119,41369,1,0,0:0:0:0:
292,124,41821,1,0,0:0:0:0:
292,124,41972,1,8,0:0:0:0:
297,117,42122,1,8,0:0:0:0:
288,120,42273,1,0,0:0:0:0:
288,120,42575,1,8,0:0:0:0:
288,120,42876,1,0,0:0:0:0:
248,123,43178,5,8,0:0:0:0:
248,123,43328,1,8,0:0:0:0:
246,116,43479,1,0,0:0:0:0:
246,116,43630,1,8,0:0:0:0:
245,116,43781,1,8,0:0:0:0:
245,116,43931,1,0,0:0:0:0:
260,124,44082,1,0,0:0:0:0:
252,104,44685,1,8,0:0:0:0:
246,116,44987,5,0,0:0:0:0:
217,117,45439,1,8,0:0:0:0:
217,117,45590,1,8,0:0:0:0:
220,112,45891,1,0,0:0:0:0:
220,112,46193,1,0,0:0:0:0:
220,112,46494,1,8,0:0:0:0:
204,128,46796,5,0,0:0:0:0:
204,128,47248,1,8,0:0:0:0:
200,139,47399,1,0,0:0:0:0:
200,139,47549,1,8,0:0:0:0:
197,114,47700,1,0,0:0:0:0:
196,114,48002,1,0,0:0:0:0:
196,114,48303,1,8,0:0:0:0:
196,114,48454,1,8,0:0:0:0:
212,132,48529,1,8,0:0:0:0:
196,114,48605,1,0,0:0:0:0:
200,124,48906,1,8,0:0:0:0:
199,124,49057,1,0,0:0:0:0:
199,123,49208,1,8,0:0:0:0:
201,125,49509,1,0,0:0:0:0:
201,125,49811,1,8,0:0:0:0:
201,125,49961,1,8,0:0:0:0:
201,125,50112,1,0,0:0:0:0:
197,112,50414,1,8,0:0:0:0:
197,112,50564,1,0,0:0:0:0:
197,112,50715,1,8,0:0:0:0:
197,112,50866,1,8,0:0:0:0:
196,111,51017,1,0,0:0:0:0:
196,111,51167,1,8,0:0:0:0:
196,111,51321,1,0,0:0:0:0:
220,167,51752,5,8,0:0:0:0:
220,167,51968,1,8,0:0:0:0:
184,140,52184,1,0,0:0:0:0:
208,144,52292,1,0,0:0:0:0:
208,144,52346,1,0,0:0:0:0:
188,144,52400,1,8,0:0:0:0:
208,144,52508,1,0,0:0:0:0:
212,132,52615,1,8,0:0:0:0:
212,132,52723,1,0,0:0:0:0:
212,136,52831,1,8,0:0:0:0:
212,136,52885,1,0,0:0:0:0:
212,136,52939,1,0,0:0:0:0:
212,136,53047,1,8,0:0:0:0:
212,136,53155,1,0,0:0:0:0:
212,136,53263,1,0,0:0:0:0:
212,136,53371,1,8,0:0:0:0:
212,136,53479,1,8,0:0:0:0:
216,136,53533,1,0,0:0:0:0:
216,136,53587,1,0,0:0:0:0:
216,136,53695,1,8,0:0:0:0:
216,136,53803,1,0,0:0:0:0:
216,136,53910,1,0,0:0:0:0:
224,120,53964,1,0,0:0:0:0:
216,136,54018,1,8,0:0:0:0:
216,136,54126,1,0,0:0:0:0:
216,136,54234,1,8,0:0:0:0:
236,128,54342,1,0,0:0:0:0:
236,128,54450,1,8,0:0:0:0:
236,128,54558,1,8,0:0:0:0:
224,120,54774,1,4,0:0:0:0:
228,120,54990,1,8,0:0:0:0:
228,120,55097,1,0,0:0:0:0:
224,120,55205,1,8,0:0:0:0:
224,120,55259,1,8,0:0:0:0:
224,120,55313,1,0,0:0:0:0:
224,120,55421,1,8,0:0:0:0:
224,120,55475,1,8,0:0:0:0:
224,120,55529,1,0,0:0:0:0:
228,120,55637,1,8,0:0:0:0:
228,120,55853,1,8,0:0:0:0:
228,120,55961,1,0,0:0:0:0:
228,120,56069,1,8,0:0:0:0:
232,112,56285,1,8,0:0:0:0:
232,112,56392,1,0,0:0:0:0:
232,112,56500,1,8,0:0:0:0:
232,112,56554,1,0,0:0:0:0:
232,112,56608,1,0,0:0:0:0:
232,112,56716,1,8,0:0:0:0:
236,108,56932,1,8,0:0:0:0:
236,108,56986,1,8,0:0:0:0:
236,108,57040,1,0,0:0:0:0:
236,108,57094,1,0,0:0:0:0:
236,108,57148,1,8,0:0:0:0:
236,108,57202,1,8,0:0:0:0:
236,108,57256,1,8,0:0:0:0:
236,108,57310,1,8,0:0:0:0:
236,108,57364,1,0,0:0:0:0:
236,108,57579,1,8,0:0:0:0:
236,108,57687,1,0,0:0:0:0:
236,108,57795,1,8,0:0:0:0:
224,104,57849,1,8,0:0:0:0:
236,108,57903,1,0,0:0:0:0:
236,108,58011,1,8,0:0:0:0:
224,104,58065,1,8,0:0:0:0:
236,108,58119,1,0,0:0:0:0:
244,104,58227,1,12,0:0:0:0:
244,104,58443,1,0,0:0:0:0:
244,104,58497,1,0,0:0:0:0:
244,104,58551,1,8,0:0:0:0:
244,104,58659,1,0,0:0:0:0:
244,100,58767,1,0,0:0:0:0:
244,104,58874,1,8,0:0:0:0:
248,96,59090,1,4,0:0:0:0:
244,100,59306,1,8,0:0:0:0:
244,100,59414,1,0,0:0:0:0:
244,100,59522,1,8,0:0:0:0:
244,96,59576,1,8,0:0:0:0:
244,100,59630,1,0,0:0:0:0:
244,104,59738,1,8,0:0:0:0:
260,108,59792,1,8,0:0:0:0:
244,104,59846,1,0,0:0:0:0:
260,104,59954,1,8,0:0:0:0:
260,108,60008,1,8,0:0:0:0:
260,108,60062,1,0,0:0:0:0:
260,100,60169,1,8,0:0:0:0:
260,96,60277,1,0,0:0:0:0:
264,100,60385,1,8,0:0:0:0:
272,92,60439,1,8,0:0:0:0:
260,96,60493,1,0,0:0:0:0:
260,96,60547,1,0,0:0:0:0:
260,96,60601,1,8,0:0:0:0:
268,96,60709,1,0,0:0:0:0:
264,96,60817,1,8,0:0:0:0:
248,88,60925,1,0,0:0:0:0:
272,92,61033,1,8,0:0:0:0:
272,92,61141,1,0,0:0:0:0:
256,104,61195,1,0,0:0:0:0:
264,100,61249,1,8,0:0:0:0:
260,88,61356,1,0,0:0:0:0:
260,88,61464,1,8,0:0:0:0:
256,88,61572,1,0,0:0:0:0:
256,88,61626,1,0,0:0:0:0:
256,88,61680,1,8,0:0:0:0:
256,88,61788,1,0,0:0:0:0:
260,88,61896,1,8,0:0:0:0:
260,88,61950,1,8,0:0:0:0:
260,88,62004,1,0,0:0:0:0:
260,88,62112,1,8,0:0:0:0:
260,88,62220,1,8,0:0:0:0:
264,96,62328,1,8,0:0:0:0:
248,80,62544,1,8,0:0:0:0:
252,80,62651,1,0,0:0:0:0:
272,92,62705,1,0,0:0:0:0:
252,80,62759,1,8,0:0:0:0:
264,88,62975,1,0,0:0:0:0:
264,88,63029,1,0,0:0:0:0:
264,88,63083,1,0,0:0:0:0:
264,88,63191,1,8,0:0:0:0:
264,76,63407,1,0,0:0:0:0:
264,76,63515,1,0,0:0:0:0:
264,76,63623,1,8,0:0:0:0:
272,76,63838,1,0,0:0:0:0:
272,76,63946,1,0,0:0:0:0:
272,76,64000,1,0,0:0:0:0:
272,76,64054,1,8,0:0:0:0:
272,76,64162,1,0,0:0:0:0:
272,76,64270,1,8,0:0:0:0:
272,76,64324,1,8,0:0:0:0:
272,76,64378,1,0,0:0:0:0:
272,76,64486,1,8,0:0:0:0:
272,76,64540,1,8,0:0:0:0:
272,76,64594,1,0,0:0:0:0:
272,76,64702,1,8,0:0:0:0:
272,76,64756,1,8,0:0:0:0:
272,76,64810,1,0,0:0:0:0:
276,72,64918,1,8,0:0:0:0:
276,72,64972,1,8,0:0:0:0:
272,104,65026,1,0,0:0:0:0:
268,88,65133,1,8,0:0:0:0:
268,88,65241,1,0,0:0:0:0:
268,88,65349,1,8,0:0:0:0:
276,76,65457,1,8,0:0:0:0:
268,92,65511,1,8,0:0:0:0:
280,72,65565,1,0,0:0:0:0:
280,72,65673,1,0,0:0:0:0:
280,72,65781,1,8,0:0:0:0:
268,92,65889,1,8,0:0:0:0:
272,92,65997,1,0,0:0:0:0:
268,68,66213,1,8,0:0:0:0:
268,68,66320,1,0,0:0:0:0:
272,92,66428,1,8,0:0:0:0:
272,92,66482,1,0,0:0:0:0:
272,92,66536,1,0,0:0:0:0:
272,84,66644,1,8,0:0:0:0:
276,80,66752,1,0,0:0:0:0:
280,68,66860,1,8,0:0:0:0:
280,68,66968,1,0,0:0:0:0:
280,68,67076,1,8,0:0:0:0:
280,72,67130,1,0,0:0:0:0:
280,72,67184,1,0,0:0:0:0:
280,72,67292,1,8,0:0:0:0:
280,68,67400,1,0,0:0:0:0:
280,68,67508,1,8,0:0:0:0:
280,68,67562,1,0,0:0:0:0:
280,68,67615,1,0,0:0:0:0:
280,68,67723,1,0,0:0:0:0:
280,68,67939,1,0,0:0:0:0:
280,68,67993,1,0,0:0:0:0:
280,68,68047,1,8,0:0:0:0:
280,68,68101,1,8,0:0:0:0:
284,68,68155,1,0,0:0:0:0:
280,68,68371,1,8,0:0:0:0:
280,68,68425,1,8,0:0:0:0:
280,68,68479,1,8,0:0:0:0:
280,68,68533,1,8,0:0:0:0:
280,68,68587,1,0,0:0:0:0:
280,72,68695,1,8,0:0:0:0:
280,72,68803,1,0,0:0:0:0:
280,68,68910,1,0,0:0:0:0:
280,68,69018,1,8,0:0:0:0:
280,68,69234,1,0,0:0:0:0:
280,68,69450,1,0,0:0:0:0:
268,64,69666,1,8,0:0:0:0:
272,64,69882,1,0,0:0:0:0:
272,64,69936,1,0,0:0:0:0:
272,64,69990,1,0,0:0:0:0:
272,64,70097,1,8,0:0:0:0:
272,64,70313,1,0,0:0:0:0:
252,36,70529,1,8,0:0:0:0:
272,48,70745,1,0,0:0:0:0:
272,48,70799,1,0,0:0:0:0:
272,48,70853,1,0,0:0:0:0:
272,48,70961,1,8,0:0:0:0:
272,52,71069,1,0,0:0:0:0:
272,52,71123,1,0,0:0:0:0:
272,48,71177,1,8,0:0:0:0:
272,48,71231,1,8,0:0:0:0:
272,48,71285,1,0,0:0:0:0:
272,48,71392,1,8,0:0:0:0:
272,52,71446,1,8,0:0:0:0:
272,52,71500,1,0,0:0:0:0:
272,52,71608,1,8,0:0:0:0:
272,52,71662,1,8,0:0:0:0:
272,52,71716,1,0,0:0:0:0:
272,52,71824,1,8,0:0:0:0:
272,52,71878,1,8,0:0:0:0:
272,52,71932,1,0,0:0:0:0:
276,52,72040,1,0,0:0:0:0:
276,52,72148,1,8,0:0:0:0:
276,52,72256,1,8,0:0:0:0:
276,52,72364,1,0,0:0:0:0:
276,52,72472,1,8,0:0:0:0:
272,52,72687,1,8,0:0:0:0:
276,52,72795,1,8,0:0:0:0:
276,52,72849,1,8,0:0:0:0:
276,52,72903,1,0,0:0:0:0:
272,52,73011,1,8,0:0:0:0:
272,52,73119,1,0,0:0:0:0:
272,52,73227,1,0,0:0:0:0:
272,52,73335,1,8,0:0:0:0:
284,52,73551,1,8,0:0:0:0:
284,56,73659,1,8,0:0:0:0:
284,56,73713,1,8,0:0:0:0:
284,56,73767,1,0,0:0:0:0:
288,56,73874,1,8,0:0:0:0:
288,60,73982,1,0,0:0:0:0:
284,52,74090,1,0,0:0:0:0:
284,52,74198,1,8,0:0:0:0:
284,52,74306,1,8,0:0:0:0:
284,52,74414,1,0,0:0:0:0:
288,60,74630,1,0,0:0:0:0:
288,60,74738,1,8,0:0:0:0:
288,60,74846,1,0,0:0:0:0:
288,60,74900,1,0,0:0:0:0:
288,60,74954,1,8,0:0:0:0:
288,60,75062,1,8,0:0:0:0:
284,56,75169,1,0,0:0:0:0:
284,56,75277,1,8,0:0:0:0:
288,60,75493,1,0,0:0:0:0:
280,68,75601,1,0,0:0:0:0:
280,68,75709,1,8,0:0:0:0:
280,68,75763,1,8,0:0:0:0:
280,64,75817,1,0,0:0:0:0:
280,64,75925,1,8,0:0:0:0:
280,64,75979,1,8,0:0:0:0:
280,64,76033,1,0,0:0:0:0:
288,60,76141,1,8,0:0:0:0:
288,60,76249,1,0,0:0:0:0:
288,60,76356,1,0,0:0:0:0:
288,60,77220,1,8,0:0:0:0:
296,62,77651,1,12,0:0:0:0:
292,60,78083,1,8,0:0:0:0:
292,60,78191,1,0,0:0:0:0:
292,60,78299,1,8,0:0:0:0:
296,60,78407,1,0,0:0:0:0:
296,60,78515,1,8,0:0:0:0:
296,60,78569,1,8,0:0:0:0:
296,60,78623,1,0,0:0:0:0:
296,64,78731,1,8,0:0:0:0:
296,64,78838,1,0,0:0:0:0:
300,60,78946,1,8,0:0:0:0:
300,60,79054,1,0,0:0:0:0:
300,60,79162,1,8,0:0:0:0:
300,60,79216,1,0,0:0:0:0:
300,60,79270,1,0,0:0:0:0:
300,60,79378,1,8,0:0:0:0:
300,60,79486,1,0,0:0:0:0:
300,60,79594,1,8,0:0:0:0:
300,60,79648,1,8,0:0:0:0:
300,60,79702,1,0,0:0:0:0:
300,60,79810,1,0,0:0:0:0:
284,48,80026,1,8,0:0:0:0:
288,48,80133,1,8,0:0:0:0:
288,48,80241,1,0,0:0:0:0:
288,48,80295,1,0,0:0:0:0:
276,36,80349,1,0,0:0:0:0:
276,36,80457,1,8,0:0:0:0:
276,36,80673,1,8,0:0:0:0:
280,36,80727,1,8,0:0:0:0:
280,36,80781,1,0,0:0:0:0:
280,36,80889,1,8,0:0:0:0:
280,36,80943,1,8,0:0:0:0:
280,36,80997,1,0,0:0:0:0:
280,36,81105,1,8,0:0:0:0:
318,95,81320,5,8,0:0:0:0:
318,96,81374,1,8,0:0:0:0:
221,147,81428,1,8,0:0:0:0:
221,147,81482,1,8,0:0:0:0:
240,154,81536,1,0,0:0:0:0:
230,159,81752,1,0,0:0:0:0:
235,166,81860,1,0,0:0:0:0:
235,166,81968,1,8,0:0:0:0:
235,166,82184,1,0,0:0:0:0:
235,166,82238,1,0,0:0:0:0:
235,166,82292,1,0,0:0:0:0:
235,166,82400,1,8,0:0:0:0:
235,165,82615,1,0,0:0:0:0:
235,165,82723,1,0,0:0:0:0:
235,165,82831,1,8,0:0:0:0:
235,165,83047,1,0,0:0:0:0:
235,165,83101,1,0,0:0:0:0:
235,165,83155,1,0,0:0:0:0:
235,165,83263,1,8,0:0:0:0:
235,158,83479,1,0,0:0:0:0:
235,158,83587,1,0,0:0:0:0:
235,158,83695,1,8,0:0:0:0:
215,129,83910,1,0,0:0:0:0:
215,129,83964,1,0,0:0:0:0:
215,129,84018,1,0,0:0:0:0:
215,129,84126,1,8,0:0:0:0:
215,129,84342,1,0,0:0:0:0:
215,129,84450,1,0,0:0:0:0:
215,129,84558,1,8,0:0:0:0:
134,174,84990,2,0,P|129:281|244:149,1,420
226,103,85745,5,8,0:0:0:0:
226,103,85853,1,0,0:0:0:0:
254,129,85961,1,8,0:0:0:0:
232,124,86069,1,8,0:0:0:0:
254,129,86177,1,0,0:0:0:0:
254,129,86285,1,8,0:0:0:0:
254,129,86500,1,8,0:0:0:0:
254,129,86554,1,8,0:0:0:0:
254,129,86608,1,0,0:0:0:0:
270,132,86716,1,8,0:0:0:0:
272,133,86932,1,0,0:0:0:0:
272,133,87040,1,8,0:0:0:0:
272,134,87256,1,0,0:0:0:0:
272,134,87310,1,0,0:0:0:0:
272,134,87364,1,0,0:0:0:0:
273,135,87579,1,12,0:0:0:0:
272,135,88011,1,8,0:0:0:0:
272,135,88065,1,8,0:0:0:0:
272,135,88119,1,0,0:0:0:0:
277,127,88173,1,8,0:0:0:0:
276,127,88227,1,0,0:0:0:0:
