osu file format v14

[General]
AudioFilename: ratsyks.mp3
AudioLeadIn: 0
PreviewTime: 58443
Countdown: 0
SampleSet: Normal
StackLeniency: 0.7
Mode: 1
LetterboxInBreaks: 0
WidescreenStoryboard: 0

[Editor]
Bookmarks: 65997
DistanceSpacing: 1.1
BeatDivisor: 4
GridSize: 4
TimelineZoom: 3.499998

[Metadata]
Title:Kakushinteki*Metamaruphose!
TitleUnicode:かくしん的☆めたまるふぉ~ぜっ!
Artist:Umaru Doma [CV: Aimi Tanaka]
ArtistUnicode:土間うまる[CV:田中あいみ]
Creator:-H a y a-
Version:Himouto!
Source:干物妹! うまるちゃん!
Tags:Himouto! Umaruchan opening anime tv size
BeatmapID:739983
BeatmapSetID:334440

[Difficulty]
HPDrainRate:6.5
CircleSize:4
OverallDifficulty:6.5
ApproachRate:9
SliderMultiplier:1.4
SliderTickRate:1

[Events]
//Background and Video events
0,0,"BG.jpg",0,0
//Break Periods
//Storyboard Layer 0 (Background)
//Storyboard Layer 1 (Fail)
//Storyboard Layer 2 (Pass)
//Storyboard Layer 3 (Foreground)
//Storyboard Sound Samples

[TimingPoints]
-69,215.827338129496,4,1,0,80,1,0
27880,-133.333333333333,4,1,0,80,0,0
41369,301.507537688442,3,1,0,80,1,0
51321,215.827338129496,4,1,0,80,1,0
59090,-100,4,1,0,80,0,1
76356,-100,4,1,0,80,0,0

[HitObjects]
227,167,578,5,8,0:0:0:0:
224,160,632,1,8,0:0:0:0:
224,160,686,1,0,0:0:0:0:
224,160,740,1,0,0:0:0:0:
224,160,794,1,8,0:0:0:0:
232,160,1010,1,0,0:0:0:0:
232,160,1064,1,0,0:0:0:0:
232,160,1118,1,8,0:0:0:0:
232,164,1172,1,8,0:0:0:0:
232,164,1225,1,0,0:0:0:0:
232,160,1441,1,8,0:0:0:0:
232,164,1549,1,8,0:0:0:0:
228,148,1603,1,8,0:0:0:0:
232,164,1657,1,0,0:0:0:0:
236,144,1765,1,8,0:0:0:0:
236,144,1873,1,0,0:0:0:0:
226,134,1927,1,0,0:0:0:0:
232,144,1981,1,8,0:0:0:0:
232,144,2089,1,8,0:0:0:0:
236,148,2197,1,0,0:0:0:0:
232,144,2251,1,0,0:0:0:0:
236,148,2305,1,8,0:0:0:0:
232,140,2520,1,8,0:0:0:0:
232,140,2628,1,0,0:0:0:0:
235,126,2682,1,0,0:0:0:0:
232,140,2736,1,8,0:0:0:0:
232,140,2844,1,0,0:0:0:0:
236,136,2952,1,8,0:0:0:0:
235,125,3006,1,8,0:0:0:0:
232,136,3060,1,0,0:0:0:0:
228,148,3168,1,12,0:0:0:0:
248,136,3384,1,8,0:0:0:0:
232,132,3492,1,0,0:0:0:0:
248,136,3600,1,8,0:0:0:0:
232,120,3654,1,8,0:0:0:0:
248,136,3707,1,0,0:0:0:0:
248,136,3815,1,8,0:0:0:0:
232,120,3923,1,0,0:0:0:0:
232,120,3977,1,0,0:0:0:0:
232,120,4031,1,8,0:0:0:0:
224,120,4085,1,8,0:0:0:0:
224,120,4139,1,0,0:0:0:0:
228,120,4247,1,0,0:0:0:0:
228,120,4355,1,0,0:0:0:0:
228,120,4463,1,8,0:0:0:0:
224,120,4571,1,0,0:0:0:0:
224,120,4679,1,12,0:0:0:0:
224,120,4895,1,8,0:0:0:0:
224,120,5002,1,0,0:0:0:0:
232,120,5110,1,8,0:0:0:0:
220,120,5164,1,8,0:0:0:0:
216,120,5218,1,0,0:0:0:0:
216,120,5326,1,8,0:0:0:0:
216,120,5434,1,0,0:0:0:0:
232,120,5542,1,8,0:0:0:0:
232,120,5596,1,8,0:0:0:0:
232,116,5650,1,0,0:0:0:0:
232,116,5704,1,0,0:0:0:0:
228,120,5758,1,8,0:0:0:0:
216,112,5974,1,8,0:0:0:0:
216,112,6028,1,8,0:0:0:0:
220,116,6082,1,0,0:0:0:0:
224,108,6189,1,8,0:0:0:0:
224,104,6297,1,8,0:0:0:0:
224,104,6351,1,8,0:0:0:0:
220,112,6405,1,0,0:0:0:0:
220,112,6513,1,0,0:0:0:0:
220,112,6621,1,8,0:0:0:0:
223,111,6675,1,8,0:0:0:0:
224,100,6729,1,0,0:0:0:0:
220,104,6837,1,8,0:0:0:0:
232,120,7053,1,8,0:0:0:0:
232,120,7125,1,8,0:0:0:0:
232,96,7197,1,0,0:0:0:0:
232,96,7269,1,0,0:0:0:0:
232,92,7341,1,8,0:0:0:0:
232,92,7413,1,0,0:0:0:0:
236,92,7484,1,8,0:0:0:0:
236,96,7556,1,8,0:0:0:0:
240,88,7628,1,0,0:0:0:0:
240,88,7700,1,8,0:0:0:0:
208,104,7916,1,0,0:0:0:0:
208,104,8132,1,0,0:0:0:0:
212,108,8348,1,8,0:0:0:0:
212,108,8564,1,4,0:0:0:0:
212,96,9427,1,4,0:0:0:0:
212,96,10290,1,4,0:0:0:0:
212,96,11154,1,4,0:0:0:0:
212,96,11585,1,8,0:0:0:0:
232,96,11801,1,0,0:0:0:0:
232,96,12017,1,8,0:0:0:0:
232,96,12664,1,0,0:0:0:0:
232,96,12718,1,0,0:0:0:0:
232,96,12772,1,0,0:0:0:0:
232,96,12826,1,0,0:0:0:0:
232,96,12880,1,8,0:0:0:0:
236,88,13528,1,8,0:0:0:0:
236,88,13743,1,0,0:0:0:0:
236,88,13959,1,8,0:0:0:0:
236,84,14175,1,8,0:0:0:0:
236,84,14283,1,8,0:0:0:0:
236,84,14391,1,0,0:0:0:0:
247,96,14607,1,8,0:0:0:0:
232,76,14661,1,8,0:0:0:0:
247,96,14715,1,0,0:0:0:0:
247,96,14769,1,8,0:0:0:0:
236,111,14823,1,0,0:0:0:0:
247,97,14877,1,0,0:0:0:0:
236,111,14930,1,8,0:0:0:0:
232,76,15038,1,8,0:0:0:0:
236,88,15092,1,8,0:0:0:0:
247,96,15146,1,0,0:0:0:0:
248,92,15200,1,8,0:0:0:0:
248,92,15254,1,0,0:0:0:0:
244,104,15470,1,0,0:0:0:0:
248,92,15794,1,8,0:0:0:0:
248,88,15902,1,0,0:0:0:0:
248,88,16118,1,0,0:0:0:0:
256,84,16333,1,8,0:0:0:0:
252,80,16549,1,0,0:0:0:0:
252,84,16657,1,0,0:0:0:0:
252,84,16765,1,8,0:0:0:0:
252,84,16981,1,0,0:0:0:0:
252,84,17197,1,12,0:0:0:0:
248,88,17520,1,0,0:0:0:0:
264,104,17844,1,8,0:0:0:0:
264,104,18060,1,0,0:0:0:0:
264,96,18707,1,0,0:0:0:0:
264,96,18815,1,8,0:0:0:0:
260,88,18869,1,0,0:0:0:0:
260,88,18923,1,8,0:0:0:0:
248,88,18977,1,8,0:0:0:0:
256,92,19031,1,0,0:0:0:0:
260,88,19085,1,0,0:0:0:0:
260,88,19139,1,8,0:0:0:0:
260,88,19193,1,8,0:0:0:0:
260,88,19247,1,0,0:0:0:0:
256,72,19301,1,0,0:0:0:0:
264,96,19355,1,8,0:0:0:0:
264,96,19571,1,0,0:0:0:0:
264,88,19787,1,0,0:0:0:0:
268,84,20218,1,8,0:0:0:0:
268,84,20434,1,0,0:0:0:0:
268,84,20650,1,8,0:0:0:0:
264,76,20866,1,0,0:0:0:0:
264,76,20974,1,0,0:0:0:0:
264,80,21082,1,8,0:0:0:0:
277,63,21297,1,8,0:0:0:0:
268,72,21405,1,0,0:0:0:0:
268,72,21513,1,8,0:0:0:0:
277,65,21567,1,8,0:0:0:0:
278,65,21621,1,0,0:0:0:0:
256,72,21729,1,0,0:0:0:0:
256,72,21837,1,0,0:0:0:0:
252,74,21891,1,0,0:0:0:0:
256,72,21945,1,8,0:0:0:0:
248,79,22053,1,0,0:0:0:0:
249,81,22161,1,8,0:0:0:0:
249,78,22215,1,8,0:0:0:0:
256,56,22269,1,0,0:0:0:0:
256,56,22377,1,8,0:0:0:0:
250,81,22484,1,0,0:0:0:0:
251,81,22592,1,8,0:0:0:0:
251,81,22646,1,8,0:0:0:0:
252,48,22700,1,0,0:0:0:0:
252,48,22808,1,8,0:0:0:0:
251,79,22916,1,0,0:0:0:0:
235,58,22970,1,0,0:0:0:0:
235,58,23024,1,8,0:0:0:0:
235,58,23132,1,0,0:0:0:0:
252,48,23240,1,8,0:0:0:0:
253,80,23294,1,8,0:0:0:0:
248,52,23348,1,0,0:0:0:0:
256,48,23456,1,0,0:0:0:0:
256,56,23564,1,8,0:0:0:0:
256,56,23672,1,0,0:0:0:0:
253,76,23725,1,0,0:0:0:0:
249,78,23779,1,8,0:0:0:0:
253,74,23887,1,0,0:0:0:0:
240,48,24103,1,8,0:0:0:0:
249,54,24211,1,0,0:0:0:0:
249,54,24319,1,8,0:0:0:0:
249,54,24373,1,8,0:0:0:0:
252,48,24427,1,0,0:0:0:0:
252,40,24535,1,8,0:0:0:0:
249,54,24643,1,0,0:0:0:0:
249,54,24697,1,0,0:0:0:0:
249,54,24751,1,8,0:0:0:0:
240,32,24859,1,0,0:0:0:0:
240,32,24966,1,8,0:0:0:0:
250,40,25020,1,8,0:0:0:0:
250,40,25074,1,0,0:0:0:0:
240,24,25182,1,0,0:0:0:0:
240,24,25290,1,8,0:0:0:0:
240,24,25398,1,8,0:0:0:0:
240,24,25452,1,8,0:0:0:0:
240,24,25506,1,0,0:0:0:0:
240,24,25614,1,8,0:0:0:0:
240,24,25722,1,0,0:0:0:0:
240,20,25830,1,8,0:0:0:0:
240,20,25884,1,8,0:0:0:0:
240,20,25938,1,0,0:0:0:0:
240,20,26046,1,8,0:0:0:0:
240,20,26154,1,0,0:0:0:0:
240,20,26369,1,0,0:0:0:0:
240,20,26477,1,8,0:0:0:0:
240,16,26693,1,0,0:0:0:0:
264,136,26909,1,0,0:0:0:0:
260,148,26981,1,0,0:0:0:0:
260,148,27053,1,8,0:0:0:0:
260,148,27125,1,0,0:0:0:0:
264,144,27197,1,8,0:0:0:0:
264,144,27269,1,8,0:0:0:0:
260,144,27341,1,0,0:0:0:0:
260,144,27413,1,0,0:0:0:0:
260,144,27484,1,8,0:0:0:0:
260,144,27556,1,0,0:0:0:0:
272,148,27880,1,0,0:0:0:0:
272,148,27988,1,8,0:0:0:0:
275,146,28096,1,0,0:0:0:0:
257,148,28312,1,0,0:0:0:0:
260,148,28528,1,8,0:0:0:0:
260,148,28636,1,0,0:0:0:0:
257,148,28851,1,8,0:0:0:0:
260,144,29067,1,8,0:0:0:0:
260,149,29175,1,0,0:0:0:0:
260,149,29283,1,0,0:0:0:0:
254,133,29607,1,0,0:0:0:0:
254,133,29715,1,8,0:0:0:0:
255,136,29823,1,0,0:0:0:0:
254,133,30038,1,0,0:0:0:0:
257,133,30254,1,8,0:0:0:0:
261,131,30362,1,0,0:0:0:0:
257,133,30470,1,8,0:0:0:0:
259,130,30578,1,0,0:0:0:0:
259,130,30686,1,0,0:0:0:0:
259,130,30794,1,8,0:0:0:0:
263,142,31010,1,0,0:0:0:0:
263,142,31225,1,0,0:0:0:0:
263,142,31333,1,0,0:0:0:0:
263,142,31441,1,8,0:0:0:0:
268,137,31549,1,8,0:0:0:0:
271,128,31657,1,0,0:0:0:0:
271,128,31765,1,8,0:0:0:0:
271,128,31873,1,0,0:0:0:0:
271,128,31981,1,8,0:0:0:0:
271,128,32089,1,0,0:0:0:0:
277,124,32305,1,8,0:0:0:0:
275,127,32359,1,8,0:0:0:0:
272,124,32413,1,0,0:0:0:0:
277,124,32520,1,8,0:0:0:0:
277,124,32628,1,8,0:0:0:0:
277,124,32736,1,0,0:0:0:0:
277,124,32952,1,0,0:0:0:0:
277,124,33168,1,8,0:0:0:0:
277,124,33276,1,8,0:0:0:0:
277,124,33384,1,0,0:0:0:0:
271,128,33492,1,8,0:0:0:0:
271,128,33600,1,0,0:0:0:0:
277,124,33707,1,8,0:0:0:0:
277,124,33815,1,8,0:0:0:0:
277,124,33923,1,0,0:0:0:0:
277,124,34031,1,8,0:0:0:0:
277,124,34247,1,0,0:0:0:0:
277,124,34463,1,8,0:0:0:0:
281,136,34571,1,8,0:0:0:0:
283,115,34787,1,8,0:0:0:0:
283,115,34895,1,0,0:0:0:0:
283,114,35110,1,8,0:0:0:0:
283,114,35218,1,0,0:0:0:0:
283,114,35326,1,8,0:0:0:0:
288,120,35434,1,8,0:0:0:0:
288,120,35542,1,0,0:0:0:0:
288,120,35650,1,0,0:0:0:0:
288,120,35758,1,8,0:0:0:0:
303,119,35974,1,8,0:0:0:0:
305,102,36082,1,8,0:0:0:0:
303,119,36189,1,0,0:0:0:0:
303,119,36405,1,0,0:0:0:0:
309,109,36513,1,0,0:0:0:0:
303,119,36621,1,8,0:0:0:0:
309,109,36729,1,0,0:0:0:0:
309,109,36945,1,8,0:0:0:0:
309,109,37161,1,8,0:0:0:0:
309,109,37269,1,0,0:0:0:0:
309,109,37484,1,0,0:0:0:0:
309,109,37700,1,8,0:0:0:0:
309,109,37808,1,8,0:0:0:0:
309,109,37916,1,0,0:0:0:0:
309,109,38132,1,0,0:0:0:0:
309,109,38240,1,0,0:0:0:0:
309,109,38348,1,8,0:0:0:0:
309,109,38402,1,8,0:0:0:0:
309,109,38456,1,0,0:0:0:0:
309,109,38510,1,8,0:0:0:0:
307,115,38564,1,0,0:0:0:0:
309,116,38672,1,8,0:0:0:0:
309,117,38779,1,0,0:0:0:0:
309,117,38995,1,8,0:0:0:0:
309,117,39103,1,8,0:0:0:0:
309,117,39211,1,0,0:0:0:0:
309,118,39427,1,8,0:0:0:0:
309,118,39643,1,4,0:0:0:0:
310,119,40074,1,4,0:0:0:0:
309,117,40506,1,12,0:0:0:0:
309,118,40938,1,8,0:0:0:0:
309,118,40992,1,8,0:0:0:0:
309,118,41046,1,8,0:0:0:0:
310,119,41369,1,0,0:0:0:0:
309,117,41821,1,8,0:0:0:0:
296,116,41972,1,0,0:0:0:0:
297,117,42122,1,8,0:0:0:0:
232,110,42273,2,0,P|226:204|320:129,1,280
248,123,43178,1,0,0:0:0:0:
248,123,43253,1,0,0:0:0:0:
248,123,43328,1,8,0:0:0:0:
246,116,43479,1,0,0:0:0:0:
246,116,43630,1,8,0:0:0:0:
245,116,43781,1,8,0:0:0:0:
245,116,43931,1,0,0:0:0:0:
191,136,44082,2,0,P|135:234|221:178,1,280
246,116,44987,1,0,0:0:0:0:
217,117,45439,1,8,0:0:0:0:
217,117,45590,1,0,0:0:0:0:
171,104,45891,2,0,P|116:136|233:164,1,280
204,128,46796,1,0,0:0:0:0:
204,128,47248,1,8,0:0:0:0:
200,139,47399,1,0,0:0:0:0:
200,139,47549,1,8,0:0:0:0:
197,114,47700,1,0,0:0:0:0:
196,114,48002,1,0,0:0:0:0:
196,114,48303,1,8,0:0:0:0:
196,114,48454,1,8,0:0:0:0:
196,114,48605,1,0,0:0:0:0:
200,124,48906,1,8,0:0:0:0:
199,124,49057,1,0,0:0:0:0:
199,123,49208,1,8,0:0:0:0:
201,125,49509,1,0,0:0:0:0:
201,125,49811,1,8,0:0:0:0:
201,125,49961,1,8,0:0:0:0:
201,125,50112,1,0,0:0:0:0:
197,112,50414,1,8,0:0:0:0:
197,112,50564,1,0,0:0:0:0:
197,112,50715,1,8,0:0:0:0:
197,112,50866,1,8,0:0:0:0:
196,111,51017,1,0,0:0:0:0:
196,111,51167,1,8,0:0:0:0:
196,111,51321,1,0,0:0:0:0:
220,167,51752,5,8,0:0:0:0:
220,167,51968,1,8,0:0:0:0:
220,167,52184,1,0,0:0:0:0:
220,167,52238,1,0,0:0:0:0:
220,167,52292,1,8,0:0:0:0:
220,167,52400,1,0,0:0:0:0:
220,167,52508,1,8,0:0:0:0:
220,167,52615,1,0,0:0:0:0:
220,167,52669,1,0,0:0:0:0:
220,167,52723,1,8,0:0:0:0:
220,167,52831,1,0,0:0:0:0:
220,167,52939,1,8,0:0:0:0:
220,167,53047,1,0,0:0:0:0:
220,167,53155,1,8,0:0:0:0:
220,167,53209,1,8,0:0:0:0:
220,167,53263,1,0,0:0:0:0:
220,167,53371,1,8,0:0:0:0:
220,167,53479,1,0,0:0:0:0:
220,167,53587,1,8,0:0:0:0:
220,167,53641,1,8,0:0:0:0:
220,167,53695,1,0,0:0:0:0:
220,167,53803,1,8,0:0:0:0:
217,177,53910,1,0,0:0:0:0:
217,177,53964,1,0,0:0:0:0:
217,177,54018,1,8,0:0:0:0:
217,177,54126,1,0,0:0:0:0:
217,177,54234,1,8,0:0:0:0:
217,177,54288,1,0,0:0:0:0:
217,177,54342,1,0,0:0:0:0:
217,176,54450,1,8,0:0:0:0:
217,176,54558,1,0,0:0:0:0:
217,176,54612,1,0,0:0:0:0:
220,167,54666,1,8,0:0:0:0:
220,167,54774,1,0,0:0:0:0:
220,167,54882,1,8,0:0:0:0:
220,167,54990,1,0,0:0:0:0:
220,167,55097,1,8,0:0:0:0:
196,111,55205,1,0,0:0:0:0:
196,111,55259,1,0,0:0:0:0:
196,111,55313,1,8,0:0:0:0:
196,111,55421,1,0,0:0:0:0:
196,111,55475,1,0,0:0:0:0:
196,111,55529,1,8,0:0:0:0:
196,111,55637,1,0,0:0:0:0:
196,111,55745,1,8,0:0:0:0:
196,111,55799,1,8,0:0:0:0:
196,111,55853,1,0,0:0:0:0:
196,111,55961,1,8,0:0:0:0:
196,111,56069,1,0,0:0:0:0:
187,122,56123,1,0,0:0:0:0:
188,122,56177,1,8,0:0:0:0:
177,112,56285,1,8,0:0:0:0:
184,97,56392,1,0,0:0:0:0:
186,98,56500,1,8,0:0:0:0:
186,98,56554,1,8,0:0:0:0:
186,98,56608,1,0,0:0:0:0:
186,98,56716,1,8,0:0:0:0:
186,98,56824,1,0,0:0:0:0:
186,98,56932,1,8,0:0:0:0:
186,98,56986,1,8,0:0:0:0:
186,98,57040,1,0,0:0:0:0:
186,96,57148,1,8,0:0:0:0:
186,96,57364,1,0,0:0:0:0:
186,96,57579,1,8,0:0:0:0:
186,96,57633,1,8,0:0:0:0:
186,96,57687,1,0,0:0:0:0:
186,96,57795,1,8,0:0:0:0:
186,96,57849,1,8,0:0:0:0:
184,97,57903,1,0,0:0:0:0:
186,98,58011,1,8,0:0:0:0:
186,98,58065,1,8,0:0:0:0:
186,98,58119,1,0,0:0:0:0:
186,98,58227,1,12,0:0:0:0:
197,114,58443,1,8,0:0:0:0:
197,114,58497,1,0,0:0:0:0:
197,114,58551,1,0,0:0:0:0:
197,114,58659,1,8,0:0:0:0:
197,114,58874,1,8,0:0:0:0:
191,99,59090,1,0,0:0:0:0:
193,99,59198,1,8,0:0:0:0:
195,106,59252,1,8,0:0:0:0:
193,98,59306,1,0,0:0:0:0:
193,98,59414,1,8,0:0:0:0:
187,111,59522,1,0,0:0:0:0:
192,98,59630,1,8,0:0:0:0:
192,98,59684,1,8,0:0:0:0:
193,98,59738,1,0,0:0:0:0:
173,87,59792,1,0,0:0:0:0:
193,99,59846,1,8,0:0:0:0:
193,98,59954,1,8,0:0:0:0:
172,89,60008,1,8,0:0:0:0:
195,102,60062,1,0,0:0:0:0:
173,89,60115,1,0,0:0:0:0:
173,89,60169,1,8,0:0:0:0:
173,89,60223,1,0,0:0:0:0:
195,102,60277,1,0,0:0:0:0:
173,89,60331,1,0,0:0:0:0:
196,102,60385,1,8,0:0:0:0:
196,102,60439,1,8,0:0:0:0:
196,102,60493,1,0,0:0:0:0:
196,102,60601,1,8,0:0:0:0:
200,92,60655,1,8,0:0:0:0:
200,92,60709,1,0,0:0:0:0:
201,91,60817,1,8,0:0:0:0:
197,70,60925,1,0,0:0:0:0:
197,70,61033,1,8,0:0:0:0:
199,70,61087,1,8,0:0:0:0:
200,70,61141,1,0,0:0:0:0:
203,72,61249,1,8,0:0:0:0:
204,72,61356,1,0,0:0:0:0:
216,78,61464,1,8,0:0:0:0:
210,74,61518,1,0,0:0:0:0:
210,74,61572,1,0,0:0:0:0:
195,80,61626,1,0,0:0:0:0:
217,78,61680,1,8,0:0:0:0:
199,88,61734,1,8,0:0:0:0:
217,78,61788,1,0,0:0:0:0:
217,78,61896,1,8,0:0:0:0:
217,78,62004,1,0,0:0:0:0:
205,88,62112,1,8,0:0:0:0:
205,88,62166,1,8,0:0:0:0:
205,88,62220,1,0,0:0:0:0:
201,91,62328,1,0,0:0:0:0:
204,89,62436,1,8,0:0:0:0:
204,89,62544,1,0,0:0:0:0:
204,91,62597,1,0,0:0:0:0:
204,91,62651,1,8,0:0:0:0:
203,72,62759,1,0,0:0:0:0:
204,91,62867,1,8,0:0:0:0:
197,71,62975,1,0,0:0:0:0:
197,71,63029,1,0,0:0:0:0:
197,71,63083,1,8,0:0:0:0:
197,71,63191,1,0,0:0:0:0:
197,71,63299,1,8,0:0:0:0:
195,79,63407,1,0,0:0:0:0:
195,79,63461,1,0,0:0:0:0:
195,78,63515,1,8,0:0:0:0:
199,71,63623,1,0,0:0:0:0:
199,72,63731,1,8,0:0:0:0:
199,72,63838,1,0,0:0:0:0:
199,72,63892,1,0,0:0:0:0:
199,72,63946,1,8,0:0:0:0:
199,72,64054,1,0,0:0:0:0:
199,72,64162,1,8,0:0:0:0:
203,72,64270,1,8,0:0:0:0:
203,72,64324,1,8,0:0:0:0:
198,73,64378,1,0,0:0:0:0:
197,71,64486,1,8,0:0:0:0:
197,71,64540,1,8,0:0:0:0:
197,71,64594,1,0,0:0:0:0:
197,71,64702,1,8,0:0:0:0:
208,81,64756,1,8,0:0:0:0:
197,71,64810,1,0,0:0:0:0:
207,86,64864,1,0,0:0:0:0:
198,72,64918,1,8,0:0:0:0:
207,86,64972,1,0,0:0:0:0:
207,86,65026,1,8,0:0:0:0:
191,58,65079,1,0,0:0:0:0:
188,47,65133,1,0,0:0:0:0:
194,59,65187,1,8,0:0:0:0:
194,59,65241,1,0,0:0:0:0:
199,72,65349,1,8,0:0:0:0:
208,81,65457,1,0,0:0:0:0:
199,72,65565,1,8,0:0:0:0:
199,72,65673,1,0,0:0:0:0:
199,62,65727,1,0,0:0:0:0:
211,79,65781,1,8,0:0:0:0:
209,78,65835,1,0,0:0:0:0:
198,63,65889,1,8,0:0:0:0:
211,79,65943,1,8,0:0:0:0:
212,79,65997,1,0,0:0:0:0:
203,74,66105,1,0,0:0:0:0:
203,74,66213,1,8,0:0:0:0:
203,74,66320,1,8,0:0:0:0:
208,70,66374,1,8,0:0:0:0:
201,66,66428,1,0,0:0:0:0:
201,66,66536,1,0,0:0:0:0:
205,76,66644,1,8,0:0:0:0:
204,78,66752,1,8,0:0:0:0:
206,76,66806,1,8,0:0:0:0:
206,76,66860,1,0,0:0:0:0:
214,87,66968,1,0,0:0:0:0:
217,65,67076,1,8,0:0:0:0:
216,65,67184,1,8,0:0:0:0:
216,65,67238,1,8,0:0:0:0:
208,70,67292,1,0,0:0:0:0:
208,70,67400,1,0,0:0:0:0:
208,70,67508,1,8,0:0:0:0:
210,72,67615,1,8,0:0:0:0:
210,73,67669,1,8,0:0:0:0:
210,73,67723,1,0,0:0:0:0:
210,73,67831,1,0,0:0:0:0:
203,63,67939,1,8,0:0:0:0:
211,77,68047,1,8,0:0:0:0:
211,78,68101,1,8,0:0:0:0:
211,78,68155,1,0,0:0:0:0:
211,78,68263,1,0,0:0:0:0:
211,78,68317,1,0,0:0:0:0:
212,77,68371,1,8,0:0:0:0:
211,79,68425,1,0,0:0:0:0:
211,80,68479,1,8,0:0:0:0:
203,79,68533,1,8,0:0:0:0:
211,83,68587,1,0,0:0:0:0:
201,76,68641,1,0,0:0:0:0:
222,67,68695,1,0,0:0:0:0:
203,79,68749,1,8,0:0:0:0:
222,67,68803,1,0,0:0:0:0:
218,65,68910,1,0,0:0:0:0:
218,65,69018,1,8,0:0:0:0:
218,65,69072,1,8,0:0:0:0:
218,65,69126,1,0,0:0:0:0:
218,65,69180,1,0,0:0:0:0:
218,65,69234,1,8,0:0:0:0:
221,65,69288,1,0,0:0:0:0:
221,65,69342,1,8,0:0:0:0:
221,66,69396,1,8,0:0:0:0:
221,66,69450,1,0,0:0:0:0:
221,68,69558,1,0,0:0:0:0:
221,68,69666,1,8,0:0:0:0:
221,68,69774,1,0,0:0:0:0:
221,68,69882,1,0,0:0:0:0:
221,68,69990,1,0,0:0:0:0:
235,70,70044,1,0,0:0:0:0:
212,56,70097,1,8,0:0:0:0:
212,56,70205,1,0,0:0:0:0:
222,67,70313,1,0,0:0:0:0:
222,67,70421,1,0,0:0:0:0:
233,83,70475,1,0,0:0:0:0:
223,72,70529,1,8,0:0:0:0:
223,72,70637,1,0,0:0:0:0:
233,98,70745,1,0,0:0:0:0:
234,98,70853,1,0,0:0:0:0:
235,102,70907,1,0,0:0:0:0:
234,98,70961,1,8,0:0:0:0:
238,104,71069,1,0,0:0:0:0:
238,104,71177,1,8,0:0:0:0:
227,88,71231,1,8,0:0:0:0:
239,104,71285,1,0,0:0:0:0:
240,105,71392,1,8,0:0:0:0:
223,94,71446,1,8,0:0:0:0:
223,95,71500,1,0,0:0:0:0:
226,102,71608,1,8,0:0:0:0:
226,103,71662,1,8,0:0:0:0:
237,79,71716,1,0,0:0:0:0:
229,113,71824,1,8,0:0:0:0:
221,86,71878,1,8,0:0:0:0:
237,79,71932,1,0,0:0:0:0:
237,79,72040,1,8,0:0:0:0:
237,79,72148,1,0,0:0:0:0:
239,80,72256,1,8,0:0:0:0:
239,80,72310,1,8,0:0:0:0:
239,80,72364,1,0,0:0:0:0:
231,80,72472,1,8,0:0:0:0:
211,78,72526,1,8,0:0:0:0:
232,82,72579,1,0,0:0:0:0:
211,78,72633,1,8,0:0:0:0:
211,78,72687,1,0,0:0:0:0:
211,78,72741,1,0,0:0:0:0:
211,79,72795,1,8,0:0:0:0:
234,83,72903,1,0,0:0:0:0:
250,76,73011,1,0,0:0:0:0:
237,80,73119,1,8,0:0:0:0:
263,81,73173,1,8,0:0:0:0:
263,81,73227,1,0,0:0:0:0:
263,81,73335,1,8,0:0:0:0:
263,81,73443,1,0,0:0:0:0:
263,81,73551,1,8,0:0:0:0:
263,81,73605,1,8,0:0:0:0:
263,81,73659,1,0,0:0:0:0:
267,80,73767,1,8,0:0:0:0:
267,80,73874,1,0,0:0:0:0:
267,80,73982,1,8,0:0:0:0:
267,80,74036,1,8,0:0:0:0:
267,80,74090,1,0,0:0:0:0:
268,87,74198,1,8,0:0:0:0:
268,87,74306,1,0,0:0:0:0:
268,87,74414,1,8,0:0:0:0:
268,87,74468,1,0,0:0:0:0:
268,87,74522,1,0,0:0:0:0:
268,87,74630,1,8,0:0:0:0:
269,87,74738,1,0,0:0:0:0:
270,80,74792,1,0,0:0:0:0:
270,80,74846,1,8,0:0:0:0:
260,93,74900,1,0,0:0:0:0:
260,93,74954,1,8,0:0:0:0:
262,92,75008,1,0,0:0:0:0:
262,92,75062,1,8,0:0:0:0:
262,92,75115,1,8,0:0:0:0:
262,93,75169,1,0,0:0:0:0:
267,80,75277,1,8,0:0:0:0:
267,80,75331,1,8,0:0:0:0:
272,83,75385,1,0,0:0:0:0:
274,84,75493,1,8,0:0:0:0:
274,85,75547,1,8,0:0:0:0:
274,84,75601,1,0,0:0:0:0:
275,100,75709,1,8,0:0:0:0:
275,100,75817,1,0,0:0:0:0:
274,86,75871,1,0,0:0:0:0:
275,101,75925,1,8,0:0:0:0:
276,102,76033,1,0,0:0:0:0:
266,96,76141,1,8,0:0:0:0:
266,96,76195,1,8,0:0:0:0:
266,96,76249,1,8,0:0:0:0:
266,96,76356,1,0,0:0:0:0:
273,102,76572,1,0,0:0:0:0:
273,102,76788,1,8,0:0:0:0:
273,102,77004,1,0,0:0:0:0:
273,102,77220,1,8,0:0:0:0:
273,102,77328,1,8,0:0:0:0:
281,98,77436,1,0,0:0:0:0:
296,112,77651,1,12,0:0:0:0:
293,102,78083,1,8,0:0:0:0:
303,102,78137,1,8,0:0:0:0:
303,102,78191,1,0,0:0:0:0:
303,102,78299,1,8,0:0:0:0:
302,102,78407,1,0,0:0:0:0:
302,102,78461,1,0,0:0:0:0:
302,102,78515,1,8,0:0:0:0:
309,106,78623,1,0,0:0:0:0:
324,113,78731,1,8,0:0:0:0:
317,114,78785,1,8,0:0:0:0:
317,112,78838,1,0,0:0:0:0:
325,113,78946,1,8,0:0:0:0:
325,111,79054,1,0,0:0:0:0:
325,113,79108,1,0,0:0:0:0:
325,114,79162,1,8,0:0:0:0:
325,114,79270,1,0,0:0:0:0:
325,115,79378,1,8,0:0:0:0:
325,115,79432,1,8,0:0:0:0:
325,115,79486,1,0,0:0:0:0:
325,114,79594,1,8,0:0:0:0:
325,114,79648,1,8,0:0:0:0:
325,114,79702,1,0,0:0:0:0:
330,116,79810,1,8,0:0:0:0:
315,96,79918,1,0,0:0:0:0:
316,97,80026,1,8,0:0:0:0:
325,100,80079,1,8,0:0:0:0:
325,99,80133,1,0,0:0:0:0:
328,100,80241,1,8,0:0:0:0:
328,100,80295,1,8,0:0:0:0:
328,100,80349,1,0,0:0:0:0:
328,101,80457,1,8,0:0:0:0:
328,101,80511,1,8,0:0:0:0:
328,103,80565,1,0,0:0:0:0:
321,129,80673,1,8,0:0:0:0:
328,129,80727,1,8,0:0:0:0:
328,127,80781,1,0,0:0:0:0:
332,149,80835,1,8,0:0:0:0:
332,149,80889,1,0,0:0:0:0:
332,148,80943,1,8,0:0:0:0:
332,149,80997,1,0,0:0:0:0:
332,146,81105,1,8,0:0:0:0:
332,147,81159,1,8,0:0:0:0:
314,96,81213,1,0,0:0:0:0:
318,95,81320,1,8,0:0:0:0:
318,96,81374,1,8,0:0:0:0:
336,166,81428,1,8,0:0:0:0:
321,102,81482,1,8,0:0:0:0:
321,102,81536,1,0,0:0:0:0:
337,177,81590,1,0,0:0:0:0:
336,170,81644,1,8,0:0:0:0:
337,176,81698,1,8,0:0:0:0:
336,172,81752,1,0,0:0:0:0:
328,100,81806,1,8,0:0:0:0:
328,100,81860,1,0,0:0:0:0:
328,101,81968,1,8,0:0:0:0:
325,96,82022,1,8,0:0:0:0:
325,95,82076,1,0,0:0:0:0:
325,95,82130,1,0,0:0:0:0:
323,102,82184,1,8,0:0:0:0:
325,95,82238,1,0,0:0:0:0:
325,95,82292,1,8,0:0:0:0:
325,95,82400,1,0,0:0:0:0:
325,95,82454,1,0,0:0:0:0:
325,95,82508,1,8,0:0:0:0:
325,95,82562,1,0,0:0:0:0:
335,111,82615,1,0,0:0:0:0:
335,111,82669,1,8,0:0:0:0:
333,105,82723,1,0,0:0:0:0:
333,105,82831,1,8,0:0:0:0:
325,96,82885,1,8,0:0:0:0:
333,105,82939,1,0,0:0:0:0:
325,96,82993,1,8,0:0:0:0:
333,105,83047,1,8,0:0:0:0:
326,96,83101,1,0,0:0:0:0:
325,100,83155,1,8,0:0:0:0:
333,91,83263,1,0,0:0:0:0:
336,99,83317,1,0,0:0:0:0:
338,99,83371,1,8,0:0:0:0:
338,99,83425,1,0,0:0:0:0:
333,92,83479,1,0,0:0:0:0:
333,93,83533,1,8,0:0:0:0:
333,93,83587,1,0,0:0:0:0:
334,94,83695,1,8,0:0:0:0:
340,120,83749,1,8,0:0:0:0:
334,94,83803,1,0,0:0:0:0:
340,120,83856,1,8,0:0:0:0:
334,94,83910,1,8,0:0:0:0:
340,120,83964,1,0,0:0:0:0:
340,120,84018,1,8,0:0:0:0:
341,120,84126,1,0,0:0:0:0:
341,120,84180,1,0,0:0:0:0:
342,120,84234,1,8,0:0:0:0:
342,120,84288,1,0,0:0:0:0:
349,87,84342,1,8,0:0:0:0:
342,120,84396,1,8,0:0:0:0:
350,87,84450,1,0,0:0:0:0:
350,87,84558,1,8,0:0:0:0:
322,107,84612,1,8,0:0:0:0:
323,109,84666,1,0,0:0:0:0:
336,110,84720,1,8,0:0:0:0:
336,110,84774,1,0,0:0:0:0:
336,110,84828,1,0,0:0:0:0:
336,104,84882,1,8,0:0:0:0:
256,192,84990,12,8,85637,0:0:0:0:
226,103,85745,5,8,0:0:0:0:
226,103,85799,1,8,0:0:0:0:
226,103,85853,1,0,0:0:0:0:
254,129,85907,1,0,0:0:0:0:
254,129,85961,1,8,0:0:0:0:
254,129,86069,1,0,0:0:0:0:
254,129,86177,1,0,0:0:0:0:
254,129,86285,1,8,0:0:0:0:
254,129,86338,1,8,0:0:0:0:
254,129,86392,1,0,0:0:0:0:
254,129,86500,1,8,0:0:0:0:
254,129,86554,1,8,0:0:0:0:
254,129,86608,1,0,0:0:0:0:
254,129,86662,1,0,0:0:0:0:
270,132,86716,1,8,0:0:0:0:
272,133,86932,1,0,0:0:0:0:
272,133,87040,1,8,0:0:0:0:
272,134,87256,1,0,0:0:0:0:
272,134,87310,1,0,0:0:0:0:
272,134,87364,1,0,0:0:0:0:
273,135,87579,1,12,0:0:0:0:
272,135,88011,1,8,0:0:0:0:
272,135,88065,1,8,0:0:0:0:
272,135,88119,1,0,0:0:0:0:
277,144,88173,1,0,0:0:0:0:
277,144,88227,1,8,0:0:0:0:
276,144,88281,1,0,0:0:0:0:
280,135,88335,1,0,0:0:0:0:
