osu file format v5

[General]
AudioFilename: bobobo_intro_2_-__Baka_survivor_.mp3
AudioLeadIn: 0
PreviewTime: 3983
Countdown: 0
SampleSet: Normal
StackLeniency: 0.7
Mode: 0
LetterboxInBreaks: 1

[Metadata]
Title:Baka Survivor
Artist:Ulfuls
Creator:Behonkiss
Version:Hard
Source:
Tags:

[Difficulty]
HPDrainRate:6
CircleSize:4
OverallDifficulty:6
SliderMultiplier:2
SliderTickRate:1

[Events]
//Background and Video events
0,0,"Bobobo-Bo 1.jpg"
1,1,"bobobo.avi"
//Break Periods
//Storyboard Layer 0 (Background)
//Storyboard Layer 1 (Failing)
//Storyboard Layer 2 (Passing)
//Storyboard Layer 3 (Foreground)
//Storyboard Sound Samples
//Background Colour Transformations
3,100,163,162,255

[TimingPoints]
4441,457.164387421001,4,1,0,85,1

[Colours]
Combo1 : 252,111,16
Combo2 : 255,255,0
Combo3 : 0,128,255

[HitObjects]
88,112,4436,1,2
88,112,4669,1,0
160,144,4898,1,2
208,208,5126,2,2,B|208:304|352:320,1,200
464,208,6041,1,0
336,96,6498,1,0
256,80,6726,1,0
176,72,6955,1,0
96,96,7183,2,2,B|54:161|112:224,1,100
160,240,7641,2,2,B|195:178|128:128,1,100
232,144,8098,5,0
264,216,8326,1,0
264,296,8555,1,0
184,320,8784,2,2,B|85:381|-16:304,1,200
32,152,9698,2,0,B|224:48,1,200
288,56,10384,2,0,B|400:56,1,100
384,136,10841,2,0,B|272:136,1,100
280,216,11298,2,0,B|400:216,1,100
376,296,11755,5,2
296,296,11984,1,0
216,296,12212,1,0
136,296,12441,2,2,B|136:80,1,200
296,72,13355,1,0
440,128,13812,1,0
440,208,14041,1,0
440,288,14270,1,0
360,288,14498,2,2,B|312:349|248:248,3,100
280,208,15412,5,2
208,248,15641,1,0
144,304,15870,1,0
64,312,16098,2,2,B|-37:292|-24:136,1,200
88,40,17013,2,0,B|304:40,1,200
368,40,17698,1,2
368,40,17927,1,0
432,80,18155,1,2
432,80,18384,1,0
464,152,18613,1,0
464,152,18841,1,4
464,232,19070,6,0,B|240:232,1,200
296,160,19756,2,0,B|296:80|112:48,1,200
64,56,20441,1,2
16,208,20898,2,0,B|16:296|160:336,1,200
232,336,21584,2,2,B|448:336,1,200
256,192,22498,12,0,24097
256,48,24784,5,0
256,48,24899,1,0
256,48,25013,1,0
200,208,25470,2,2,B|320:208,3,100
88,328,26842,1,4
168,328,27070,1,4
328,328,27527,1,2
448,224,27984,1,2
440,64,28442,2,4,B|312:64,4,100
40,104,30499,5,0
16,176,30727,1,0
88,320,31185,1,0
248,320,31642,1,0
120,216,32099,1,0
120,136,32328,1,2
200,136,32556,1,0
200,216,32785,1,2
280,216,33013,1,2
448,48,33699,6,2,B|216:112,1,200
392,176,34613,1,4
16,320,35756,1,0
16,320,35871,1,0
16,320,35985,1,0
176,320,36442,1,0
296,320,36785,1,2
208,56,37585,5,0
208,56,37699,1,0
208,56,37814,1,0
288,56,38042,1,2
352,200,38499,1,0
352,200,38614,1,0
352,200,38728,1,0
432,200,38956,1,2
336,328,39414,1,0
336,328,39528,1,0
336,328,39642,1,0
256,328,39871,1,2
96,328,40328,1,0
96,328,40442,1,0
96,328,40556,1,0
16,328,40785,1,2
24,248,41014,6,0,B|24:40,1,200
184,56,41928,2,0,B|400:56,1,200
456,200,42842,2,0,B|232:200,1,200
144,312,43757,2,0,B|144:96,1,200
296,72,44671,5,2
432,152,45128,1,2
320,264,45585,1,2
168,312,46042,1,2
48,200,46500,1,4
8,128,46728,1,0
64,72,46957,1,4
144,72,47185,1,0
168,144,47414,1,4
224,200,47643,1,0
272,136,47871,1,4
416,64,48328,5,2
456,128,48557,1,0
448,208,48785,1,0
392,272,49014,2,2,B|304:312|184:320,1,200
40,304,49928,1,0
48,144,50386,1,0
56,64,50614,1,0
128,40,50843,1,0
120,120,51071,2,2,B|224:120,3,100
240,200,51986,5,0
200,264,52214,1,0
224,336,52443,1,0
304,336,52671,2,2,B|440:336|464:192,1,200
448,72,53586,2,0,B|336:32|208:88,1,200
176,104,54271,1,2
96,96,54500,1,0
24,56,54729,1,2
0,128,54957,1,0
8,208,55186,1,2
8,288,55414,1,0
80,320,55643,6,0,B|192:320,2,100
104,248,56329,2,2,B|208:192|320:216,1,200
456,224,57243,1,2
448,64,57700,1,0
384,112,57929,1,0
320,64,58157,1,0
256,112,58386,1,2
192,64,58614,1,0
128,112,58843,1,2
64,64,59072,1,0
8,120,59300,6,4,B|2:349|424:320,1,500
464,176,60900,2,0,B|224:176,1,200
264,96,61586,1,2
344,96,61815,1,0
424,96,62043,1,2
424,176,62272,1,0
424,256,62500,1,2
344,256,62729,1,0
264,256,62958,5,2
184,256,63186,1,2
64,152,63643,2,2,B|280:152,5,200
256,192,66386,12,0,69813
256,192,70272,5,4
96,192,70729,1,0
136,120,70958,1,0
216,112,71187,1,0
296,112,71415,1,0
352,168,71644,1,0
376,240,71872,1,0
328,304,72101,1,2
248,312,72329,1,2
168,312,72558,1,2
88,312,72787,1,2
40,248,73015,2,4,B|40:32,1,200
184,112,73929,5,0
264,112,74158,1,0
344,112,74387,1,0
336,32,74615,2,2,B|424:48|456:104|464:184,1,200
392,312,75530,1,0
232,312,75987,1,4
0,240,76672,5,0
8,160,76901,1,0
24,80,77130,1,0
72,16,77358,2,0,B|280:16,1,200
432,16,78273,2,2,B|432:240,1,200
432,296,78958,1,0
352,296,79187,1,0
272,296,79415,2,4,B|56:296,1,200
104,136,80330,5,0
184,136,80558,1,0
264,136,80787,1,0
344,136,81016,2,0,B|344:176|317:211|280:224|144:216,1,200
24,208,81930,1,0
32,48,82387,1,0
112,48,82616,1,2
272,56,83073,5,0
352,64,83301,1,0
432,80,83530,1,0
504,120,83759,2,0,B|504:336,1,200
344,328,84673,2,0,B|104:328,1,200
64,320,85359,1,0
64,240,85587,1,0
64,160,85816,1,2
64,80,86044,1,0
144,80,86273,1,2
224,80,86502,1,0
192,152,86730,5,0
152,224,86959,1,0
176,296,87187,1,0
256,304,87416,2,2,B|389:318|368:184,1,200
256,72,88330,1,0
256,152,88559,1,0
256,312,89016,5,4
