osu file format v5

[General]
AudioFilename: bobobo_intro_2_-__Baka_survivor_.mp3
AudioLeadIn: 0
PreviewTime: 3985
Countdown: 0
SampleSet: Normal
StackLeniency: 0.7
Mode: 0
LetterboxInBreaks: 1

[Metadata]
Title:Baka Survivor
Artist:Ulfuls
Creator:Behonkiss
Version:Easy
Source:
Tags:

[Difficulty]
HPDrainRate:3
CircleSize:4
OverallDifficulty:3
SliderMultiplier:0.999999999999999
SliderTickRate:2

[Events]
//Background and Video events
0,0,"Bobobo-Bo 1.jpg"
1,1,"bobobo.avi"
//Break Periods
//Storyboard Layer 0 (Background)
//Storyboard Layer 1 (Failing)
//Storyboard Layer 2 (Passing)
//Storyboard Layer 3 (Foreground)
//Storyboard Sound Samples
//Background Colour Transformations
3,100,163,162,255

[TimingPoints]
4443,457.064387421001,4,1,0,85,1

[Colours]
Combo1 : 252,111,16
Combo2 : 255,255,0
Combo3 : 0,128,255

[HitObjects]
40,192,4437,1,0
280,192,5128,1,2
360,192,5585,1,2
344,80,6728,6,0,B|120:80,1,200
64,104,8099,5,0
16,216,8785,1,2
16,296,9242,1,2
80,344,9699,1,0
200,344,10384,6,4,B|424:344,1,200
432,272,11756,5,0
432,152,12441,1,2
432,152,12898,1,2
256,48,14041,6,0,B|256:272,1,200
256,328,15412,5,0
136,328,16098,1,2
56,328,16555,1,2
56,248,17012,1,0
56,128,17697,2,4,B|264:128,1,200
232,208,19069,5,0
352,208,19754,1,2
184,312,20897,1,0
304,312,21582,1,2
104,296,22725,6,4,B|19:148|216:136,1,250
392,72,25010,5,0
392,152,25467,1,0
392,232,25925,1,0
304,96,26839,5,2
144,96,27753,1,0
24,208,28667,1,2
24,288,29124,1,2
168,352,30038,5,0
248,352,30495,1,2
408,344,31409,1,0
408,264,31866,1,0
408,184,32323,1,2
408,104,32780,1,2
328,104,33238,6,2,B|184:104,1,125
56,104,34609,1,4
232,264,35980,1,0
312,264,36437,1,2
392,264,36894,1,2
344,152,37580,6,0,B|184:152,4,150
264,56,41008,5,0
264,216,41922,1,0
136,312,42836,1,0
40,176,43750,1,0
160,64,44664,6,2,B|272:64,3,99.9999999999999
224,136,46492,6,4,B|344:136,3,99.9999999999999
392,184,48321,6,0,B|431:272|320:320,1,150
264,312,49463,1,2
104,192,50606,1,0
104,112,51063,1,2
24,112,51520,1,2
32,32,51977,6,0,B|208:32,1,150
264,32,53120,1,0
344,32,53577,1,0
280,136,54263,2,4,B|392:136,2,99.9999999999999
304,208,55634,6,0,B|212:219|232:328,1,150
304,288,56776,1,0
488,200,57919,1,0
488,120,58376,1,2
488,40,58833,1,2
408,64,59290,6,0,B|152:64,1,250
80,96,60890,1,0
16,144,61347,1,0
40,216,61576,2,4,B|152:216,2,99.9999999999999
48,296,62947,5,0
168,304,63632,1,2
248,304,64089,1,2
328,304,64546,1,2
328,224,65004,2,0,B|216:224,2,99.9999999999999
256,192,66375,12,4,70260
304,184,70717,6,0,B|192:184,4,99.9999999999999
296,264,73002,1,2
216,264,73459,1,2
136,264,73916,6,0,B|43:261|48:160,1,150
48,88,75059,1,0
128,88,75516,1,2
208,88,75973,1,2
328,88,76659,6,0,B|417:60|456:168,1,150
448,224,77801,1,0
424,296,78258,1,2
344,296,78715,1,0
224,296,79401,1,4
144,296,79858,1,4
64,296,80315,5,0
64,296,80544,1,0
64,296,80772,1,0
64,216,81001,2,2,B|64:104,1,99.9999999999999
64,32,81915,1,0
144,32,82372,1,2
232,112,83058,5,0
232,112,83286,1,0
232,112,83515,1,0
232,112,83743,2,4,B|344:112,1,99.9999999999999
408,144,84657,2,0,B|454:200|376:208,1,99.9999999999999
312,312,85800,1,2
232,312,86257,1,2
152,312,86714,6,0,B|32:64,1,250
160,64,88542,1,2
240,64,88999,5,4
