osu file format v5

[General]
AudioFilename: -Beyond The Wall (Feat. Supreme Team)-320K.mp3
AudioLeadIn: 0
PreviewTime: -1
Countdown: 0
SampleSet: Normal
StackLeniency: 0.7
Mode: 0
LetterboxInBreaks: 1
EditorDistanceSpacing: 0.800000011920929

[Metadata]
Title:Beyond the wall
Artist:Uknown
Creator:7loco
Version:Normal
Source:Korean
Tags:

[Difficulty]
HPDrainRate:5
CircleSize:5
OverallDifficulty:5
SliderMultiplier:1.4
SliderTickRate:1

[Events]
//Background and Video events
//Break Periods
//Storyboard Layer 0 (Background)
//Storyboard Layer 1 (Failing)
//Storyboard Layer 2 (Passing)
//Storyboard Layer 3 (Foreground)
//Storyboard Sound Samples
//Background Colour Transformations
3,100,163,162,255

[TimingPoints]
NaN,1000,4,1,0,68,1,0

[HitObjects]
96,160,9804,1,0
160,256,13822,1,0
288,128,14625,1,0
128,128,15429,1,0
192,160,15697,1,0
160,288,16232,1,0
256,192,17036,1,0
256,128,17304,1,0
256,256,17840,1,0
384,224,18643,1,0
384,128,19179,1,0
320,96,19447,1,0
224,160,19983,1,0
256,288,20518,1,0
352,224,21054,1,0
288,96,21590,1,0
160,128,22125,1,0
224,224,22661,1,0
288,160,25072,1,0
96,128,26947,1,0
256,96,29357,1,0
128,384,30697,1,0
224,288,31232,1,0
256,128,33375,1,0
192,224,35250,1,0
160,128,35786,1,0
192,192,40072,1,0
288,160,43554,1,0
128,160,44357,1,0
224,160,47840,1,0
352,160,48375,1,0
288,128,50518,1,0
256,160,52393,1,0
160,128,52929,1,0
192,192,55072,1,0
160,192,56947,6,0,L,4,280
128,128,65786,1,0
192,96,66054,1,0
352,128,67929,1,0
192,224,69000,1,0
288,64,69804,1,0
224,192,71947,1,0
448,64,73286,1,0
264,152,74358,1,0
94,167,75161,1,0
347,116,76500,1,0
160,182,77572,1,0
358,119,78643,1,0
285,131,78911,1,0
403,189,79447,1,0
270,209,79983,1,0
296,74,80786,1,0
223,121,81322,1,0
238,193,81590,1,0
359,186,82125,1,0
365,99,83197,1,0
379,157,84804,1,0
307,162,85072,1,0
205,170,85608,1,0
294,178,86143,1,0
335,108,86411,1,0
202,126,86947,1,0
127,246,87750,1,0
203,231,88018,1,0
296,157,88554,1,0
175,209,89090,1,0
303,184,89625,1,0
161,178,90429,1,0
238,181,90697,1,0
365,154,91233,1,0
238,181,91768,1,0
364,141,92304,1,0
247,194,92840,1,0
382,177,93375,1,0
255,163,93911,1,0
460,73,95786,1,0
372,110,96322,1,0
309,160,96590,1,0
172,173,97393,1,0
345,127,98197,1,0
310,240,98733,1,0
210,191,99268,1,0
334,160,99804,1,0
213,160,100340,1,0
41,336,101411,1,0
154,277,101947,1,0
215,162,102483,1,0
350,169,103018,1,0
215,168,103554,1,0
344,153,104090,1,0
213,160,104625,1,0
340,157,105161,1,0
207,160,105697,1,0
340,142,106233,1,0
384,132,107304,1,0
254,141,107840,1,0
396,147,108643,1,0
311,148,109179,1,0
251,190,109447,1,0
323,289,109983,1,0
215,205,110786,1,0
276,157,111054,1,0
493,299,112393,1,0
406,270,112929,1,0
382,183,113465,1,0
302,173,113733,1,0
398,84,114268,1,0
277,144,114804,1,0
379,218,115340,1,0
248,207,115875,1,0
302,93,116411,1,0
256,192,117215,12,0,121233
