osu file format v14

[General]
AudioFilename: 04.Inner Urge (TV Size) (online-audio-converter.com).mp3
AudioLeadIn: 0
PreviewTime: 4185
Countdown: 0
SampleSet: Normal
StackLeniency: 0.7
Mode: 1
LetterboxInBreaks: 0
WidescreenStoryboard: 0

[Editor]
DistanceSpacing: 1.1
BeatDivisor: 3
GridSize: 4
TimelineZoom: 1.4

[Metadata]
Title:Inner Urge TV size mix
TitleUnicode:Inner Urge TV size mix
Artist:Uesaka Sumire
ArtistUnicode:上坂すみれ
Creator:Nofool
Version:Oni
Source:下ネタという概念が存在しない退屈な世界
Tags:Shimoneta to Iu Gainen ga Sonzai Shinai Taikutsu na Sekai ending
BeatmapID:774531
BeatmapSetID:351410

[Difficulty]
HPDrainRate:5
CircleSize:5
OverallDifficulty:5
ApproachRate:5
SliderMultiplier:1.4
SliderTickRate:1

[Events]
//Background and Video events
0,0,"fuwa BG.jpg",0,0
//Break Periods
//Storyboard Layer 0 (Background)
//Storyboard Layer 1 (Fail)
//Storyboard Layer 2 (Pass)
//Storyboard Layer 3 (Foreground)
//Storyboard Sound Samples

[TimingPoints]
630,444.444444444444,4,1,0,100,1,0
4185,-90.9090909090909,4,1,0,100,0,1
21518,-90.9090909090909,4,1,0,100,0,0
21963,-100,4,1,0,100,0,0
30852,-100,4,1,0,60,0,0
45074,-100,4,1,0,80,0,0
52185,-100,4,1,0,100,0,0
60629,-98.0392156862745,4,1,0,100,0,0
60741,-96.1538461538461,4,1,0,100,0,0
60852,-94.3396226415094,4,1,0,100,0,0
60963,-92.5925925925926,4,1,0,100,0,0
61074,-90.9090909090909,4,1,0,100,0,1
78407,-90.9090909090909,4,1,0,100,0,0
78852,-100,4,1,0,100,0,0

[HitObjects]
256,192,630,12,0,1518,0:0:0:0:
256,192,1963,5,0,0:0:0:0:
256,192,2407,1,8,0:0:0:0:
256,192,2518,1,8,0:0:0:0:
256,192,2741,1,8,0:0:0:0:
256,192,2852,1,8,0:0:0:0:
256,192,3074,1,8,0:0:0:0:
256,192,3185,1,8,0:0:0:0:
256,192,3407,1,8,0:0:0:0:
256,192,3518,1,8,0:0:0:0:
256,192,3741,1,12,0:0:0:0:
256,192,4185,1,0,0:0:0:0:
256,192,4407,1,0,0:0:0:0:
256,192,4518,1,0,0:0:0:0:
256,192,4629,1,8,0:0:0:0:
256,192,4852,1,0,0:0:0:0:
256,192,5074,1,8,0:0:0:0:
256,192,5185,1,0,0:0:0:0:
256,192,5407,1,0,0:0:0:0:
256,192,5518,1,8,0:0:0:0:
256,192,5741,1,0,0:0:0:0:
256,192,5963,1,12,0:0:0:0:
256,192,6185,1,8,0:0:0:0:
256,192,6296,1,8,0:0:0:0:
256,192,6407,1,0,0:0:0:0:
256,192,6629,1,8,0:0:0:0:
256,192,6852,1,0,0:0:0:0:
256,192,6963,1,8,0:0:0:0:
256,192,7185,1,8,0:0:0:0:
256,192,7296,1,0,0:0:0:0:
256,192,7518,1,8,0:0:0:0:
256,192,7741,1,4,0:0:0:0:
256,192,7963,1,0,0:0:0:0:
256,192,8074,1,0,0:0:0:0:
256,192,8185,1,8,0:0:0:0:
256,192,8407,1,0,0:0:0:0:
256,192,8629,1,8,0:0:0:0:
256,192,8741,1,0,0:0:0:0:
256,192,8852,1,8,0:0:0:0:
256,192,8963,1,0,0:0:0:0:
256,192,9074,1,8,0:0:0:0:
256,192,9296,1,0,0:0:0:0:
256,192,9518,1,8,0:0:0:0:
256,192,9741,1,0,0:0:0:0:
256,192,9852,1,0,0:0:0:0:
256,192,9963,1,8,0:0:0:0:
256,192,10185,1,0,0:0:0:0:
256,192,10296,1,0,0:0:0:0:
256,192,10407,1,8,0:0:0:0:
256,192,10629,1,0,0:0:0:0:
256,192,10852,1,8,0:0:0:0:
256,192,10963,1,8,0:0:0:0:
256,192,11074,1,8,0:0:0:0:
256,192,11296,1,4,0:0:0:0:
256,192,11518,1,0,0:0:0:0:
256,192,11629,1,0,0:0:0:0:
256,192,11741,1,8,0:0:0:0:
256,192,11963,1,0,0:0:0:0:
256,192,12185,1,8,0:0:0:0:
256,192,12296,1,0,0:0:0:0:
256,192,12518,1,0,0:0:0:0:
256,192,12629,1,8,0:0:0:0:
256,192,12852,1,0,0:0:0:0:
256,192,13074,1,12,0:0:0:0:
256,192,13296,1,8,0:0:0:0:
256,192,13407,1,8,0:0:0:0:
256,192,13518,1,0,0:0:0:0:
256,192,13741,1,8,0:0:0:0:
256,192,13963,1,0,0:0:0:0:
256,192,14074,1,8,0:0:0:0:
256,192,14296,1,8,0:0:0:0:
256,192,14407,1,0,0:0:0:0:
256,192,14629,1,8,0:0:0:0:
256,192,14852,1,0,0:0:0:0:
256,192,14963,1,0,0:0:0:0:
256,192,15074,1,0,0:0:0:0:
256,192,15185,1,0,0:0:0:0:
256,192,15296,1,0,0:0:0:0:
256,192,15518,1,0,0:0:0:0:
256,192,15741,1,8,0:0:0:0:
256,192,15963,1,0,0:0:0:0:
256,192,16074,1,8,0:0:0:0:
256,192,16296,1,8,0:0:0:0:
256,192,16407,1,0,0:0:0:0:
256,192,16629,1,8,0:0:0:0:
256,192,16741,1,8,0:0:0:0:
256,192,16852,1,8,0:0:0:0:
256,192,16963,1,8,0:0:0:0:
256,192,17074,1,8,0:0:0:0:
256,192,17296,1,8,0:0:0:0:
256,192,17518,1,0,0:0:0:0:
256,192,17741,1,8,0:0:0:0:
256,192,17852,1,0,0:0:0:0:
256,192,18074,1,0,0:0:0:0:
256,192,18185,1,8,0:0:0:0:
256,192,18407,1,4,0:0:0:0:
256,192,18629,1,4,0:0:0:0:
256,192,18852,1,4,0:0:0:0:
256,192,19074,1,4,0:0:0:0:
256,192,19518,1,0,0:0:0:0:
256,192,19741,1,0,0:0:0:0:
256,192,19963,1,12,0:0:0:0:
256,192,20407,1,12,0:0:0:0:
256,192,20852,1,12,0:0:0:0:
256,192,21296,1,8,0:0:0:0:
256,192,21518,1,4,0:0:0:0:
256,192,21963,1,0,0:0:0:0:
256,192,22185,1,0,0:0:0:0:
256,192,22407,1,8,0:0:0:0:
256,192,22852,1,0,0:0:0:0:
256,192,23074,1,0,0:0:0:0:
256,192,23296,1,8,0:0:0:0:
256,192,23741,1,0,0:0:0:0:
256,192,23963,1,0,0:0:0:0:
256,192,24185,1,8,0:0:0:0:
256,192,24629,1,8,0:0:0:0:
256,192,25074,1,0,0:0:0:0:
256,192,25518,1,0,0:0:0:0:
256,192,25741,1,0,0:0:0:0:
256,192,25963,1,8,0:0:0:0:
256,192,26407,1,0,0:0:0:0:
256,192,26629,1,0,0:0:0:0:
256,192,26852,1,8,0:0:0:0:
256,192,27296,1,0,0:0:0:0:
256,192,27518,1,0,0:0:0:0:
256,192,27741,1,8,0:0:0:0:
256,192,28185,1,4,0:0:0:0:
256,192,28629,1,0,0:0:0:0:
256,192,28852,1,8,0:0:0:0:
256,192,29074,1,0,0:0:0:0:
256,192,29185,1,0,0:0:0:0:
256,192,29407,1,0,0:0:0:0:
256,192,29518,1,0,0:0:0:0:
256,192,29741,1,0,0:0:0:0:
256,192,29852,1,0,0:0:0:0:
256,192,30074,1,0,0:0:0:0:
256,192,30185,1,0,0:0:0:0:
256,192,30407,1,12,0:0:0:0:
256,192,30852,1,4,0:0:0:0:
256,192,31296,1,8,0:0:0:0:
256,192,31741,1,0,0:0:0:0:
256,192,31963,1,0,0:0:0:0:
256,192,32185,1,8,0:0:0:0:
256,192,32629,1,0,0:0:0:0:
256,192,33074,1,8,0:0:0:0:
256,192,33296,1,0,0:0:0:0:
256,192,33741,1,0,0:0:0:0:
256,192,33963,1,8,0:0:0:0:
256,192,34407,1,0,0:0:0:0:
256,192,34852,1,0,0:0:0:0:
256,192,35296,1,8,0:0:0:0:
256,192,35518,1,8,0:0:0:0:
256,192,35963,1,0,0:0:0:0:
256,192,36407,1,8,0:0:0:0:
256,192,36629,1,0,0:0:0:0:
256,192,36852,1,8,0:0:0:0:
256,192,37074,1,0,0:0:0:0:
256,192,37185,1,0,0:0:0:0:
256,192,37296,1,8,0:0:0:0:
256,192,37407,1,8,0:0:0:0:
256,192,37518,1,0,0:0:0:0:
256,192,37629,1,0,0:0:0:0:
256,192,37741,1,8,0:0:0:0:
256,192,37852,1,8,0:0:0:0:
256,192,37963,1,0,0:0:0:0:
256,192,38407,1,8,0:0:0:0:
256,192,38852,1,0,0:0:0:0:
256,192,39074,1,0,0:0:0:0:
256,192,39296,1,8,0:0:0:0:
256,192,39741,1,0,0:0:0:0:
256,192,40185,1,8,0:0:0:0:
256,192,40407,1,0,0:0:0:0:
256,192,40852,1,0,0:0:0:0:
256,192,41074,1,8,0:0:0:0:
256,192,41518,1,0,0:0:0:0:
256,192,41963,1,0,0:0:0:0:
256,192,42407,1,8,0:0:0:0:
256,192,42629,1,8,0:0:0:0:
256,192,43074,1,0,0:0:0:0:
256,192,43296,2,8,L|284:192,12,23.3333333333333
256,192,44629,1,12,0:0:0:0:
256,192,45074,5,0,0:0:0:0:
256,192,45407,1,0,0:0:0:0:
256,192,45741,1,0,0:0:0:0:
256,192,45963,1,8,0:0:0:0:
256,192,46629,1,8,0:0:0:0:
256,192,46852,1,0,0:0:0:0:
256,192,47185,1,0,0:0:0:0:
256,192,47518,1,0,0:0:0:0:
256,192,47741,1,8,0:0:0:0:
256,192,48629,1,0,0:0:0:0:
256,192,48963,1,0,0:0:0:0:
256,192,49296,1,0,0:0:0:0:
256,192,49518,1,8,0:0:0:0:
256,192,49963,1,0,0:0:0:0:
256,192,50407,1,0,0:0:0:0:
256,192,50741,1,0,0:0:0:0:
256,192,51074,1,0,0:0:0:0:
256,192,51296,1,8,0:0:0:0:
256,192,51518,1,0,0:0:0:0:
256,192,51741,1,8,0:0:0:0:
256,192,51889,1,8,0:0:0:0:
256,192,52037,1,8,0:0:0:0:
256,192,52185,1,0,0:0:0:0:
256,192,52629,1,8,0:0:0:0:
256,192,53074,1,8,0:0:0:0:
256,192,53518,1,0,0:0:0:0:
256,192,53741,1,0,0:0:0:0:
256,192,53963,1,0,0:0:0:0:
256,192,54407,1,0,0:0:0:0:
256,192,54629,1,0,0:0:0:0:
256,192,54852,1,8,0:0:0:0:
256,192,55296,1,8,0:0:0:0:
256,192,55741,1,4,0:0:0:0:
256,192,56185,1,8,0:0:0:0:
256,192,56629,1,0,0:0:0:0:
256,192,57074,1,8,0:0:0:0:
256,192,57518,1,8,0:0:0:0:
256,192,57629,1,8,0:0:0:0:
256,192,57852,1,8,0:0:0:0:
256,192,57963,1,8,0:0:0:0:
256,192,58185,1,8,0:0:0:0:
256,192,58296,1,8,0:0:0:0:
256,192,58518,1,8,0:0:0:0:
256,192,58629,1,8,0:0:0:0:
256,192,58852,1,8,0:0:0:0:
256,192,58963,1,0,0:0:0:0:
256,192,59074,1,8,0:0:0:0:
256,192,59296,1,4,0:0:0:0:
256,192,59518,1,12,0:0:0:0:
256,192,59741,1,4,0:0:0:0:
256,192,59963,1,12,0:0:0:0:
256,192,60185,1,4,0:0:0:0:
256,192,60629,1,8,0:0:0:0:
256,192,60741,1,8,0:0:0:0:
256,192,60852,1,8,0:0:0:0:
256,192,60963,1,8,0:0:0:0:
256,192,61074,1,0,0:0:0:0:
256,192,61296,1,0,0:0:0:0:
256,192,61407,1,0,0:0:0:0:
256,192,61518,1,8,0:0:0:0:
256,192,61741,1,0,0:0:0:0:
256,192,61963,1,8,0:0:0:0:
256,192,62074,1,0,0:0:0:0:
256,192,62296,1,0,0:0:0:0:
256,192,62407,1,8,0:0:0:0:
256,192,62629,1,0,0:0:0:0:
256,192,62852,1,12,0:0:0:0:
256,192,63074,1,8,0:0:0:0:
256,192,63185,1,8,0:0:0:0:
256,192,63296,1,0,0:0:0:0:
256,192,63518,1,8,0:0:0:0:
256,192,63741,1,0,0:0:0:0:
256,192,63852,1,8,0:0:0:0:
256,192,64074,1,8,0:0:0:0:
256,192,64185,1,0,0:0:0:0:
256,192,64407,1,8,0:0:0:0:
256,192,64629,1,4,0:0:0:0:
256,192,64852,1,0,0:0:0:0:
256,192,64963,1,0,0:0:0:0:
256,192,65074,1,8,0:0:0:0:
256,192,65296,1,0,0:0:0:0:
256,192,65518,1,8,0:0:0:0:
256,192,65629,1,0,0:0:0:0:
256,192,65741,1,8,0:0:0:0:
256,192,65852,1,0,0:0:0:0:
256,192,65963,1,8,0:0:0:0:
256,192,66185,1,0,0:0:0:0:
256,192,66407,1,8,0:0:0:0:
256,192,66629,1,0,0:0:0:0:
256,192,66741,1,0,0:0:0:0:
256,192,66852,1,8,0:0:0:0:
256,192,67074,1,0,0:0:0:0:
256,192,67185,1,0,0:0:0:0:
256,192,67296,1,8,0:0:0:0:
256,192,67518,1,0,0:0:0:0:
256,192,67741,1,8,0:0:0:0:
256,192,67852,1,8,0:0:0:0:
256,192,67963,1,8,0:0:0:0:
256,192,68185,1,4,0:0:0:0:
256,192,68407,1,0,0:0:0:0:
256,192,68518,1,0,0:0:0:0:
256,192,68629,1,8,0:0:0:0:
256,192,68852,1,0,0:0:0:0:
256,192,69074,1,8,0:0:0:0:
256,192,69185,1,0,0:0:0:0:
256,192,69407,1,0,0:0:0:0:
256,192,69518,1,8,0:0:0:0:
256,192,69741,1,0,0:0:0:0:
256,192,69963,1,12,0:0:0:0:
256,192,70185,1,8,0:0:0:0:
256,192,70296,1,8,0:0:0:0:
256,192,70407,1,0,0:0:0:0:
256,192,70629,1,8,0:0:0:0:
256,192,70852,1,0,0:0:0:0:
256,192,70963,1,8,0:0:0:0:
256,192,71185,1,8,0:0:0:0:
256,192,71296,1,0,0:0:0:0:
256,192,71518,1,8,0:0:0:0:
256,192,71741,1,0,0:0:0:0:
256,192,71852,1,0,0:0:0:0:
256,192,71963,1,0,0:0:0:0:
256,192,72074,1,0,0:0:0:0:
256,192,72185,1,0,0:0:0:0:
256,192,72407,1,0,0:0:0:0:
256,192,72629,1,8,0:0:0:0:
256,192,72852,1,0,0:0:0:0:
256,192,72963,1,8,0:0:0:0:
256,192,73185,1,8,0:0:0:0:
256,192,73296,1,0,0:0:0:0:
256,192,73518,1,8,0:0:0:0:
256,192,73629,1,8,0:0:0:0:
256,192,73741,1,8,0:0:0:0:
256,192,73852,1,8,0:0:0:0:
256,192,73963,1,8,0:0:0:0:
256,192,74185,1,8,0:0:0:0:
256,192,74407,1,0,0:0:0:0:
256,192,74629,1,8,0:0:0:0:
256,192,74741,1,0,0:0:0:0:
256,192,74963,1,0,0:0:0:0:
256,192,75074,1,8,0:0:0:0:
256,192,75296,1,4,0:0:0:0:
256,192,75518,1,4,0:0:0:0:
256,192,75741,1,4,0:0:0:0:
256,192,75963,1,4,0:0:0:0:
256,192,76407,1,0,0:0:0:0:
256,192,76629,1,0,0:0:0:0:
256,192,76852,1,12,0:0:0:0:
256,192,77296,1,12,0:0:0:0:
256,192,77741,1,12,0:0:0:0:
256,192,78185,1,8,0:0:0:0:
256,192,78407,1,4,0:0:0:0:
256,192,78852,1,0,0:0:0:0:
256,192,79074,1,0,0:0:0:0:
256,192,79296,1,8,0:0:0:0:
256,192,79741,1,0,0:0:0:0:
256,192,79963,1,0,0:0:0:0:
256,192,80185,1,8,0:0:0:0:
256,192,80629,1,0,0:0:0:0:
256,192,80852,1,0,0:0:0:0:
256,192,81074,1,8,0:0:0:0:
256,192,81518,1,8,0:0:0:0:
256,192,81963,1,0,0:0:0:0:
256,192,82407,1,0,0:0:0:0:
256,192,82629,1,0,0:0:0:0:
256,192,82852,1,8,0:0:0:0:
256,192,83296,1,0,0:0:0:0:
256,192,83518,1,0,0:0:0:0:
256,192,83741,1,8,0:0:0:0:
256,192,84185,1,0,0:0:0:0:
256,192,84407,1,0,0:0:0:0:
256,192,84629,1,8,0:0:0:0:
256,192,85074,1,4,0:0:0:0:
256,192,85518,1,0,0:0:0:0:
256,192,85629,1,0,0:0:0:0:
256,192,85741,1,0,0:0:0:0:
256,192,85852,1,0,0:0:0:0:
256,192,85963,1,8,0:0:0:0:
256,192,86185,1,8,0:0:0:0:
256,192,86407,1,0,0:0:0:0:
256,192,86629,1,0,0:0:0:0:
256,192,86852,1,12,0:0:0:0:
256,192,87074,1,12,0:0:0:0:
256,192,87296,1,12,0:0:0:0:
256,192,87741,1,4,0:0:0:0:
