osu file format v14

[General]
AudioFilename: 04.Inner Urge (TV Size) (online-audio-converter.com).mp3
AudioLeadIn: 0
PreviewTime: 4185
Countdown: 0
SampleSet: Normal
StackLeniency: 0.7
Mode: 1
LetterboxInBreaks: 0
WidescreenStoryboard: 0

[Editor]
DistanceSpacing: 1.1
BeatDivisor: 4
GridSize: 4
TimelineZoom: 1.7

[Metadata]
Title:Inner Urge TV size mix
TitleUnicode:Inner Urge TV size mix
Artist:Uesaka Sumire
ArtistUnicode:上坂すみれ
Creator:Nofool
Version:Kantan
Source:下ネタという概念が存在しない退屈な世界
Tags:Shimoneta to Iu Gainen ga Sonzai Shinai Taikutsu na Sekai ending
BeatmapID:775665
BeatmapSetID:351410

[Difficulty]
HPDrainRate:7
CircleSize:5
OverallDifficulty:4
ApproachRate:5
SliderMultiplier:1.4
SliderTickRate:1

[Events]
//Background and Video events
0,0,"fuwa BG.jpg",0,0
//Break Periods
//Storyboard Layer 0 (Background)
//Storyboard Layer 1 (Fail)
//Storyboard Layer 2 (Pass)
//Storyboard Layer 3 (Foreground)
//Storyboard Sound Samples

[TimingPoints]
630,444.444444444444,4,1,0,100,1,0
4185,-100,4,1,0,100,0,1
21518,-100,4,1,0,100,0,0
30852,-100,4,1,0,80,0,0
45074,-100,4,1,0,90,0,0
52185,-100,4,1,0,100,0,0
61074,-100,4,1,0,100,0,1
78407,-100,4,1,0,100,0,0

[HitObjects]
256,192,630,12,0,1518,0:0:0:0:
256,192,1963,5,0,0:0:0:0:
256,192,2407,12,0,3741,0:0:0:0:
256,192,4185,5,4,0:0:0:0:
256,192,5074,1,0,0:0:0:0:
256,192,5963,1,12,0:0:0:0:
256,192,6852,1,8,0:0:0:0:
256,192,7741,1,4,0:0:0:0:
256,192,9518,1,0,0:0:0:0:
256,192,9963,1,0,0:0:0:0:
256,192,10407,1,8,0:0:0:0:
256,192,11296,1,4,0:0:0:0:
256,192,12185,1,0,0:0:0:0:
256,192,13074,1,12,0:0:0:0:
256,192,13963,1,8,0:0:0:0:
256,192,14852,1,0,0:0:0:0:
256,192,15296,1,0,0:0:0:0:
256,192,15741,1,0,0:0:0:0:
256,192,16629,1,8,0:0:0:0:
256,192,17074,1,8,0:0:0:0:
256,192,17518,1,8,0:0:0:0:
256,192,18407,1,4,0:0:0:0:
256,192,19963,1,0,0:0:0:0:
256,192,20407,1,0,0:0:0:0:
256,192,20852,1,0,0:0:0:0:
256,192,21518,1,8,0:0:0:0:
256,192,21963,1,0,0:0:0:0:
256,192,22852,1,0,0:0:0:0:
256,192,23741,1,0,0:0:0:0:
256,192,25074,1,8,0:0:0:0:
256,192,25518,1,0,0:0:0:0:
256,192,26407,1,0,0:0:0:0:
256,192,27296,1,0,0:0:0:0:
256,192,28185,1,8,0:0:0:0:
256,192,29074,12,0,30407,0:0:0:0:
256,192,30852,5,0,0:0:0:0:
256,192,32629,1,0,0:0:0:0:
256,192,34407,1,0,0:0:0:0:
256,192,35296,1,8,0:0:0:0:
256,192,36185,1,0,0:0:0:0:
256,192,37074,2,0,L|292:192,8,35
256,192,39741,1,0,0:0:0:0:
256,192,41518,1,0,0:0:0:0:
256,192,42407,1,8,0:0:0:0:
256,192,43296,2,0,L|284:192,12,23.3333333333333
256,192,45074,1,0,0:0:0:0:
256,192,46852,1,0,0:0:0:0:
256,192,48629,1,0,0:0:0:0:
256,192,49518,1,8,0:0:0:0:
256,192,50407,12,0,51741,0:0:0:0:
256,192,52185,5,0,0:0:0:0:
256,192,53074,1,8,0:0:0:0:
256,192,53963,1,8,0:0:0:0:
256,192,54852,1,0,0:0:0:0:
256,192,55741,1,12,0:0:0:0:
256,192,56629,1,0,0:0:0:0:
256,192,57518,12,0,58852,0:0:0:0:
256,192,59296,5,4,0:0:0:0:
256,192,59741,1,4,0:0:0:0:
256,192,60185,1,4,0:0:0:0:
256,192,61074,5,4,0:0:0:0:
256,192,61963,1,0,0:0:0:0:
256,192,62852,1,12,0:0:0:0:
256,192,63741,1,8,0:0:0:0:
256,192,64629,1,4,0:0:0:0:
256,192,65518,1,8,0:0:0:0:
256,192,66407,1,0,0:0:0:0:
256,192,66852,1,0,0:0:0:0:
256,192,67296,1,8,0:0:0:0:
256,192,68185,1,4,0:0:0:0:
256,192,69074,1,0,0:0:0:0:
256,192,69963,1,12,0:0:0:0:
256,192,70852,1,8,0:0:0:0:
256,192,71741,1,0,0:0:0:0:
256,192,72185,1,0,0:0:0:0:
256,192,72629,1,0,0:0:0:0:
256,192,73518,1,8,0:0:0:0:
256,192,73963,1,8,0:0:0:0:
256,192,74407,1,8,0:0:0:0:
256,192,75296,1,4,0:0:0:0:
256,192,76852,1,0,0:0:0:0:
256,192,77296,1,0,0:0:0:0:
256,192,77741,1,0,0:0:0:0:
256,192,78407,1,8,0:0:0:0:
256,192,78852,1,0,0:0:0:0:
256,192,79741,1,0,0:0:0:0:
256,192,80629,1,0,0:0:0:0:
256,192,81963,1,8,0:0:0:0:
256,192,82407,1,0,0:0:0:0:
256,192,83296,1,0,0:0:0:0:
256,192,84185,1,0,0:0:0:0:
256,192,85074,1,12,0:0:0:0:
256,192,85963,2,0,L|348:192,4,70
256,192,87741,1,4,0:0:0:0:
