osu file format v12

[General]
AudioFilename: Katyusha.mp3
AudioLeadIn: 1996
PreviewTime: 10622
Countdown: 0
SampleSet: Soft
StackLeniency: 0.7
Mode: 0
LetterboxInBreaks: 1

[Editor]
DistanceSpacing: 1.1
BeatDivisor: 4
GridSize: 4

[Metadata]
Title:Katyusha
TitleUnicode:カチューシャ
Artist:Uesaka Sumire & Kanemoto Hisako
ArtistUnicode:上坂すみれ & 金元寿子
Creator:Mei_coN
Version:uraaa~~
Source:Girls und Panzer
Tags:katyusha nonna
BeatmapID:197185
BeatmapSetID:68033

[Difficulty]
HPDrainRate:7
CircleSize:4
OverallDifficulty:7
ApproachRate:8
SliderMultiplier:1.9
SliderTickRate:1

[Events]
//Background and Video events
0,0,"wula~.jpg",0,0
Video,0,"video.avi"
//Break Periods
//Storyboard Layer 0 (Background)
//Storyboard Layer 1 (Fail)
//Storyboard Layer 2 (Pass)
//Storyboard Layer 3 (Foreground)
//Storyboard Sound Samples
//Background Colour Transformations
3,100,163,162,255

[TimingPoints]
146,476.190476190476,4,2,1,25,1,0
146,-100,4,2,1,35,0,1
265,-100,4,2,1,35,0,0
3955,-100,4,2,1,35,0,1
10622,-100,4,2,1,35,0,0
18241,-100,4,2,1,40,0,0
25860,-100,4,2,1,25,0,1
25979,-100,4,2,1,40,0,1
33479,-100,4,2,1,35,0,0
41098,-100,4,2,1,40,0,0
48717,-100,4,2,1,45,0,1
55860,-100,4,2,1,40,0,0

[Colours]
Combo1 : 255,255,255
Combo2 : 255,0,0
Combo3 : 0,123,247

[HitObjects]
117,127,146,1,4,0:0:0:0:
330,58,622,1,0,0:0:0:0:
394,256,1098,1,2,0:0:0:0:
181,325,1574,1,0,0:0:0:0:
256,192,2050,5,0,0:0:0:0:
156,224,2288,1,0,0:0:0:0:
156,224,2407,1,0,0:0:0:0:
156,224,2526,2,0,P|112:236|60:224,1,95,0|0,0:0|0:0,0:0:0:0:
356,160,3003,2,0,P|400:148|452:160,2,95,2|0|0,0:0|0:0|0:0,0:0:0:0:
256,128,3717,5,0,0:0:0:0:
256,128,3836,1,0,0:0:0:0:
256,128,3955,2,0,L|256:32,1,95,4|0,0:0|0:0,0:0:0:0:
160,76,4431,2,0,L|160:172,1,95,2|0,0:0|0:0,0:0:0:0:
84,244,4907,1,0,0:0:0:0:
156,320,5145,2,0,L|156:376,2,47.5,0|0|2,0:0|0:0|0:0,0:0:0:0:
228,244,5622,1,0,0:0:0:0:
308,312,5860,5,0,0:0:0:0:
444,180,6098,1,0,0:0:0:0:
400,280,6336,1,2,0:0:0:0:
388,92,6574,1,0,0:0:0:0:
284,104,6812,6,0,L|324:4,1,95
228,280,7288,2,0,L|188:380,1,95,2|0,0:0|0:0,0:0:0:0:
284,104,7765,5,0,0:0:0:0:
228,280,8003,1,0,0:0:0:0:
228,280,8122,1,0,0:0:0:0:
228,280,8241,1,2,0:0:0:0:
256,192,8479,1,0,0:0:0:0:
344,220,8717,6,0,L|444:260,1,95
168,164,9193,2,0,L|68:124,1,95,2|0,0:0|0:0,0:0:0:0:
344,220,9669,5,0,0:0:0:0:
168,164,9907,1,0,0:0:0:0:
168,164,10026,1,0,0:0:0:0:
168,164,10145,1,2,0:0:0:0:
256,192,10384,1,0,0:0:0:0:
40,128,10622,6,0,P|104:72|200:104,1,190,0|8,0:0|0:0,0:0:0:0:
256,192,11336,1,0,0:0:0:0:
315,283,11574,2,0,P|408:312|472:256,1,190,0|8,0:0|0:0,0:0:0:0:
504,156,12288,1,0,0:0:0:0:
436,76,12526,5,0,0:0:0:0:
336,108,12765,1,0,0:0:0:0:
336,108,12884,1,0,0:0:0:0:
336,108,13003,2,0,P|332:160|352:208,1,95,8|0,0:0|0:0,0:0:0:0:
272,332,13479,2,0,P|276:280|256:232,1,95
168,192,13955,1,8,0:0:0:0:
168,192,14074,1,0,0:0:0:0:
168,192,14193,1,0,0:0:0:0:
168,288,14431,6,0,P|248:312|364:280,1,190,0|8,0:0|0:0,0:0:0:0:
256,192,15145,1,0,0:0:0:0:
344,96,15384,2,0,P|264:72|148:104,1,190,0|8,0:0|0:0,0:0:0:0:
112,188,16098,1,0,0:0:0:0:
216,192,16336,6,0,L|320:192,1,95
392,256,16812,1,8,0:0:0:0:
392,256,16931,1,0,0:0:0:0:
392,256,17050,1,0,0:0:0:0:
472,192,17288,5,0,0:0:0:0:
392,128,17526,1,0,0:0:0:0:
312,192,17765,1,8,0:0:0:0:
312,192,17884,1,0,0:0:0:0:
312,192,18003,1,0,0:0:0:0:
40,116,18241,6,0,P|36:60|52:12,1,95,2|0,0:0|0:0,0:0:0:0:
232,88,18717,2,0,P|236:144|220:192,1,95,8|0,0:0|0:0,0:0:0:0:
152,336,19193,1,2,0:0:0:0:
128,236,19431,1,0,0:0:0:0:
128,236,19550,1,0,0:0:0:0:
128,236,19669,2,0,P|124:180|144:132,1,95,8|0,0:0|0:0,0:0:0:0:
392,32,20145,5,2,0:0:0:0:
416,132,20383,1,0,0:0:0:0:
416,132,20502,1,0,0:0:0:0:
416,132,20621,2,0,P|420:188|400:236,1,95,8|0,0:0|0:0,0:0:0:0:
480,300,21098,2,0,P|404:328|340:300,1,142.5,2|0,0:0|0:0,0:0:0:0:
308,276,21574,1,8,0:0:0:0:
204,276,21812,1,2,0:0:0:0:
204,276,22288,6,0,P|180:328|120:348,2,95,0|8|0,0:0|0:0|0:0,0:0:0:0:
100,260,23003,2,0,P|132:204|124:108,1,142.5,2|0,0:0|0:0,0:0:0:0:
132,76,23479,2,0,P|160:40|216:24,1,95,8|0,0:0|0:0,0:0:0:0:
308,48,23955,5,2,0:0:0:0:
392,112,24193,1,0,0:0:0:0:
392,112,24312,1,0,0:0:0:0:
392,112,24431,2,0,P|404:168|380:236,1,95,8|0,0:0|0:0,0:0:0:0:
360,300,24907,5,2,0:0:0:0:
392,112,25145,1,0,0:0:0:0:
266,341,25384,1,8,0:0:0:0:
411,218,25622,1,0,0:0:0:0:
312,192,25860,6,0,P|256:180|212:196,1,95,6|0,0:0|0:0,0:0:0:0:
16,332,26336,2,0,P|72:344|116:328,1,95,8|0,0:0|0:0,0:0:0:0:
204,300,26812,2,0,P|248:328|300:324,2,95,2|0|8,0:0|0:0|0:0,0:0:0:0:
120,236,27526,1,0,0:0:0:0:
76,140,27765,5,2,0:0:0:0:
168,88,28003,1,0,0:0:0:0:
168,88,28122,1,0,0:0:0:0:
168,88,28241,1,8,0:0:0:0:
240,164,28479,1,0,0:0:0:0:
272,264,28717,5,2,0:0:0:0:
364,316,28955,1,0,0:0:0:0:
364,316,29074,1,0,0:0:0:0:
364,316,29193,1,8,0:0:0:0:
436,240,29431,1,2,0:0:0:0:
436,240,29907,6,0,P|460:288|456:352,2,95,0|8|0,0:0|0:0|0:0,0:0:0:0:
420,136,30622,2,0,P|372:124|312:144,1,95,2|0,0:0|0:0,0:0:0:0:
280,156,30979,1,0,0:0:0:0:
244,196,31098,2,0,P|196:208|136:188,1,95,8|0,0:0|0:0,0:0:0:0:
76,124,31574,5,2,0:0:0:0:
152,296,31812,1,0,0:0:0:0:
152,296,31931,1,0,0:0:0:0:
152,296,32050,1,8,0:0:0:0:
224,120,32288,1,0,0:0:0:0:
68,228,32526,2,0,P|24:252|-24:240,1,95,2|0,0:0|0:0,0:0:0:0:
216,220,33003,2,0,P|260:244|308:232,1,95,8|0,0:0|0:0,0:0:0:0:
392,292,33479,5,0,0:0:0:0:
392,292,33717,1,0,0:0:0:0:
456,212,33955,1,8,0:0:0:0:
456,212,34193,1,0,0:0:0:0:
376,144,34431,2,0,P|364:96|372:44,1,95
268,24,34907,2,0,P|280:72|272:124,1,95,8|0,0:0|0:0,0:0:0:0:
200,192,35384,5,0,0:0:0:0:
120,260,35622,1,0,0:0:0:0:
120,260,35741,1,0,0:0:0:0:
120,260,35860,2,0,P|112:312|124:356,1,95,8|0,0:0|0:0,0:0:0:0:
120,260,36336,5,0,0:0:0:0:
276,116,36574,1,0,0:0:0:0:
92,188,36812,1,8,0:0:0:0:
304,189,37050,1,0,0:0:0:0:
228,264,37288,6,0,L|264:368,1,95
172,120,37765,2,0,L|136:16,1,95,8|0,0:0|0:0,0:0:0:0:
92,188,38241,2,0,P|144:200|188:196,1,95
236,184,38598,1,0,0:0:0:0:
288,172,38717,2,0,P|329:168|381:180,1,95,8|0,0:0|0:0,0:0:0:0:
468,240,39193,5,0,0:0:0:0:
304,332,39431,1,0,0:0:0:0:
492,312,39669,1,8,0:0:0:0:
304,260,39907,1,0,0:0:0:0:
396,308,40145,2,0,L|384:248|376:208,1,95
364,164,40503,1,0,0:0:0:0:
352,112,40622,2,0,L|340:52|332:12,1,95,8|0,0:0|0:0,0:0:0:0:
228,20,41098,5,2,0:0:0:0:
140,76,41336,1,0,0:0:0:0:
140,76,41455,1,0,0:0:0:0:
140,76,41574,2,0,L|84:76|36:76,1,95,8|0,0:0|0:0,0:0:0:0:
68,176,42050,2,0,P|120:232|212:236,1,142.5,2|0,0:0|0:0,0:0:0:0:
216,204,42526,2,0,P|256:196|316:212,1,95,8|0,0:0|0:0,0:0:0:0:
380,284,43003,6,0,P|336:308|288:308,1,95,2|0,0:0|0:0,0:0:0:0:
256,272,43360,1,0,0:0:0:0:
219,308,43479,2,0,P|176:308|132:284,1,95,8|0,0:0|0:0,0:0:0:0:
56,212,43955,5,2,0:0:0:0:
36,180,44074,1,0,0:0:0:0:
32,144,44193,1,0,0:0:0:0:
48,112,44312,1,0,0:0:0:0:
76,88,44431,1,8,0:0:0:0:
76,88,44669,1,2,0:0:0:0:
224,56,45145,5,0,0:0:0:0:
224,56,45265,1,0,0:0:0:0:
224,56,45384,2,0,P|272:56|316:76,1,95,8|0,0:0|0:0,0:0:0:0:
248,156,45860,2,0,P|236:228|272:296,1,142.5,2|0,0:0|0:0,0:0:0:0:
304,324,46336,1,8,0:0:0:0:
396,272,46574,1,0,0:0:0:0:
328,192,46812,5,2,0:0:0:0:
236,244,47050,1,0,0:0:0:0:
236,244,47169,1,0,0:0:0:0:
236,244,47288,2,0,P|180:244|124:220,1,95,8|0,0:0|0:0,0:0:0:0:
76,152,47765,2,0,L|80:76,3,47.5,2|0|0|0,0:0|0:0|0:0|0:0,0:0:0:0:
132,100,48241,2,0,L|168:68,3,47.5,8|0|0|0,0:0|0:0|0:0|0:0,0:0:0:0:
212,56,48717,6,0,P|260:48|312:60,1,95,4|0,0:0|0:0,0:0:0:0:
300,328,49193,2,0,P|252:336|200:324,1,95,8|0,0:0|0:0,0:0:0:0:
84,236,49669,2,0,P|76:188|88:136,1,95,2|0,0:0|0:0,0:0:0:0:
428,148,50145,2,0,P|436:196|424:248,1,95,8|0,0:0|0:0,0:0:0:0:
380,336,50622,5,2,0:0:0:0:
380,336,50741,1,0,0:0:0:0:
380,336,50860,1,0,0:0:0:0:
132,336,51098,5,8,0:0:0:0:
132,336,51217,1,0,0:0:0:0:
132,336,51336,1,0,0:0:0:0:
256,96,51574,5,2,0:0:0:0:
256,96,51693,1,0,0:0:0:0:
256,96,51812,1,0,0:0:0:0:
256,96,51931,1,0,0:0:0:0:
256,96,52050,2,0,L|256:200,1,95,8|0,0:0|0:0,0:0:0:0:
164,240,52526,6,0,P|116:232|72:244,2,95,2|0|8,0:0|0:0|0:0,0:0:0:0:
256,288,53241,1,0,0:0:0:0:
344,232,53479,2,0,P|392:244|440:232,1,95,2|0,0:0|0:0,0:0:0:0:
468,192,53836,1,0,0:0:0:0:
440,148,53955,2,0,P|392:136|344:148,1,95,8|0,0:0|0:0,0:0:0:0:
256,192,54431,5,2,0:0:0:0:
76,192,54669,1,0,0:0:0:0:
256,36,54907,1,8,0:0:0:0:
436,192,55145,1,0,0:0:0:0:
256,348,55384,1,2,0:0:0:0:
256,192,55622,5,0,0:0:0:0:
256,192,55741,1,0,0:0:0:0:
256,192,55860,1,4,0:0:0:0:
