osu file format v12

[General]
AudioFilename: Katyusha.mp3
AudioLeadIn: 1996
PreviewTime: 10622
Countdown: 0
SampleSet: Soft
StackLeniency: 0.7
Mode: 0
LetterboxInBreaks: 1

[Editor]
DistanceSpacing: 1
BeatDivisor: 4
GridSize: 4

[Metadata]
Title:Katyusha
TitleUnicode:カチューシャ
Artist:Uesaka Sumire & Kanemoto Hisako
ArtistUnicode:上坂すみれ & 金元寿子
Creator:Mei_coN
Version:Normal
Source:Girls und Panzer
Tags:katyusha nonna
BeatmapID:197590
BeatmapSetID:68033

[Difficulty]
HPDrainRate:3
CircleSize:3
OverallDifficulty:3
ApproachRate:4
SliderMultiplier:1.2
SliderTickRate:1

[Events]
//Background and Video events
0,0,"wula~.jpg",0,0
Video,0,"video.avi"
//Break Periods
//Storyboard Layer 0 (Background)
//Storyboard Layer 1 (Fail)
//Storyboard Layer 2 (Pass)
//Storyboard Layer 3 (Foreground)
//Storyboard Sound Samples
//Background Colour Transformations
3,100,163,162,255

[TimingPoints]
146,476.190476190476,4,2,1,25,1,0
146,-100,4,2,1,35,0,1
265,-100,4,2,1,35,0,0
3955,-100,4,2,1,35,0,1
10622,-100,4,2,1,35,0,0
18241,-100,4,2,1,40,0,0
25860,-100,4,2,1,25,0,1
25979,-100,4,2,1,40,0,1
33479,-100,4,2,1,35,0,0
41098,-100,4,2,1,40,0,0
48717,-100,4,2,1,45,0,1
55860,-100,4,2,1,40,0,0

[Colours]
Combo1 : 255,255,255
Combo2 : 255,0,0
Combo3 : 0,123,247

[HitObjects]
44,136,146,2,0,P|104:120|172:144,1,120,4|0,0:0|0:0,0:0:0:0:
224,236,1098,2,0,P|284:252|352:228,1,120,2|0,0:0|0:0,0:0:0:0:
452,192,2050,1,0,0:0:0:0:
356,124,2526,2,0,L|356:48,2,60,0|0|2,0:0|0:0|0:0,0:0:0:0:
256,192,3479,1,0,0:0:0:0:
148,244,3955,6,0,P|88:256|28:240,1,120,4|0,0:0|0:0,0:0:0:0:
4,188,4669,1,0,0:0:0:0:
40,140,4907,2,0,P|100:128|160:144,1,120,2|0,0:0|0:0,0:0:0:0:
256,76,5860,6,0,L|188:76,2,60,2|0|0,0:0|0:0|0:0,0:0:0:0:
305,42,6574,1,0,0:0:0:0:
348,84,6812,2,0,P|380:132|448:148,1,120,2|0,0:0|0:0,0:0:0:0:
372,252,7765,2,0,P|340:204|264:184,1,120,2|0,0:0|0:0,0:0:0:0:
164,192,8717,5,2,0:0:0:0:
256,116,9193,1,0,0:0:0:0:
348,192,9669,1,2,0:0:0:0:
256,268,10145,1,0,0:0:0:0:
148,324,10622,6,0,P|132:268|156:200,1,120,0|8,0:0|0:0,0:0:0:0:
256,156,11574,2,0,P|272:100|248:32,1,120,0|8,0:0|0:0,0:0:0:0:
148,96,12526,1,0,0:0:0:0:
76,192,13003,2,0,L|16:192,2,60,8|0|0,0:0|0:0|0:0,0:0:0:0:
148,292,13955,1,8,0:0:0:0:
256,340,14431,6,0,P|312:327|361:274,1,120,0|8,0:0|0:0,0:0:0:0:
396,240,15145,1,0,0:0:0:0:
356,196,15384,2,0,P|314:155|242:144,1,120,0|8,0:0|0:0,0:0:0:0:
164,68,16336,6,0,L|100:68,2,60,0|0|8,0:0|0:0|0:0,0:0:0:0:
216,36,17050,1,0,0:0:0:0:
268,68,17288,2,0,L|388:68,1,120,0|8,0:0|0:0,0:0:0:0:
420,184,18241,5,2,0:0:0:0:
508,268,18717,1,8,0:0:0:0:
420,360,19193,1,2,0:0:0:0:
332,268,19669,1,8,0:0:0:0:
244,352,20145,2,0,P|184:368|120:344,1,120,2|8,0:0|0:0,0:0:0:0:
84,312,20860,1,0,0:0:0:0:
80,252,21098,2,0,P|72:196|24:152,1,120,2|8,0:0|0:0,0:0:0:0:
208,136,22288,6,0,L|136:136,2,60,0|8|0,0:0|0:0|0:0,0:0:0:0:
252,96,23003,2,0,P|312:80|376:104,1,120,2|8,0:0|0:0,0:0:0:0:
408,140,23717,1,0,0:0:0:0:
440,192,23955,2,0,L|440:256,3,60,2|0|8|0,0:0|0:0|0:0|0:0,0:0:0:0:
440,312,24907,1,2,0:0:0:0:
200,312,25860,6,0,P|140:328|72:304,1,120,6|8,0:0|0:0,0:0:0:0:
20,212,26812,2,0,P|80:196|148:220,1,120,2|8,0:0|0:0,0:0:0:0:
196,108,27765,6,0,L|112:108,2,60,2|0|8,0:0|0:0|0:0,0:0:0:0:
232,60,28479,1,0,0:0:0:0:
292,60,28717,2,0,L|412:60,1,120,2|8,0:0|0:0,0:0:0:0:
452,236,29907,6,0,P|388:252|332:228,1,120,2|0,0:0|0:0,0:0:0:0:
296,192,30622,2,0,P|228:176|180:188,1,120,2|8,0:0|0:0,0:0:0:0:
132,220,31336,1,0,0:0:0:0:
80,192,31574,2,0,L|80:120,3,60,2|0|8|0,0:0|0:0|0:0|0:0,0:0:0:0:
80,72,32526,1,2,0:0:0:0:
316,36,33479,6,0,P|300:96|324:164,1,120,0|8,0:0|0:0,0:0:0:0:
432,124,34431,2,0,P|448:184|424:252,1,120,0|8,0:0|0:0,0:0:0:0:
324,192,35384,2,0,L|324:120,2,60,0|0|8,0:0|0:0|0:0,0:0:0:0:
284,236,36098,1,0,0:0:0:0:
244,192,36336,2,0,L|120:192,1,120,0|8,0:0|0:0,0:0:0:0:
24,128,37288,6,0,P|16:200|28:248,1,120,0|8,0:0|0:0,0:0:0:0:
56,296,38003,1,0,0:0:0:0:
116,292,38241,2,0,P|176:280|240:300,1,120,0|8,0:0|0:0,0:0:0:0:
340,344,39193,6,0,L|396:388,1,60
392,320,39669,2,0,L|456:328,1,60,8|0,0:0|0:0,0:0:0:0:
440,268,40145,1,0,0:0:0:0:
412,152,40622,1,8,0:0:0:0:
292,164,41098,6,0,P|304:104|284:36,2,120,2|8|2,0:0|0:0|0:0,0:0:0:0:
188,108,42526,2,0,L|112:108,1,60,8|0,0:0|0:0,0:0:0:0:
64,108,43003,1,2,0:0:0:0:
68,228,43479,2,0,L|-4:228,2,60,8|0|2,0:0|0:0|0:0,0:0:0:0:
124,332,44431,1,8,0:0:0:0:
256,208,45145,6,0,L|192:208,2,60,0|8|0,0:0|0:0|0:0,0:0:0:0:
308,176,45860,2,0,P|368:160|428:180,1,120,2|8,0:0|0:0,0:0:0:0:
472,208,46574,1,0,0:0:0:0:
472,148,46812,2,0,L|472:84,3,60,2|0|8|0,0:0|0:0|0:0|0:0,0:0:0:0:
472,28,47765,1,2,0:0:0:0:
240,84,48717,6,0,P|180:72|112:88,1,120,4|8,0:0|0:0,0:0:0:0:
48,176,49669,2,0,P|108:188|176:172,1,120,2|8,0:0|0:0,0:0:0:0:
256,256,50622,2,0,L|256:324,2,60,2|0|8,0:0|0:0|0:0,0:0:0:0:
356,192,51574,2,0,L|356:128,2,60,2|0|8,0:0|0:0|0:0,0:0:0:0:
200,104,52765,6,0,L|200:40,2,60,0|8|0,0:0|0:0|0:0,0:0:0:0:
140,108,53479,2,0,P|124:172|148:232,1,120,2|8,0:0|0:0,0:0:0:0:
192,252,54193,1,0,0:0:0:0:
228,204,54431,5,2,0:0:0:0:
272,163,54669,1,0,0:0:0:0:
312,208,54907,1,8,0:0:0:0:
353,164,55145,1,0,0:0:0:0:
396,206,55384,1,2,0:0:0:0:
476,296,55860,5,4,0:0:0:0:
