osu file format v12

[General]
AudioFilename: Katyusha.mp3
AudioLeadIn: 1996
PreviewTime: 10622
Countdown: 0
SampleSet: Soft
StackLeniency: 0.7
Mode: 0
LetterboxInBreaks: 1

[Editor]
DistanceSpacing: 1
BeatDivisor: 4
GridSize: 4

[Metadata]
Title:Katyusha
TitleUnicode:カチューシャ
Artist:Uesaka Sumire & Kanemoto Hisako
ArtistUnicode:上坂すみれ & 金元寿子
Creator:Mei_coN
Version:Hard
Source:Girls und Panzer
Tags:katyusha nonna
BeatmapID:220029
BeatmapSetID:68033

[Difficulty]
HPDrainRate:6
CircleSize:4
OverallDifficulty:6
ApproachRate:7
SliderMultiplier:1.6
SliderTickRate:1

[Events]
//Background and Video events
0,0,"wula~.jpg",0,0
Video,0,"video.avi"
//Break Periods
//Storyboard Layer 0 (Background)
//Storyboard Layer 1 (Fail)
//Storyboard Layer 2 (Pass)
//Storyboard Layer 3 (Foreground)
//Storyboard Sound Samples
//Background Colour Transformations
3,100,163,162,255

[TimingPoints]
146,476.190476190476,4,2,1,25,1,0
146,-100,4,2,1,35,0,1
265,-100,4,2,1,35,0,0
3955,-100,4,2,1,35,0,1
10622,-100,4,2,1,35,0,0
18241,-100,4,2,1,40,0,0
25860,-100,4,2,1,25,0,1
25979,-100,4,2,1,40,0,1
33479,-100,4,2,1,35,0,0
41098,-100,4,2,1,40,0,0
48717,-100,4,2,1,45,0,1
55860,-100,4,2,1,40,0,0

[Colours]
Combo1 : 255,255,255
Combo2 : 255,0,0
Combo3 : 0,123,247

[HitObjects]
112,104,146,1,4,0:0:0:0:
256,36,622,1,0,0:0:0:0:
400,104,1098,1,2,0:0:0:0:
256,172,1574,1,0,0:0:0:0:
400,240,2050,6,0,P|392:324|308:368,1,160,0|0,0:0|0:0,0:0:0:0:
256,344,2765,1,0,0:0:0:0:
177,365,3003,2,0,P|120:324|112:240,1,160,2|0,0:0|0:0,0:0:0:0:
176,192,3717,1,0,0:0:0:0:
124,132,3955,6,0,L|40:92,1,80,4|0,0:0|0:0,0:0:0:0:
112,44,4431,2,0,L|188:80,1,80,2|0,0:0|0:0,0:0:0:0:
256,116,4907,1,0,0:0:0:0:
284,192,5145,1,0,0:0:0:0:
284,192,5265,1,0,0:0:0:0:
284,192,5384,2,0,L|372:192,1,80,2|0,0:0|0:0,0:0:0:0:
368,112,5860,5,0,0:0:0:0:
436,156,6098,1,0,0:0:0:0:
436,236,6336,1,2,0:0:0:0:
364,276,6574,1,0,0:0:0:0:
324,344,6812,6,0,P|256:368|172:340,1,160,0|2,0:0|0:0,0:0:0:0:
104,304,7526,1,0,0:0:0:0:
40,256,7765,1,0,0:0:0:0:
104,208,8003,2,0,L|104:164,2,40,0|0|2,0:0|0:0|0:0,0:0:0:0:
168,260,8479,1,0,0:0:0:0:
188,184,8717,6,0,P|256:160|340:188,1,160,0|2,0:0|0:0,0:0:0:0:
408,224,9431,1,0,0:0:0:0:
472,272,9670,1,0,0:0:0:0:
408,320,9908,2,0,L|408:364,2,40,0|0|2,0:0|0:0|0:0,0:0:0:0:
344,268,10384,1,0,0:0:0:0:
300,336,10622,6,0,P|260:280|296:200,1,160,0|8,0:0|0:0,0:0:0:0:
356,156,11336,1,0,0:0:0:0:
420,108,11574,2,0,P|361:72|288:112,1,160,0|8,0:0|0:0,0:0:0:0:
256,184,12288,1,0,0:0:0:0:
212,120,12526,2,0,P|212:80|252:32,2,80,0|0|8,0:0|0:0|0:0,0:0:0:0:
168,184,13241,1,0,0:0:0:0:
168,184,13479,2,0,P|152:272|172:352,1,160,0|8,0:0|0:0,0:0:0:0:
324,304,14431,6,0,P|382:339|460:300,1,160,0|8,0:0|0:0,0:0:0:0:
392,256,15145,1,0,0:0:0:0:
456,208,15384,2,0,P|397:172|320:212,1,160,0|8,0:0|0:0,0:0:0:0:
256,256,16098,1,0,0:0:0:0:
216,324,16336,2,0,P|172:328|136:316,1,80
72,364,16812,2,0,P|56:308|72:272,1,80,8|0,0:0|0:0,0:0:0:0:
124,240,17288,1,0,0:0:0:0:
124,240,17765,1,8,0:0:0:0:
140,80,18241,6,0,P|48:84|-8:144,1,160,2|8,0:0|0:0,0:0:0:0:
156,164,19193,2,0,P|248:160|304:100,1,160,2|8,0:0|0:0,0:0:0:0:
360,68,19907,1,0,0:0:0:0:
424,116,20145,1,2,0:0:0:0:
360,164,20384,1,0,0:0:0:0:
360,164,20503,1,0,0:0:0:0:
360,164,20622,2,0,P|372:216|408:260,1,80,8|0,0:0|0:0,0:0:0:0:
444,296,21098,1,2,0:0:0:0:
444,296,21574,1,8,0:0:0:0:
284,300,22050,6,0,P|256:340|208:348,2,80,2|0|8,0:0|0:0|0:0,0:0:0:0:
208,276,22765,1,0,0:0:0:0:
256,212,23003,2,0,P|232:120|176:96,1,160,2|8,0:0|0:0,0:0:0:0:
100,88,23717,1,0,0:0:0:0:
36,136,23955,5,2,0:0:0:0:
60,212,24193,1,0,0:0:0:0:
60,212,24312,1,0,0:0:0:0:
60,212,24431,1,8,0:0:0:0:
140,212,24669,1,0,0:0:0:0:
164,136,24907,1,2,0:0:0:0:
164,136,25384,1,8,0:0:0:0:
324,124,25860,6,0,B|356:84|436:88|464:140,1,160,6|8,0:0|0:0,0:0:0:0:
356,256,26812,2,0,B|324:296|244:292|216:240,1,160,2|8,0:0|0:0,0:0:0:0:
248,168,27526,1,0,0:0:0:0:
248,168,27765,1,2,0:0:0:0:
168,172,28003,2,0,L|136:128,2,40,0|0|8,0:0|0:0|0:0,0:0:0:0:
140,248,28479,1,0,0:0:0:0:
140,248,28717,2,0,P|60:268|-16:256,1,160,2|8,0:0|0:0,0:0:0:0:
64,116,29669,6,0,P|20:68|-12:68,2,80,2|0|8,0:0|0:0|0:0,0:0:0:0:
112,180,30384,1,0,0:0:0:0:
164,120,30622,2,0,P|240:100|328:128,1,160,2|8,0:0|0:0,0:0:0:0:
388,156,31336,1,0,0:0:0:0:
452,204,31574,5,2,0:0:0:0:
428,280,31812,1,0,0:0:0:0:
428,280,31931,1,0,0:0:0:0:
428,280,32050,1,8,0:0:0:0:
348,280,32288,1,0,0:0:0:0:
324,204,32526,1,2,0:0:0:0:
324,204,33003,1,8,0:0:0:0:
216,84,33479,6,0,P|164:76|116:100,2,80,0|0|8,0:0|0:0|0:0,0:0:0:0:
176,152,34193,1,0,0:0:0:0:
96,152,34431,2,0,P|80:236|100:312,1,160,0|8,0:0|0:0,0:0:0:0:
160,360,35145,1,0,0:0:0:0:
216,304,35384,5,0,0:0:0:0:
296,304,35622,1,0,0:0:0:0:
352,360,35860,1,8,0:0:0:0:
352,360,36098,1,0,0:0:0:0:
414,307,36336,2,0,P|432:236|416:152,1,160,0|8,0:0|0:0,0:0:0:0:
308,32,37288,5,0,0:0:0:0:
256,92,37526,1,0,0:0:0:0:
204,32,37764,1,8,0:0:0:0:
256,92,38003,1,0,0:0:0:0:
324,136,38241,2,0,B|296:180|212:180|180:132,1,160,0|8,0:0|0:0,0:0:0:0:
116,96,38955,5,0,0:0:0:0:
64,156,39193,2,0,P|16:176|-24:168,2,80,0|0|8,0:0|0:0|0:0,0:0:0:0:
132,200,39907,1,0,0:0:0:0:
132,200,40145,2,0,P|132:280|172:352,1,160,0|8,0:0|0:0,0:0:0:0:
328,360,41098,6,0,P|376:364|432:336,1,80,2|0,0:0|0:0,0:0:0:0:
364,288,41574,2,0,P|376:248|352:188,1,80,8|0,0:0|0:0,0:0:0:0:
428,156,42050,2,0,P|364:128|292:140,1,120,2|0,0:0|0:0,0:0:0:0:
280,148,42526,2,0,P|232:148|192:128,1,80,8|0,0:0|0:0,0:0:0:0:
204,56,43003,5,2,0:0:0:0:
132,92,43241,1,0,0:0:0:0:
132,92,43360,1,0,0:0:0:0:
132,92,43479,1,8,0:0:0:0:
132,172,43717,1,0,0:0:0:0:
196,220,43955,2,8,P|192:292|120:348,1,160,2|8,0:0|0:0,0:0:0:0:
288,332,44907,5,2,0:0:0:0:
288,332,45145,2,0,P|292:260|364:204,1,160,0|0,0:0|0:0,0:0:0:0:
416,156,45860,2,0,P|432:200|428:236,2,80,2|0|8,0:0|0:0|0:0,0:0:0:0:
340,128,46574,1,0,0:0:0:0:
272,168,46812,6,0,P|232:184|168:172,1,80,2|0,0:0|0:0,0:0:0:0:
156,180,47169,1,0,0:0:0:0:
120,160,47288,2,0,P|84:152|24:168,1,80,8|0,0:0|0:0,0:0:0:0:
84,228,47765,2,0,P|116:316|176:352,1,160,2|8,0:0|0:0,0:0:0:0:
360,324,48717,6,0,L|440:288,1,80,6|0,0:0|0:0,0:0:0:0:
356,236,49193,2,0,L|428:148,1,80,8|0,0:0|0:0,0:0:0:0:
504,172,49669,1,2,0:0:0:0:
504,172,49907,1,0,0:0:0:0:
452,92,50145,1,8,0:0:0:0:
452,92,50384,1,0,0:0:0:0:
372,96,50622,6,0,P|328:136|260:144,1,120,2|0,0:0|0:0,0:0:0:0:
269,145,51098,1,8,0:0:0:0:
269,145,51336,1,0,0:0:0:0:
208,68,51574,2,0,P|144:104|96:112,1,120,2|0,0:0|0:0,0:0:0:0:
52,108,52050,2,0,P|28:136|24:184,1,80,8|0,0:0|0:0,0:0:0:0:
56,268,52526,5,2,0:0:0:0:
128,332,52765,1,0,0:0:0:0:
128,332,52884,1,0,0:0:0:0:
128,332,53003,1,8,0:0:0:0:
196,264,53241,1,0,0:0:0:0:
124,200,53479,2,0,P|188:180|264:200,1,120,2|0,0:0|0:0,0:0:0:0:
284,208,53955,2,0,P|332:220|384:208,1,80,8|0,0:0|0:0,0:0:0:0:
428,264,54431,5,2,0:0:0:0:
465,140,54669,1,0,0:0:0:0:
362,218,54907,1,8,0:0:0:0:
491,215,55145,1,0,0:0:0:0:
385,141,55384,1,2,0:0:0:0:
428,200,55622,5,0,0:0:0:0:
428,200,55741,1,0,0:0:0:0:
428,200,55860,1,4,0:0:0:0:
