osu file format v9

[General]
AudioFilename: Todokanai Koi.mp3
AudioLeadIn: 0
PreviewTime: 68165
Countdown: 0
SampleSet: Soft
StackLeniency: 0.7
Mode: 0
LetterboxInBreaks: 1

[Editor]
DistanceSpacing: 1.3
BeatDivisor: 4
GridSize: 8

[Metadata]
Title:Todokanai Koi
Artist:Uehara Rena
Creator:mjw5150
Version:Hard
Source:WHITE ALBUM 2 ~introductory chapter~
Tags:AQUAPLUS Leaf

[Difficulty]
HPDrainRate:5
CircleSize:4
OverallDifficulty:6
ApproachRate:7
SliderMultiplier:1.2
SliderTickRate:1

[Events]
//Background and Video events
0,0,"2234.jpg"
//Break Periods
2,102143,116154
2,199476,217043
//Storyboard Layer 0 (Background)
//Storyboard Layer 1 (Fail)
//Storyboard Layer 2 (Pass)
//Storyboard Layer 3 (Foreground)
//Storyboard Sound Samples
//Background Colour Transformations
3,100,163,162,255

[TimingPoints]
7721,444.444444444444,4,2,1,60,1,0
25054,-100,4,2,1,40,0,0
25498,-100,4,2,1,60,0,0
39720,-100,4,2,1,50,0,0
39832,-100,4,2,1,60,0,0
57498,-100,4,2,1,50,0,0
57609,-100,4,2,1,60,0,0
61054,-100,4,2,1,50,0,0
61165,-100,4,2,1,60,0,0
68165,-100,4,2,1,60,0,1
78832,-100,4,2,1,50,0,1
78943,-100,4,2,1,60,0,1
79498,-100,4,2,1,50,0,1
79609,-100,4,2,1,60,0,1
80609,-100,4,2,1,50,0,1
80720,-100,4,2,1,60,0,1
81276,-100,4,2,1,50,0,1
81387,-100,4,2,1,60,0,1
93054,-100,4,2,1,50,0,1
93165,-100,4,2,1,60,0,1
93720,-100,4,2,1,50,0,1
93832,-100,4,2,1,60,0,1
94832,-100,4,2,1,50,0,1
94943,-100,4,2,1,60,0,1
95498,-100,4,2,1,50,0,1
95609,-100,4,2,1,60,0,1
96609,-100,4,2,1,50,0,1
96720,-100,4,2,1,60,0,1
101943,-100,4,2,1,60,0,0
117498,-100,4,2,1,40,0,0
117943,-100,4,2,1,60,0,0
132165,-100,4,2,1,50,0,0
132276,-100,4,2,1,60,0,0
149943,-100,4,2,1,50,0,0
150054,-100,4,2,1,60,0,0
153498,-100,4,2,1,50,0,0
153609,-100,4,2,1,60,0,0
160610,-100,4,2,1,60,0,1
171276,-100,4,2,1,50,0,1
171387,-100,4,2,1,60,0,1
171943,-100,4,2,1,50,0,1
172054,-100,4,2,1,60,0,1
173054,-100,4,2,1,50,0,1
173165,-100,4,2,1,60,0,1
173720,-100,4,2,1,50,0,1
173832,-100,4,2,1,60,0,1
185498,-100,4,2,1,50,0,1
185609,-100,4,2,1,60,0,1
186165,-100,4,2,1,50,0,1
186276,-100,4,2,1,60,0,1
187276,-100,4,2,1,50,0,1
187387,-100,4,2,1,60,0,1
187943,-100,4,2,1,50,0,1
188054,-100,4,2,1,60,0,1
189054,-100,4,2,1,50,0,1
189165,-100,4,2,1,60,0,1
192387,-100,4,2,1,60,0,0
192609,-100,4,2,1,50,0,0
192720,-100,4,2,1,60,0,0
193943,-100,4,2,1,50,0,0
194054,-100,4,2,1,60,0,0
196165,-100,4,2,1,50,0,0
196276,-100,4,2,1,60,0,0
197498,-100,4,2,1,50,0,0
197609,-100,4,2,1,60,0,0
221054,-100,4,2,1,50,0,0
221165,-100,4,2,1,60,0,0
224609,-100,4,2,1,50,0,0
224720,-100,4,2,1,60,0,0
231721,-200,4,2,1,60,0,0
233943,-200,4,2,1,0,0,0
234054,-200,4,2,1,60,0,0
235721,-200,4,2,1,0,0,0
235832,-200,4,2,1,60,0,0
239943,-200,4,2,1,0,0,0
240054,-200,4,2,1,60,0,0
241054,-200,4,2,1,0,0,0
241165,-200,4,2,1,60,0,0
241498,-100,4,2,1,60,0,0
242387,-100,4,2,1,50,0,0
242498,-100,4,2,1,60,0,0
243054,-100,4,2,1,50,0,0
243165,-100,4,2,1,60,0,0
244165,-100,4,2,1,50,0,0
244276,-100,4,2,1,60,0,0
244832,-100,4,2,1,50,0,0
244943,-100,4,2,1,60,0,0
245943,-100,4,2,1,60,0,1
256609,-100,4,2,1,50,0,1
256720,-100,4,2,1,60,0,1
257276,-100,4,2,1,50,0,1
257387,-100,4,2,1,60,0,1
258387,-100,4,2,1,50,0,1
258498,-100,4,2,1,60,0,1
259054,-100,4,2,1,50,0,1
259165,-100,4,2,1,60,0,1
260165,-100,4,2,1,50,0,1
260276,-100,4,2,1,60,0,1
265498,-100,4,2,1,60,0,0

[Colours]
Combo1 : 240,80,80
Combo2 : 171,252,203
Combo3 : 175,221,254
Combo4 : 249,254,186

[HitObjects]
192,256,24610,1,0
328,328,25054,1,4
256,192,25498,2,0,B|328:176|376:232,1,120,0|8
296,88,26387,1,0
360,128,26610,1,0
432,152,26832,1,8
344,280,27276,2,0,B|464:280,2,120,0|8|0
216,192,28610,5,8
256,256,28832,1,0
216,320,29054,2,0,B|88:320,1,120,0|8
120,248,29721,2,0,B|64:216|32:160,1,120
96,120,30387,1,8
136,56,30610,1,0
176,120,30832,2,0,B|184:176|240:224,1,120,0|8
384,184,31721,5,0
256,272,32165,1,8
128,184,32610,2,0,B|128:304,2,120,0|8|0
128,184,33721,1,0
128,184,33943,1,8
256,96,34387,2,0,B|320:72|368:136,1,120,0|8
248,232,35276,1,0
392,296,35721,5,8
416,224,35943,1,0
440,152,36165,2,0,B|440:32,2,120,0|8|0
360,152,37276,1,0
280,152,37498,2,0,B|248:208,1,60,8|0
208,272,37943,2,0,B|144:312|96:272,1,120,0|8
48,128,38832,5,0
120,168,39054,1,8
120,88,39276,1,8
184,48,39498,1,0
240,104,39721,2,0,B|304:64|352:104,1,120,4|8
488,192,40610,1,0
408,192,40832,1,0
328,192,41054,1,8
440,88,41498,2,0,B|392:40|328:32,1,120,0|8
256,168,42387,1,0
328,304,42832,5,8
256,344,43054,1,0
208,280,43276,2,0,B|128:176,1,120,0|8
200,144,43943,2,0,B|72:120,1,120
24,176,44610,1,8
82,121,44832,1,0
136,64,45054,2,0,B|200:40|256:80,1,120,0|8
408,160,45943,6,0,B|344:184|288:144,1,120,0|8
168,248,46832,2,0,B|216:184|152:128,1,120,0|8
16,192,47721,1,0
96,192,47943,1,0
176,192,48165,1,8
336,192,48610,2,0,B|416:296,2,120,0|8|0
256,56,49943,5,8
256,136,50165,1,0
256,216,50387,2,0,B|168:304,1,120,0|8
64,192,51276,5,0
104,128,51498,1,0
168,88,51721,1,8
240,72,51943,1,0
232,152,52165,2,0,B|152:160|136:224,1,120,0|8
280,280,53054,5,0
352,264,53276,1,0
376,192,53498,2,0,B|424:144,2,60,8|0|4
256,96,54387,6,0,B|184:96|136:120,1,120
56,248,55276,1,2
184,336,55721,2,0,B|256:336|304:312,1,120
336,248,56387,2,0,B|384:264|440:320,1,120
480,256,57054,1,2
344,336,57498,1,4
256,208,57943,5,0
256,56,58387,2,0,B|256:176,1,120,0|2
104,224,59276,2,0,B|184:120,1,120
256,128,59943,1,0
336,128,60165,2,0,B|408:224,2,120,0|2|4
256,264,61498,5,0
256,184,61721,1,0
384,264,62165,1,0
320,224,62387,1,2
168,184,62832,6,0,B|96:160|96:80,1,120,0|2
176,104,63498,2,0,B|240:88|288:152,1,120
281,144,64165,1,0
256,192,64610,12,8,67721
344,192,68165,6,0,B|408:296,1,120,0|8
336,320,68832,2,0,B|208:288,1,120,0|0
144,272,69498,1,8
256,168,69943,2,0,B|192:200|136:168,1,120,0|8
144,96,70610,2,0,B|88:112|48:176,1,120
32,240,71276,5,8
176,288,71721,2,0,B|104:296|64:352,2,120,0|8|0
256,152,73054,5,8
320,200,73276,1,0
288,272,73498,2,0,B|336:312,1,60
416,312,73943,2,0,B|464:272,1,60,8|0
464,192,74387,2,0,B|416:136|352:136,1,120,0|8
288,152,75054,5,0
248,88,75276,2,0,B|128:64,1,120,0|8
160,136,75943,2,0,B|64:208,1,120
40,280,76610,1,8
184,336,77054,6,0,B|136:272|184:224,1,120,0|8
256,256,77721,2,0,B|312:224|376:256,1,120
432,304,78387,1,8
352,168,78832,6,0,B|304:128|224:120,1,120,4|8
168,128,79498,1,4
216,192,79721,2,0,B|72:224,1,120,0|8
48,272,80387,1,0
88,336,80610,1,4
224,352,81054,1,8
280,304,81276,6,0,B|312:184,1,120,4|8
328,112,81943,1,0
272,64,82165,1,0
248,136,82387,6,0,B|184:152|152:208,1,120,0|8
232,224,83054,2,0,B|264:280|336:304,1,120
392,328,83721,1,8
464,192,84165,2,0,B|400:184|360:136,1,120,0|8
304,88,84832,2,0,B|256:48|192:40,1,120
120,48,85498,1,8
72,192,85943,6,0,B|120:144|184:192,1,120,0|8
256,328,86832,1,0
184,296,87054,1,0
256,256,87276,6,0,B|336:256,1,60,8|0
368,192,87721,1,0
320,128,87943,1,0
240,128,88165,1,8
320,128,88387,2,0,B|344:72|416:56,1,120
411,57,89054,1,8
432,208,89498,6,0,B|416:272|336:304,1,120,0|8
336,224,90165,2,0,B|272:256|256:320,1,120
192,352,90832,1,8
128,312,91054,2,0,B|114:256|50:224,1,120
104,168,91721,1,8
168,216,91943,2,0,B|216:256|280:216,1,120
328,160,92610,1,8
224,48,93054,6,0,B|96:104,1,120,4|8
114,96,93721,2,0,B|64:208,1,120,4|0
65,205,94387,1,8
176,312,94832,6,0,B|304:256,1,120,4|8
286,264,95499,2,0,B|336:152,1,120,4|0
335,155,96165,1,8
184,176,96610,1,4
256,40,97054,1,8
328,64,97276,6,0,B|392:80|432:136,1,120
456,200,97943,1,8
376,200,98165,1,0
296,200,98387,2,0,B|312:264|368:304,1,120,0|8
208,304,99276,5,0
136,280,99498,1,0
104,208,99721,1,8
136,136,99943,1,0
256,192,100165,12,0,101943
256,104,117054,6,0,B|176:208,1,120,0|4
320,280,117943,2,0,B|392:184,1,120,0|8
432,120,118610,1,0
376,72,118832,2,0,B|312:40,1,60
322,45,119276,1,8
256,184,119721,6,0,B|232:128|168:88,1,120,0|8
178,94,120387,1,0
104,96,120610,1,0
104,96,120721,1,0
104,96,120832,1,0
64,160,121054,5,8
136,192,121276,1,0
136,272,121498,2,0,B|248:328,1,120,0|8
304,280,122165,2,0,B|272:152,1,120
256,88,122832,1,8
328,112,123054,1,0
392,160,123276,2,0,B|448:192|464:272,1,120,0|8
312,304,124165,5,0
312,304,124276,1,0
312,304,124387,1,0
256,256,124610,2,0,B|304:200,1,60,8|0
368,200,125054,2,0,B|344:128|264:144,1,120,0|8
224,88,125721,1,0
200,160,125943,2,0,B|128:160,2,60,0|0|8
136,304,126832,6,0,B|256:304,1,120,0|8
336,304,127498,1,0
392,248,127721,1,0
408,224,127832,1,0
424,200,127943,1,0
376,136,128165,6,0,B|312:136,1,60,8|0
272,72,128610,2,0,B|160:112,1,120,0|8
192,184,129276,1,0
232,248,129498,1,0
160,272,129721,5,0
120,208,129943,1,8
80,144,130165,2,0,B|112:88|176:64,1,120
240,48,130832,1,8
256,200,131276,5,0
288,128,131498,1,8
344,184,131721,1,8
352,216,131832,1,8
344,248,131943,1,8
352,280,132054,1,8
344,312,132165,2,0,B|280:288|224:312,1,120,4|8
168,264,132832,1,0
104,224,133054,5,0
104,224,133276,2,0,B|64:280,1,60,0|8
104,120,133943,1,0
248,168,134387,2,0,B|312:184|344:256,1,120,8|0
337,242,134943,1,0
337,242,135054,1,0
392,192,135276,5,8
432,128,135498,1,0
456,56,135721,2,0,B|336:56,1,120,0|8
320,128,136387,1,0
256,168,136610,1,0
192,128,136832,1,0
136,176,137054,2,0,B|88:128,1,60,8|0
96,56,137498,2,0,B|152:24|224:56,1,120,0|8
272,192,138387,5,0
288,216,138498,1,0
272,240,138610,1,0
200,224,138832,1,8
152,280,139054,1,0
200,336,139276,2,0,B|264:352|328:304,1,120,0|8
384,280,139943,1,0
448,240,140165,5,0
472,168,140388,1,0
392,168,140610,1,8
240,168,141054,1,0
104,248,141498,2,0,B|96:192|136:136,1,120,8|0
136,135,142054,1,0
136,135,142165,1,0
184,72,142387,5,8
264,72,142610,1,0
224,136,142832,2,0,B|296:232,1,120,0|8
296,232,143498,1,0
448,192,143943,5,0
408,128,144165,1,8
368,64,144387,2,0,B|248:64,1,120
200,128,145054,2,0,B|80:176,1,120,8|0
88,172,145610,1,0
88,172,145721,1,0
88,248,145943,1,8
160,280,146165,2,0,B|176:208,1,60,0|4
328,192,146832,6,0,B|384:80,1,120
496,192,147721,1,2
328,192,148165,2,0,B|384:304,1,120
320,344,148832,1,0
248,312,149054,1,0
248,232,149276,1,0
176,200,149498,2,0,B|280:120,1,120,2|4
120,88,150387,5,0
272,128,150832,2,0,B|336:8,1,120,0|2
272,128,151721,2,0,B|376:208,1,120
424,248,152387,1,0
368,304,152610,2,0,B|304:336|248:304,1,120,0|2
96,288,153498,1,4
120,136,153943,5,0
168,200,154165,2,0,B|216:88,1,120
256,24,154832,1,2
344,152,155276,2,0,B|464:152,2,120,0|0|2
256,280,156610,1,0
104,280,157054,6,0,B|120:216|160:176,1,120,0|0
224,136,157721,1,0
304,144,157943,1,2
360,200,158165,1,0
336,272,158387,1,2
264,304,158610,1,0
248,224,158832,2,0,B|128:224,2,120
248,224,159943,1,0
248,224,160165,1,8
256,64,160610,6,0,B|320:72|368:136,1,120,0|8
400,184,161276,1,0
360,248,161498,2,0,B|322:298|258:306,1,120,0|8
152,192,162387,2,0,B|280:192,1,120,0|8
352,192,163054,1,0
432,192,163276,1,0
480,128,163498,1,0
400,128,163721,5,8
352,272,164165,2,0,B|416:384,2,120,0|8|0
272,272,165276,1,0
256,200,165498,5,8
200,144,165721,1,0
128,128,165943,1,0
64,176,166165,1,0
80,248,166387,1,8
136,304,166610,1,0
208,320,166832,1,0
208,320,166943,1,0
208,320,167054,1,0
208,320,167276,1,8
256,224,167498,5,0
304,168,167721,2,0,B|408:112,1,120,0|8
424,184,168387,2,0,B|464:248|416:312,1,120
368,248,169054,1,8
256,352,169498,6,0,B|192:352|144:312,1,120,0|8
96,256,170165,1,0
136,192,170387,1,0
72,152,170610,1,0
8,112,170832,1,8
144,40,171276,6,0,B|200:144,1,120,4|8
240,216,171943,1,4
312,184,172165,2,0,B|368:144|432:184,1,120,0|8
368,240,172832,1,0
424,296,173054,2,0,B|368:336|304:296,1,120,4|8
232,296,173721,6,0,B|192:240|232:176,1,120,4|8
280,128,174387,1,0
344,168,174610,1,0
424,184,174832,6,0,B|464:120|424:64,1,120,0|8
352,88,175498,2,0,B|312:32|240:32,1,120
176,40,176165,1,8
56,136,176610,2,0,B|80:192|136:240,1,120,0|8
176,176,177276,2,0,B|176:296,1,120
176,296,177943,1,8
304,208,178387,6,0,B|368:88,1,120,0|8
432,72,179054,1,0
480,128,179276,1,0
432,184,179498,1,0
384,240,179721,5,8
432,296,179943,1,0
384,240,180165,2,0,B|312:240,1,60
248,240,180610,1,8
192,192,180832,1,0
128,152,181054,1,0
144,128,181165,1,0
176,120,181276,1,0
256,120,181498,2,0,B|288:64|360:48,1,120,8|0
192,48,182387,1,8
128,88,182610,6,0,B|64:120|40:176,1,120
16,240,183276,1,8
88,264,183498,2,0,B|104:328|168:352,1,120
208,288,184165,1,8
288,288,184387,2,0,B|288:200|392:224|392:128,1,180,0|8
456,288,185498,1,4
320,208,185943,5,8
280,144,186165,2,0,B|152:144,1,120,4|0
160,144,186832,1,8
296,64,187276,5,4
432,144,187721,1,8
432,144,187943,2,0,B|432:264,1,120,4|0
368,312,188610,2,0,B|344:256|280:232,1,120,8|4
128,216,189498,1,8
128,136,189721,6,0,B|232:64,1,120
304,80,190387,1,8
304,160,190610,2,0,B|205:228,1,120
256,288,191276,1,8
328,312,191498,1,0
368,160,191943,5,0
320,96,192165,1,8
240,96,192387,1,0
192,160,192610,6,0,B|120:152|96:216,1,120,4|8
96,214,193276,2,0,B|136:264|200:272,1,120,0|8
198,271,193943,2,0,B|232:216|192:160,1,120,4|8
191,159,194610,1,0
191,159,194832,1,8
312,64,195276,2,0,B|408:144,1,120,0|8
256,192,196165,6,0,B|368:256,1,120,4|8
360,251,196832,2,0,B|256:312,1,120,0|8
256,312,197498,2,0,B|256:191,1,120,4|8
256,112,198165,1,0
176,120,198387,2,0,B|112:152,1,60,2|0
136,224,198832,2,0,B|168:288,2,60,2|0|0
200,136,217943,5,0
64,208,218387,2,0,B|144:312,1,120,0|2
256,200,219276,2,0,B|256:320,1,120
256,320,219943,1,0
352,200,220387,1,0
432,200,220610,2,0,B|432:72,1,120,2|4
288,128,221498,5,0
256,56,221721,1,0
184,88,221943,1,0
144,152,222165,1,0
216,176,222387,2,0,B|216:240,1,60,2|0
144,256,222832,2,0,B|168:320|232:336,1,120
256,264,223498,2,0,B|312:224|368:264,1,120
424,312,224165,1,2
352,176,224610,1,4
232,80,225054,5,0
152,80,225276,2,0,B|104:128,1,60
56,176,225721,1,0
128,200,225943,1,2
128,280,226165,1,0
128,280,226276,1,0
128,280,226387,2,0,B|176:328|240:336,1,120,0|2
272,272,227054,2,0,B|328:278|376:326,1,120,0|2
432,272,227721,1,0
304,192,228165,6,0,B|280:104,1,90
280,105,228610,1,2
232,48,228832,1,0
168,88,229054,2,0,B|168:152,1,60,2|0
112,200,229498,2,0,B|160:256,1,60,2|0
232,248,229943,5,0
240,280,230054,1,0
256,304,230165,1,0
272,328,230276,1,0
296,344,230387,1,0
320,328,230498,1,0
336,304,230609,1,0
352,280,230720,1,0
360,248,230831,1,0
296,200,231054,2,0,B|296:136,1,60,0|8
256,72,231721,6,0,B|192:80,1,60,0|2
160,88,232387,2,0,B|112:136,1,60
96,160,233054,1,2
136,224,233498,2,0,B|128:272|168:312,1,90
256,240,234832,5,2
320,280,235276,2,0,B|384:168,1,120
328,120,236610,5,2
304,96,236832,1,0
280,72,237054,2,0,B|208:72,2,60,0|2|0
256,184,238610,5,0
224,200,238832,2,0,B|176:152,1,60,0|2
152,136,239498,2,0,B|64:160,1,90,0|2
104,224,240610,2,0,B|104:320,1,90
168,352,241498,5,0
208,288,241721,1,0
208,288,241832,1,0
208,288,241943,2,0,B|328:288,1,120,8|4
408,288,242610,5,0
368,216,242832,2,0,B|416:176,1,60,8|4
360,128,243276,2,0,B|232:176,1,120,0|8
176,200,243943,1,0
128,144,244165,1,4
176,88,244387,1,0
176,88,244498,1,0
176,88,244610,1,8
128,32,244832,6,0,B|72:72|48:128,1,120,4|8
24,192,245498,1,0
40,216,245610,1,0
56,240,245721,1,0
72,264,245832,1,0
88,288,245943,6,0,B|216:344,1,120,0|8
256,288,246610,2,0,B|192:184,1,120
160,120,247276,1,8
296,192,247721,2,0,B|296:64,1,120,0|8
360,120,248387,1,0
424,160,248610,1,0
456,232,248832,1,0
392,280,249054,1,8
256,352,249498,6,0,B|208:296|264:232,1,120,0|8
320,200,250165,1,0
336,176,250276,1,0
320,152,250387,1,0
264,104,250610,1,0
184,104,250832,5,8
216,176,251054,1,0
144,200,251276,1,0
176,272,251498,1,0
176,272,251610,1,0
176,272,251721,1,8
104,296,251943,2,0,B|48:256|32:192,1,120
32,120,252610,2,0,B|45:64|101:24,1,120,8|0
192,152,253498,5,8
192,232,253721,2,0,B|208:288|272:328,1,120
336,344,254387,1,8
376,280,254610,1,0
376,200,254832,1,0
336,136,255054,1,0
336,136,255165,1,0
336,136,255276,1,8
280,192,255498,2,0,B|240:256|288:312,1,120
281,303,256165,1,8
176,192,256610,6,0,B|80:112,1,120,4|8
176,192,257276,2,0,B|80:272,1,120,4|0
176,192,257943,1,8
256,64,258387,6,0,B|288:184,1,120,4|8
352,136,259054,2,0,B|448:208,1,120,4|0
448,240,259610,1,0
448,272,259721,2,0,B|352:344,2,120,8|4|8
376,240,260832,6,0,B|320:208|256:240,1,120
192,272,261498,1,8
136,216,261721,1,0
120,144,261943,2,0,B|152:88,1,60
208,48,262387,1,8
256,104,262610,1,0
256,136,262721,1,0
256,168,262832,1,0
328,192,263054,5,0
376,256,263276,1,8
328,320,263498,1,0
256,192,263721,12,0,265498
