osu file format v9

[General]
AudioFilename: Todokanai Koi.mp3
AudioLeadIn: 0
PreviewTime: 68165
Countdown: 0
SampleSet: Soft
StackLeniency: 0.7
Mode: 0
LetterboxInBreaks: 1

[Editor]
DistanceSpacing: 1
BeatDivisor: 4
GridSize: 8

[Metadata]
Title:Todokanai Koi
Artist:Uehara Rena
Creator:mjw5150
Version:Easy
Source:WHITE ALBUM 2 ~introductory chapter~
Tags:AQUAPLUS Leaf

[Difficulty]
HPDrainRate:1
CircleSize:3
OverallDifficulty:1
ApproachRate:2
SliderMultiplier:0.9
SliderTickRate:1

[Events]
//Background and Video events
0,0,"1234.jpg"
//Break Periods
2,102143,115494
2,199476,216383
//Storyboard Layer 0 (Background)
//Storyboard Layer 1 (Fail)
//Storyboard Layer 2 (Pass)
//Storyboard Layer 3 (Foreground)
//Storyboard Sound Samples
//Background Colour Transformations
3,100,163,162,255

[TimingPoints]
7721,444.444444444444,4,2,2,60,1,0
25054,-100,4,2,2,40,0,0
25498,-100,4,2,2,60,0,0
39720,-100,4,2,2,50,0,0
39832,-100,4,2,2,60,0,0
54387,-100,4,2,1,60,0,0
57498,-100,4,2,1,50,0,0
57609,-100,4,2,1,60,0,0
61054,-100,4,2,1,50,0,0
61165,-100,4,2,1,60,0,0
68165,-100,4,2,2,60,0,1
78832,-100,4,2,2,50,0,1
78943,-100,4,2,2,60,0,1
80609,-100,4,2,2,50,0,1
80720,-100,4,2,2,60,0,1
81276,-100,4,2,2,50,0,1
81387,-100,4,2,2,60,0,1
93054,-100,4,2,2,50,0,1
93165,-100,4,2,2,60,0,1
94832,-100,4,2,2,50,0,1
94943,-100,4,2,2,60,0,1
96609,-100,4,2,2,50,0,1
96720,-100,4,2,2,60,0,1
97054,-100,4,2,1,60,0,1
101943,-100,4,2,2,60,0,0
117498,-100,4,2,2,40,0,0
117943,-100,4,2,2,60,0,0
132165,-100,4,2,2,50,0,0
132276,-100,4,2,2,60,0,0
144165,-100,4,2,1,60,0,0
146832,-100,4,2,1,60,0,0
149943,-100,4,2,1,50,0,0
150054,-100,4,2,1,60,0,0
153498,-100,4,2,1,50,0,0
153609,-100,4,2,1,60,0,0
160610,-100,4,2,2,60,0,1
171276,-100,4,2,2,50,0,1
171387,-100,4,2,2,60,0,1
173054,-100,4,2,2,50,0,1
173165,-100,4,2,2,60,0,1
173720,-100,4,2,2,50,0,1
173832,-100,4,2,2,60,0,1
185498,-100,4,2,2,50,0,1
185609,-100,4,2,2,60,0,1
186165,-100,4,2,1,50,0,1
186276,-100,4,2,1,60,0,1
187276,-100,4,2,1,50,0,1
187387,-100,4,2,1,60,0,1
187943,-100,4,2,1,50,0,1
188054,-100,4,2,1,60,0,1
189054,-100,4,2,1,50,0,1
189165,-100,4,2,1,60,0,1
192387,-100,4,2,2,60,0,0
192609,-100,4,2,2,50,0,0
192720,-100,4,2,2,60,0,0
196165,-100,4,2,2,50,0,0
196276,-100,4,2,2,60,0,0
197498,-100,4,2,1,60,0,0
221054,-100,4,2,1,50,0,0
221165,-100,4,2,1,60,0,0
224609,-100,4,2,1,50,0,0
224720,-100,4,2,1,60,0,0
242387,-100,4,2,1,50,0,0
242498,-100,4,2,1,60,0,0
244165,-100,4,2,1,50,0,0
244276,-100,4,2,1,60,0,0
244832,-100,4,2,1,50,0,0
244943,-100,4,2,1,60,0,0
245943,-100,4,2,2,60,0,1
256609,-100,4,2,2,50,0,1
256720,-100,4,2,2,60,0,1
257276,-100,4,2,1,50,0,1
257387,-100,4,2,1,60,0,1
258387,-100,4,2,1,50,0,1
258498,-100,4,2,1,60,0,1
259054,-100,4,2,1,50,0,1
259165,-100,4,2,1,60,0,1
260165,-100,4,2,1,50,0,1
260276,-100,4,2,1,60,0,1
265498,-100,4,2,1,60,0,0

[Colours]
Combo1 : 240,80,80
Combo2 : 171,252,203
Combo3 : 175,221,254
Combo4 : 249,254,186

[HitObjects]
128,192,24610,2,0,B|232:184,1,90,0|4
256,96,25498,2,0,B|368:128,1,90,0|8
432,144,26387,5,0
432,240,26832,1,8
352,288,27276,1,0
272,240,27721,1,8
352,192,28165,1,0
352,96,28610,5,8
256,96,29054,2,0,B|208:96|160:144,1,90,0|8
128,208,29943,1,0
80,128,30387,2,0,B|80:32,2,90,8|0|8
32,208,31721,5,0
80,288,32165,1,8
160,336,32610,2,0,B|208:320|240:272,1,90,0|8
256,192,33498,6,0,B|304:192|336:240,2,90,0|8|0
160,192,34832,1,8
208,112,35276,1,0
288,64,35721,5,8
368,112,36165,2,0,B|448:176|464:288,1,180
400,336,37498,1,8
336,272,37943,2,0,B|336:224|288:192,1,90,0|8
216,152,38832,6,0,B|168:152|144:216,1,90,0|8
64,176,39721,2,0,B|96:80|208:48,1,180,4|0
272,32,41054,1,8
272,128,41498,2,0,B|288:176|336:224,1,90,0|8
400,240,42387,1,0
448,160,42832,5,8
368,112,43276,2,0,B|352:64|288:48,1,90,0|8
240,112,44165,1,0
160,80,44610,2,0,B|64:80,2,90,8|0|8
160,168,45943,5,0
72,192,46387,1,8
112,272,46832,2,0,B|160:280|192:320,1,90,0|8
256,264,47721,5,0
208,192,48165,1,8
256,120,48610,2,0,B|256:24,2,90,0|8|0
344,120,49943,5,8
416,168,50387,2,0,B|408:272|312:320,1,180
240,336,51721,5,8
168,288,52165,2,0,B|80:256,1,90,0|8
80,168,53054,2,0,B|80:64,2,90,0|8|4
168,168,54387,6,0,B|200:80|320:56,1,180,0|2
376,112,55721,2,0,B|424:144|416:192,1,90
400,224,56387,2,0,B|376:272|320:288,1,90
296,296,57054,1,2
256,216,57498,1,4
168,216,57943,5,0
80,216,58387,2,0,B|80:120,1,90,0|2
136,56,59276,2,0,B|232:56|312:112,1,180
368,168,60610,1,2
456,192,61054,1,4
456,104,61498,6,0,B|400:56|320:40,1,135
296,56,62387,1,2
240,128,62832,2,0,B|272:224|192:312,1,180,0|2
128,344,64165,1,0
256,192,64610,12,8,67721
200,136,68165,6,0,B|144:208,1,90,0|8
88,272,69054,1,0
168,312,69498,1,8
256,312,69943,2,0,B|336:328|440:264,1,180
392,192,71276,5,8
432,112,71721,2,0,B|352:96|248:160,1,180
200,216,73054,5,8
120,256,73498,2,0,B|72:232|56:184,1,90,0|8
24,112,74387,1,0
112,112,74832,1,8
200,112,75276,6,0,B|280:40,1,90,0|8
352,72,76165,1,0
440,88,76610,1,8
408,168,77054,2,0,B|408:264,2,90,0|8|0
320,168,78387,1,8
280,248,78832,6,0,B|216:328|120:328,1,180,4|0
64,264,80165,2,0,B|96:216|48:168,1,90,8|4
112,112,81054,1,8
160,112,81276,2,0,B|216:168|200:248,1,135,4|0
256,304,82387,6,0,B|160:328,2,90,0|8|0
344,288,83721,1,8
328,200,84165,2,0,B|414:176,2,90,0|8|0
240,224,85498,1,8
152,224,85943,6,0,B|56:136|168:56,1,180
232,48,87276,1,8
232,136,87721,1,0
320,136,88165,1,8
408,136,88610,5,0
408,224,89054,2,0,B|352:304,1,90,8|0
264,296,89943,1,8
256,208,90387,6,0,B|160:176,1,90,0|8
160,272,91276,2,0,B|72:272,1,90,0|8
72,184,92165,1,0
72,96,92610,1,8
160,96,93054,6,0,B|272:96,1,90,4|8
288,176,93943,2,0,B|376:224,1,90,0|8
360,312,94832,2,0,B|248:312,1,90,4|8
232,232,95721,2,0,B|144:184,1,90,0|8
80,144,96610,1,4
136,72,97054,5,8
136,72,97276,2,0,B|208:64|272:128,1,135,0|8
288,200,98387,2,0,B|368:264,1,90,0|8
448,256,99276,1,0
448,168,99721,1,8
256,192,100165,12,0,101943
352,112,117054,5,0
264,136,117498,1,4
184,168,117943,2,0,B|144:256,1,90,0|8
56,256,118832,6,0,B|56:352,2,90,0|8|0
56,168,120165,1,8
144,168,120610,1,0
208,104,121054,5,8
296,128,121498,2,0,B|352:120|392:168,1,90,0|8
432,224,122387,1,0
368,280,122832,1,8
288,248,123276,2,0,B|272:296|216:320,1,90,0|8
192,232,124165,5,0
224,152,124610,1,8
312,128,125054,5,0
312,40,125498,2,0,B|216:40,1,90,8|0
176,40,126165,1,0
136,56,126387,2,0,B|80:72|56:120,1,90,8|0
96,192,127276,2,0,B|96:288,1,90,8|0
160,344,128165,5,8
240,304,128610,2,0,B|328:216|232:144,1,180
280,72,129943,1,8
352,120,130387,2,0,B|408:144|424:216,1,90,0|8
392,272,131276,5,0
352,272,131498,1,0
312,272,131721,1,8
224,272,132165,2,0,B|120:272,1,90,4|8
88,192,133054,6,0,B|0:136,1,90,0|8
72,80,133943,1,0
160,80,134387,1,8
248,80,134832,1,0
192,152,135276,5,8
192,240,135721,2,0,B|216:288|272:304,1,90,0|8
344,296,136610,2,0,B|385:285|409:237,2,90,0|8|0
296,216,137943,1,8
360,152,138387,5,0
296,88,138832,1,8
208,104,139276,2,0,B|152:128|128:160,1,90,0|8
104,184,139943,1,0
72,216,140165,2,0,B|72:320,1,90,0|8
160,304,141054,5,0
248,304,141498,1,8
296,232,141943,1,0
344,304,142387,5,8
392,232,142832,2,0,B|376:128|296:72,1,180
224,40,144165,2,0,B|120:40|40:96,1,180,8|8
16,168,145498,6,0,B|32:216|80:248,1,90,0|8
144,280,146387,1,4
232,280,146832,6,0,B|240:328|296:336,1,90
384,336,147721,1,2
384,248,148165,2,0,B|312:160|392:64,1,180
296,40,149498,2,0,B|280:88|240:112,1,90,2|4
160,144,150387,5,0
104,80,150832,2,0,B|48:104|56:168,1,90,0|2
56,240,151721,2,0,B|56:344,2,90
144,240,153054,1,2
144,152,153498,1,4
232,152,153943,6,0,B|224:104|288:64,2,90,0|0|2
232,232,155276,2,0,B|224:280|288:320,2,90,0|0|2
312,192,156610,1,0
256,192,157054,12,8,160165
208,152,160610,5,0
208,240,161054,2,0,B|120:296,2,90,8|0|8
288,192,162387,1,0
360,144,162832,2,0,B|435:95,1,90,8|0
480,168,163721,5,8
432,240,164165,2,0,B|392:320|288:344,1,180
200,344,165498,1,8
232,264,165943,2,0,B|264:224|336:232,2,90,0|8|0
144,264,167276,1,8
136,176,167721,6,0,B|96:136|48:144,1,90,0|8
80,56,168610,1,0
168,56,169054,1,8
224,120,169498,2,0,B|320:136,1,90,0|8
400,152,170387,2,0,B|416:264,1,90,0|8
336,288,171276,6,0,B|304:240|240:208|184:200,1,180,4|0
96,224,172610,1,8
144,296,173054,2,0,B|168:328|232:344,1,90,4|8
264,328,173721,2,0,B|280:256|360:224,1,135,4|0
432,200,174832,6,0,B|408:160|336:144,1,90,0|8
272,152,175721,1,0
272,64,176165,1,8
184,64,176610,1,0
96,64,177054,1,8
96,152,177498,6,0,B|192:152,1,90,0|8
152,232,178387,2,0,B|160:328|288:360,1,180
336,296,179721,5,8
304,216,180165,1,0
272,136,180610,1,8
240,56,181054,6,0,B|336:56,1,90,0|8
424,56,181943,1,0
424,144,182387,1,8
424,232,182832,6,0,B|320:232,1,90,0|8
312,144,183721,2,0,B|216:144,1,90,0|8
184,64,184610,2,0,B|78:87,1,90,0|8
48,160,185498,6,0,B|48:208|88:240,1,90,4|8
120,264,186165,2,0,B|168:320|264:320,1,135,4|8
320,288,187276,6,0,B|320:240|280:208,1,90,4|8
248,184,187943,2,0,B|200:128|104:128,1,135,4|8
176,56,189054,2,0,B|264:56,1,90,4|8
344,104,189943,6,0,B|440:48,2,90,0|8|0
416,152,191276,2,0,B|440:248,2,90,8|0|8
344,208,192610,6,0,B|280:280,1,90,4|8
256,304,193276,2,0,B|120:304,1,135
48,192,194610,5,0
48,192,194832,1,8
112,128,195276,2,0,B|136:88|184:72,1,90,0|8
248,128,196165,6,0,B|200:168|192:208,1,90,4|8
192,240,196832,1,0
320,272,197498,6,0,B|384:240|424:168,1,135
416,136,198387,1,2
344,88,198832,1,2
256,88,199276,1,0
256,288,217943,6,0,B|304:272|336:224,1,90
384,168,218832,1,2
384,80,219276,2,0,B|480:80,2,90
296,80,220610,1,2
256,160,221054,1,4
216,80,221498,5,0
128,80,221943,2,0,B|40:80,1,90,0|2
40,168,222832,2,0,B|112:176|152:224|176:304,1,180
224,344,224165,1,2
256,264,224610,1,4
256,176,225054,6,0,B|176:168|120:120,1,135
104,96,225943,1,2
176,48,226387,2,0,B|224:40|272:88,1,90,0|0
296,96,227054,1,0
328,128,227276,2,0,B|360:176|368:232,1,90,2|0
256,192,228165,12,8,231276
184,136,231721,6,0,B|88:136,2,90
272,136,233054,1,2
280,224,233498,2,0,B|176:240|112:304,1,180
72,224,234832,5,2
128,160,235276,2,0,B|168:80|296:88,1,180
368,88,236610,5,2
440,144,237054,1,0
432,232,237498,2,0,B|352:296,1,90,2|0
272,184,238610,5,0
272,184,238832,2,0,B|176:104|96:208,1,180,2|0
48,248,240165,1,2
112,304,240610,1,0
248,304,241276,2,0,B|296:232|240:168,1,135,0|8
184,240,242387,6,0,B|88:160|192:88,1,180,4|0
272,88,243721,1,8
280,176,244165,2,0,B|344:248,1,90,4|8
384,240,244832,6,0,B|432:104,1,135,4|0
360,56,245943,6,0,B|312:64|264:96,1,90,0|8
200,136,246832,1,0
224,224,247276,1,8
248,312,247721,2,0,B|344:312,2,90,0|8|0
160,312,249054,1,8
112,240,249498,6,0,B|16:192|16:88,1,180
104,96,250832,2,0,B|112:144|176:176,1,90,8|0
200,168,251498,1,0
248,168,251721,2,0,B|292:146|300:98,2,90,8|0|8
248,256,253054,1,0
336,256,253498,5,8
400,192,253943,2,0,B|360:96,1,90,0|8
312,40,254832,1,0
224,40,255276,1,8
160,104,255721,2,0,B|125:187,1,90,0|8
216,184,256610,6,0,B|272:256,1,90,4|8
272,296,257276,2,0,B|208:328|120:312,1,135,4|8
80,248,258387,6,0,B|24:176,1,90,4|8
24,136,259053,2,0,B|88:104|176:120,1,135,4|8
240,144,260165,1,4
320,112,260610,1,8
320,200,261054,6,0,B|256:280,1,90,0|8
208,336,261943,1,0
152,264,262387,1,8
200,192,262832,1,0
152,120,263276,1,8
256,192,263721,12,0,265498
