osu file format v14

[General]
AudioFilename: opto.mp3
AudioLeadIn: 0
PreviewTime: 58307
Countdown: 0
SampleSet: None
StackLeniency: 0.7
Mode: 0
LetterboxInBreaks: 0
WidescreenStoryboard: 1

[Editor]
Bookmarks: 1098,12260,23423,45749,59702,87609,93191,104353,126679,140632,168539,190865,204818,215981,232725,260632,271795
DistanceSpacing: 1.5
BeatDivisor: 4
GridSize: 16
TimelineZoom: 1.7

[Metadata]
Title:Answer
TitleUnicode:Answer
Artist:Uehara Rena
ArtistUnicode:上原れな
Creator:Shad0w1and
Version:Shinjitsu
Source:WHITE ALBUM2 幸せの向こう側
Tags:Leaf AQUAPLUS JQKing TT Mouse Lyric
BeatmapID:927939
BeatmapSetID:430141

[Difficulty]
HPDrainRate:5
CircleSize:3.5
OverallDifficulty:8.2
ApproachRate:8.8
SliderMultiplier:3.1
SliderTickRate:1

[Events]
//Background and Video events
0,0,"BG1.png",0,0
Video,0,"opto.flv"
//Break Periods
//Storyboard Layer 0 (Background)
//Storyboard Layer 1 (Fail)
//Storyboard Layer 2 (Pass)
//Storyboard Layer 3 (Foreground)
//Storyboard Sound Samples

[TimingPoints]
1098,697.674418604651,4,3,1,40,1,0
1098,-133.333333333333,4,3,1,40,0,0
9470,-166.666666666667,4,3,1,40,0,0
12260,-111.111111111111,4,2,1,70,0,0
20632,-133.333333333333,4,2,1,70,0,0
23423,-133.333333333333,4,3,1,50,0,0
34586,-133.333333333333,4,2,1,60,0,0
45749,-117.647058823529,4,2,1,70,0,0
54121,-111.111111111111,4,2,1,80,0,0
59702,-90.9090909090909,4,2,1,90,0,1
84818,-100,4,2,1,90,0,0
86214,-111.111111111111,4,2,1,90,0,0
87609,-133.333333333333,4,3,1,30,0,0
93191,-111.111111111111,4,2,1,70,0,0
101563,-133.333333333333,4,2,1,70,0,0
104353,-133.333333333333,4,2,1,60,0,0
126679,-117.647058823529,4,2,1,70,0,0
135051,-111.111111111111,4,2,1,80,0,0
140632,-90.9090909090909,4,2,1,90,0,1
165749,-100,4,2,1,90,0,0
168539,-90.9090909090909,4,2,1,90,0,1
189470,-111.111111111111,4,2,1,90,0,0
190865,-117.647058823529,4,2,1,70,0,0
199237,-111.111111111111,4,2,1,80,0,0
204818,-133.333333333333,4,3,1,50,0,0
213191,-111.111111111111,4,2,1,60,0,0
214586,-111.111111111111,4,2,1,80,0,0
215981,-90.9090909090909,4,2,1,90,0,1
229935,-90.9090909090909,4,2,1,90,0,0
231330,-90.9090909090909,4,2,1,95,0,0
232725,-86.9565217391304,4,2,1,100,0,1
257842,-100,4,2,1,90,0,0
257929,-100,4,2,1,50,0,0
258888,-100,4,2,1,80,0,0
260632,-133.333333333333,4,2,1,40,0,0
269004,-133.333333333333,4,2,1,50,0,0
271795,-111.111111111111,4,2,1,70,0,0
281214,-133.333333333333,4,2,1,70,0,0
283395,697.674418604651,4,2,1,35,1,0
284790,-100,4,2,1,30,0,0
286185,-100,4,2,1,25,0,0
287581,-100,4,2,1,20,0,0
288976,-100,4,2,1,15,0,0
290371,-100,4,2,1,10,0,0
291767,-100,4,2,1,5,0,0

[Colours]
Combo1 : 255,247,83
Combo2 : 86,252,198
Combo3 : 113,176,255
Combo4 : 245,92,116

[HitObjects]
237,55,1098,6,0,P|242:116|247:179,1,116.250004434586,2|0,0:0|0:0,0:0:0:0:
258,286,1621,1,0,0:0:0:0:
139,85,1970,1,0,0:0:0:0:
281,70,2144,1,0,0:0:0:0:
260,313,2493,6,0,B|203:332|148:292|148:292|96:307|96:307|128:371,1,232.500008869171,4|0,0:1|0:0,0:0:0:0:
246,170,3539,1,0,0:0:0:0:
104,184,3714,1,0,0:0:0:0:
260,313,3888,6,0,L|391:301,1,116.250004434586,2|0,0:0|0:0,0:0:0:0:
471,206,4411,1,0,0:0:0:0:
188,45,4760,1,0,0:0:0:0:
324,73,4935,1,0,0:0:0:0:
169,199,5284,6,0,L|52:193,1,116.250004434586,4|0,0:1|0:0,0:0:0:0:
258,64,5981,1,0,0:0:0:0:
261,310,6330,1,0,0:0:0:0:
395,141,6679,6,0,P|455:136|532:137,1,116.250004434586,2|0,0:0|0:0,0:0:0:0:
511,135,7202,1,0,0:0:0:0:
257,374,7725,1,0,0:0:0:0:
283,16,8074,5,4,0:1:0:0:
512,54,8423,1,0,0:0:0:0:
207,138,8772,1,0,0:0:0:0:
480,188,9121,1,0,0:0:0:0:
201,276,9470,6,0,B|216:223|196:171|196:171|207:136|207:136|201:55,1,185.999994323731,6|4,0:0|0:1,0:0:0:0:
41,12,10516,2,0,B|46:70|46:70|36:105,1,92.9999971618653,8|0,0:1|0:0,0:0:0:0:
65,237,11214,1,4,0:1:0:0:
198,172,11563,2,0,B|258:162|258:162|320:169,1,92.9999971618653,8|0,0:1|0:0,0:0:0:0:
192,311,12260,6,0,L|199:144,1,139.499995742798,6|0,0:0|0:0,0:0:0:0:
207,31,12784,1,0,0:0:0:0:
84,97,12958,2,0,L|-25:74,1,69.749997871399,8|0,0:1|0:0,0:0:0:0:
110,239,13307,1,0,0:0:0:0:
336,76,13656,6,0,L|320:-14,2,69.749997871399,4|0|0,0:0|0:0|0:0,0:0:0:0:
382,351,14353,1,8,0:1:0:0:
382,351,14702,1,0,0:0:0:0:
254,293,14877,1,0,0:0:0:0:
365,183,15051,6,0,P|422:178|505:175,1,139.499995742798,6|0,0:0|0:0,0:0:0:0:
384,304,15574,1,0,0:0:0:0:
256,140,15749,2,0,L|259:52,1,69.749997871399,8|0,0:1|0:0,0:0:0:0:
254,293,16097,1,0,0:0:0:0:
254,293,16446,6,0,L|154:297,1,69.749997871399,4|0,0:0|0:0,0:0:0:0:
44,304,16795,1,0,0:0:0:0:
231,97,17144,1,8,0:1:0:0:
249,384,17493,1,0,0:0:0:0:
22,84,17842,6,0,P|87:75|182:73,1,139.499995742798,6|0,0:0|0:0,0:0:0:0:
268,160,18365,1,0,0:0:0:0:
121,314,18539,2,0,L|135:154,1,139.499995742798,8|0,0:1|0:0,0:0:0:0:
253,50,19063,1,0,0:0:0:0:
327,182,19237,6,0,L|417:183,1,69.749997871399,4|0,0:0|0:0,0:0:0:0:
340,38,19586,1,0,0:0:0:0:
208,284,19935,5,8,0:1:0:0:
341,324,20109,1,0,0:0:0:0:
356,184,20284,1,0,0:0:0:0:
222,144,20458,1,0,0:0:0:0:
341,324,20632,5,6,0:0:0:0:
341,324,20981,1,8,0:3:0:0:
443,64,21330,1,8,0:1:0:0:
443,64,21679,2,0,L|296:46,1,116.250004434586,4|0,0:0|0:0,0:0:0:0:
69,210,22377,1,0,0:0:0:0:
69,210,22725,2,0,L|208:198,1,116.250004434586,4|0,0:1|0:0,0:0:0:0:
406,319,23423,6,0,P|349:335|277:307,1,116.250004434586,2|0,0:0|0:0,0:0:0:0:
172,37,24121,1,0,0:0:0:0:
172,37,24470,2,0,B|188:97|159:143|159:143|187:168|187:168|185:290,1,232.500008869171,0|0,0:0|0:0,0:0:0:0:
38,72,25516,1,0,0:0:0:0:
38,72,26214,6,0,L|167:53,1,116.250004434586,2|0,0:0|0:0,0:0:0:0:
335,199,26911,1,0,0:0:0:0:
335,199,27260,2,0,B|253:237|186:188|186:188|209:274,1,232.500008869171,0|0,0:0|0:0,0:0:0:0:
448,348,28307,2,0,L|474:292,2,58.1250022172929,0|0|0,0:0|0:0|0:0,0:0:0:0:
335,199,29004,6,0,P|326:149|325:53,1,116.250004434586,2|0,0:0|0:0,0:0:0:0:
89,84,29702,1,0,0:0:0:0:
263,359,30051,1,0,0:0:0:0:
451,199,30400,2,0,P|385:195|334:198,1,116.250004434586,0|0,0:0|0:0,0:0:0:0:
89,84,31097,2,0,P|152:85|233:76,1,116.250004434586,0|0,0:0|0:0,0:0:0:0:
464,312,31795,5,2,0:0:0:0:
352,104,32144,1,0,0:0:0:0:
136,312,32493,1,0,0:0:0:0:
360,240,32842,1,0,0:0:0:0:
89,84,33191,1,0,0:0:0:0:
64,312,33539,1,0,0:0:0:0:
299,45,33888,1,8,0:3:0:0:
299,45,34586,6,0,P|364:51|457:44,1,116.250004434586,2|0,0:0|0:0,0:0:0:0:
512,292,35284,2,0,P|449:275|373:268,1,116.250004434586,0|0,0:0|0:0,0:0:0:0:
276,278,35807,1,0,0:0:0:0:
276,278,35981,2,0,P|280:228|276:134,1,116.250004434586,4|0,0:1|0:0,0:0:0:0:
94,305,36679,1,0,0:0:0:0:
366,330,37028,1,0,0:0:0:0:
159,155,37377,6,0,B|80:136|13:159|13:159|11:108|44:65,1,232.500008869171,2|0,0:0|0:0,0:0:0:0:
264,5,38423,2,0,L|262:94,1,58.1250022172929,0|0,0:0|0:0,0:0:0:0:
345,154,38772,2,0,P|411:165|495:167,1,116.250004434586,4|0,0:1|0:0,0:0:0:0:
161,266,39470,2,0,P|99:260|1:277,1,116.250004434586,0|0,0:0|0:0,0:0:0:0:
285,379,40167,6,0,L|281:236,1,116.250004434586,2|0,0:0|0:0,0:0:0:0:
273,29,40865,1,0,0:0:0:0:
128,211,41214,1,0,0:0:0:0:
359,193,41563,2,0,L|519:185,1,116.250004434586,4|0,0:1|0:0,0:0:0:0:
285,379,42260,2,0,L|125:355,1,116.250004434586,0|0,0:0|0:0,0:0:0:0:
54,158,42958,5,2,0:0:0:0:
61,381,43307,1,0,0:0:0:0:
258,164,43656,1,4,0:1:0:0:
48,263,44004,1,0,0:0:0:0:
346,322,44353,2,0,L|343:188,1,116.250004434586,8|0,0:3|0:0,0:0:0:0:
100,56,45051,5,8,0:1:0:0:
1,118,45226,1,0,0:0:0:0:
31,231,45400,1,0,0:0:0:0:
147,237,45574,1,0,0:0:0:0:
189,129,45749,6,0,L|173:268,1,131.750002512932,6|0,0:0|0:0,0:0:0:0:
431,317,46446,2,0,L|409:166,1,131.750002512932,8|0,0:1|0:0,0:0:0:0:
310,101,46970,1,0,0:0:0:0:
220,197,47144,2,0,L|49:189,1,131.750002512932,4|0,0:0|0:0,0:0:0:0:
288,363,47842,2,0,L|440:347,1,131.750002512932,8|0,0:1|0:0,0:0:0:0:
297,58,48539,6,0,P|297:127|304:206,1,131.750002512932,6|0,0:0|0:0,0:0:0:0:
62,302,49237,2,0,P|78:231|90:158,1,131.750002512932,8|0,0:1|0:0,0:0:0:0:
392,320,49935,2,0,P|327:334|262:338,1,131.750002512932,4|0,0:0|0:0,0:0:0:0:
324,10,50632,2,0,P|333:93|334:145,1,131.750002512932,8|0,0:1|0:0,0:0:0:0:
238,251,51156,1,0,0:0:0:0:
132,126,51330,6,0,P|67:120|-60:118,1,131.750002512932,6|0,0:0|0:0,0:0:0:0:
262,338,52028,1,8,0:1:0:0:
213,78,52377,1,0,0:0:0:0:
64,325,52725,1,4,0:0:0:0:
310,243,53074,1,0,0:0:0:0:
85,56,53423,1,8,0:1:0:0:
137,371,53772,1,0,0:0:0:0:
372,102,54121,6,0,P|453:92|539:87,1,139.499995742798,6|0,0:0|0:0,0:0:0:0:
364,226,54644,2,0,P|325:222|279:213,1,69.749997871399,0|8,0:0|0:1,0:0:0:0:
33,117,55167,1,0,0:0:0:0:
188,86,55516,2,0,P|183:154|170:245,1,139.499995742798,4|0,0:0|0:0,0:0:0:0:
297,286,56039,2,0,L|293:193,1,69.749997871399,0|2,0:0|0:1,0:0:0:0:
33,117,56563,1,8,0:3:0:0:
125,311,56911,6,0,B|189:334|264:312|264:312|259:346|229:377,1,209.249993614197,6|0,0:0|0:0,0:0:0:0:
187,114,57609,5,8,0:0:0:0:
229,252,57784,1,8,0:3:0:0:
51,167,57958,1,4,0:0:0:0:
51,167,58307,5,4,0:0:0:0:
278,59,58481,1,8,0:0:0:0:
278,59,58830,5,8,0:3:0:0:
166,202,59004,1,8,0:0:0:0:
362,151,59179,1,8,0:3:0:0:
136,70,59353,1,4,0:0:0:0:
236,266,59528,1,8,0:0:0:0:
343,57,59702,6,0,P|414:44|523:31,1,170.500005203247,6|4,0:0|0:0,0:0:0:0:
360,196,60225,1,0,0:0:0:0:
166,202,60400,2,0,P|149:108|142:6,1,170.500005203247,8|0,0:0|0:0,0:0:0:0:
287,149,60923,1,0,0:0:0:0:
65,200,61097,6,0,P|43:163|22:99,1,85.2500026016236,4|0,0:0|0:0,0:0:0:0:
262,225,61446,2,0,P|262:272|259:314,1,85.2500026016236,0|0,0:0|0:0,0:0:0:0:
174,109,61795,2,0,P|228:102|355:97,1,170.500005203247,8|0,0:0|0:0,0:0:0:0:
227,240,62318,1,0,0:0:0:0:
65,200,62493,6,0,L|40:80,1,85.2500026016236,6|0,0:0|0:0,0:0:0:0:
256,16,62842,2,0,L|240:128,1,85.2500026016236,8|0,0:3|0:0,0:0:0:0:
217,294,63191,2,0,P|254:273|312:257,1,85.2500026016236,8|0,0:0|0:0,0:0:0:0:
418,278,63539,1,0,0:0:0:0:
282,168,63714,1,0,0:0:0:0:
309,368,63888,5,4,0:0:0:0:
466,175,64237,2,0,P|470:107|469:-15,2,170.500005203247,0|8|4,0:0|0:0|0:0,0:0:0:0:
188,74,65284,6,0,L|15:68,1,170.500005203247,6|4,0:0|0:0,0:0:0:0:
189,208,65807,1,0,0:0:0:0:
328,276,65981,2,0,L|514:262,1,170.500005203247,8|0,0:0|0:0,0:0:0:0:
252,140,66504,1,0,0:0:0:0:
157,282,66679,6,0,L|169:366,1,85.2500026016236,4|0,0:0|0:0,0:0:0:0:
328,276,67028,2,0,L|339:190,1,85.2500026016236
82,78,67377,2,0,B|56:140|84:202|84:202|143:219,1,170.500005203247,8|0,0:0|0:0,0:0:0:0:
297,197,67900,1,0,0:0:0:0:
177,47,68074,6,0,L|183:148,1,85.2500026016236,6|0,0:0|0:0,0:0:0:0:
394,205,68423,2,0,L|398:108,1,85.2500026016236,8|0,0:3|0:0,0:0:0:0:
385,345,68772,1,8,0:0:0:0:
272,216,68946,1,0,0:0:0:0:
512,238,69121,1,0,0:0:0:0:
302,350,69295,1,0,0:0:0:0:
397,119,69470,5,4,0:0:0:0:
385,345,69818,1,0,0:0:0:0:
251,170,70167,1,8,0:0:0:0:
470,187,70516,1,4,0:0:0:0:
172,310,70865,6,0,P|164:231|160:117,1,170.500005203247,6|4,0:0|0:0,0:0:0:0:
512,241,71563,2,0,P|426:260|334:262,1,170.500005203247,8|0,0:0|0:0,0:0:0:0:
230,142,72086,1,0,0:0:0:0:
68,214,72260,6,0,L|58:310,1,85.2500026016236,4|0,0:0|0:0,0:0:0:0:
271,228,72609,2,0,L|253:107,1,85.2500026016236,0|0,0:0|0:0,0:0:0:0:
187,330,72958,2,0,P|266:364|362:331,1,170.500005203247,8|0,0:0|0:0,0:0:0:0:
473,230,73481,1,0,0:0:0:0:
334,95,73656,6,0,L|338:190,1,85.2500026016236,6|0,0:0|0:0,0:0:0:0:
177,185,74004,2,0,L|186:101,1,85.2500026016236,8|0,0:3|0:0,0:0:0:0:
28,162,74353,1,8,0:0:0:0:
28,162,74702,1,0,0:0:0:0:
76,32,74877,1,0,0:0:0:0:
177,185,75051,5,4,0:0:0:0:
482,21,75400,2,0,P|389:16|278:18,2,170.500005203247,0|8|4,0:0|0:0|0:0,0:0:0:0:
234,294,76446,6,0,P|222:228|218:121,1,170.500005203247,6|4,0:0|0:0,0:0:0:0:
372,291,76970,1,0,0:0:0:0:
186,227,77144,2,0,P|101:218|15:217,1,170.500005203247,8|0,0:0|0:0,0:0:0:0:
318,349,77842,6,0,P|359:344|423:328,1,85.2500026016236,4|0,0:0|0:0,0:0:0:0:
314,171,78191,2,0,P|276:138|241:84,1,85.2500026016236
71,46,78540,2,0,L|63:237,1,170.500005203247,8|0,0:0|0:0,0:0:0:0:
195,325,79063,1,0,0:0:0:0:
214,158,79237,6,0,P|255:145|307:139,1,85.2500026016236,6|0,0:0|0:0,0:0:0:0:
465,105,79586,2,0,P|426:81|385:39,1,85.2500026016236,8|0,0:3|0:0,0:0:0:0:
153,85,79935,5,8,0:0:0:0:
239,231,80109,1,0,0:0:0:0:
465,105,80284,1,0,0:0:0:0:
302,54,80458,1,0,0:0:0:0:
402,297,80633,5,4,0:0:0:0:
507,24,80981,1,4,0:0:0:0:
185,137,81330,1,8,0:0:0:0:
344,195,81504,1,8,0:3:0:0:
264,29,81679,1,4,0:0:0:0:
252,239,82028,6,0,P|335:231|441:230,1,170.500005203247,6|4,0:0|0:0,0:0:0:0:
247,368,82551,1,0,0:0:0:0:
118,190,82725,2,0,P|136:152|155:90,1,85.2500026016236,8|0,0:0|0:0,0:0:0:0:
342,276,83074,2,0,P|319:234|303:177,1,85.2500026016236,0|0,0:0|0:0,0:0:0:0:
43,326,83423,6,0,P|117:328|233:322,1,170.500005203247,4|8,0:0|0:3,0:0:0:0:
412,199,83946,1,0,0:0:0:0:
257,180,84121,1,10,0:1:0:0:
432,312,84295,1,0,0:0:0:0:
463,103,84470,2,0,P|416:96|376:94,1,85.2500026016236,4|0,0:0|0:0,0:0:0:0:
130,220,84818,6,0,P|210:226|323:221,1,155,6|0,0:0|0:0,0:0:0:0:
440,214,85342,1,0,0:0:0:0:
286,107,85516,1,2,0:0:0:0:
343,384,85865,1,4,0:0:0:0:
35,209,86214,6,0,P|39:82|154:129,1,278.999991485596,6|0,0:0|0:0,0:0:0:0:
80,148,87609,5,6,0:0:0:0:
96,164,87958,1,4,0:0:0:0:
296,336,89004,1,4,0:0:0:0:
280,352,89353,1,4,0:0:0:0:
240,96,90400,5,6,0:0:0:0:
256,80,90749,1,4,0:0:0:0:
96,344,91795,1,4,0:0:0:0:
80,328,92144,1,4,0:0:0:0:
64,312,92493,6,0,P|87:273|107:204,1,116.250004434586,2|4,0:0|0:0,0:0:0:0:
336,45,93191,6,0,L|346:210,1,139.499995742798,6|0,0:0|0:0,0:0:0:0:
353,324,93715,1,0,0:0:0:0:
512,243,93889,2,0,L|443:228,1,69.749997871399,8|0,0:1|0:0,0:0:0:0:
255,236,94238,1,0,0:0:0:0:
255,236,94587,6,0,L|271:146,2,69.749997871399,4|0|0,0:0|0:0|0:0,0:0:0:0:
25,76,95284,1,8,0:1:0:0:
302,44,95633,1,0,0:0:0:0:
407,136,95808,1,0,0:0:0:0:
255,236,95982,6,0,P|198:241|115:244,1,139.499995742798,6|0,0:0|0:0,0:0:0:0:
260,115,96505,1,0,0:0:0:0:
374,214,96680,2,0,L|371:302,1,69.749997871399,8|0,0:1|0:0,0:0:0:0:
258,91,97028,1,0,0:0:0:0:
258,91,97377,6,0,L|186:87,1,69.749997871399,4|0,0:0|0:0,0:0:0:0:
63,202,97726,1,0,0:0:0:0:
325,297,98075,1,8,0:1:0:0:
164,15,98424,1,0,0:0:0:0:
53,301,98773,6,0,P|122:298|191:289,1,139.499995742798,6|0,0:0|0:0,0:0:0:0:
300,200,99296,1,0,0:0:0:0:
348,69,99470,2,0,L|334:229,1,139.499995742798,8|0,0:1|0:0,0:0:0:0:
226,57,99994,1,0,0:0:0:0:
442,79,100168,6,0,L|511:79,1,69.749997871399,4|0,0:0|0:0,0:0:0:0:
437,198,100517,1,0,0:0:0:0:
293,10,100866,5,8,0:1:0:0:
171,188,101040,1,0,0:0:0:0:
319,93,101215,1,0,0:0:0:0:
142,49,101389,1,0,0:0:0:0:
272,301,101563,5,6,0:0:0:0:
261,8,101912,1,8,0:3:0:0:
0,139,102261,1,8,0:1:0:0:
0,139,102610,2,0,L|139:135,1,116.250004434586,4|0,0:0|0:0,0:0:0:0:
207,350,103308,1,0,0:0:0:0:
207,350,103656,2,0,L|71:343,1,116.250004434586,4|0,0:1|0:0,0:0:0:0:
345,130,104353,6,0,P|354:191|331:255,1,116.250004434586,6|0,0:0|0:0,0:0:0:0:
198,58,105052,1,0,0:0:0:0:
435,67,105400,2,0,P|466:64|496:56,1,58.1250022172929,4|0,0:0|0:0,0:0:0:0:
345,130,105749,2,0,P|312:128|267:129,1,58.1250022172929,6|0,0:0|0:0,0:0:0:0:
445,178,106097,1,0,0:0:0:0:
283,0,106447,1,8,0:1:0:0:
147,187,106795,2,0,L|173:267,1,58.1250022172929
268,157,107145,6,0,P|327:153|397:152,1,116.250004434586,6|0,0:0|0:0,0:0:0:0:
212,308,107842,1,0,0:0:0:0:
147,84,108191,2,0,P|111:80|69:79,1,58.1250022172929
65,224,108539,2,0,P|94:215|132:202,2,58.1250022172929,6|0|0,0:0|0:0|0:0,0:0:0:0:
220,6,109237,2,0,P|236:35|246:62,2,58.1250022172929,8|0|0,0:1|0:0|0:0,0:0:0:0:
410,29,109935,6,0,P|401:79|400:175,1,116.250004434586,6|0,0:0|0:0,0:0:0:0:
415,376,110633,1,0,0:0:0:0:
512,185,110982,1,4,0:0:0:0:
293,131,111330,2,0,P|292:168|296:213,2,58.1250022172929,6|0|0,0:0|0:0|0:0,0:0:0:0:
409,346,112028,2,0,P|349:351|265:354,1,116.250004434586,8|0,0:1|0:0,0:0:0:0:
106,136,112726,5,6,0:0:0:0:
157,326,113075,1,0,0:0:0:0:
361,97,113424,1,0,0:0:0:0:
190,59,113772,1,4,0:0:0:0:
306,260,114121,2,0,P|333:262|364:261,2,58.1250022172929,6|0|0,0:0|0:0|0:0,0:0:0:0:
63,169,114818,2,0,P|52:111|42:8,1,116.250004434586,8|0,0:3|0:0,0:0:0:0:
342,134,115516,6,0,L|495:119,1,116.250004434586,6|0,0:0|0:0,0:0:0:0:
323,345,116214,1,0,0:0:0:0:
236,109,116562,2,0,P|197:106|145:110,1,58.1250022172929,4|0,0:0|0:0,0:0:0:0:
268,219,116911,2,0,P|292:222|362:220,1,58.1250022172929,6|0,0:0|0:0,0:0:0:0:
171,205,117259,1,0,0:0:0:0:
302,12,117609,1,8,0:1:0:0:
383,232,117957,2,0,L|312:221,1,58.1250022172929
240,304,118307,6,0,P|171:313|107:307,1,116.250004434586,6|0,0:0|0:0,0:0:0:0:
237,112,119004,1,0,0:0:0:0:
451,22,119353,2,0,P|449:61|443:111,1,58.1250022172929
383,173,119702,2,0,P|382:217|385:268,2,58.1250022172929,6|0|0,0:0|0:0|0:0,0:0:0:0:
154,225,120400,2,0,P|123:239|96:246,2,58.1250022172929,8|0|0,0:1|0:0|0:0,0:0:0:0:
265,20,121097,6,0,P|267:78|276:135,1,116.250004434586,6|0,0:0|0:0,0:0:0:0:
462,277,121795,1,0,0:0:0:0:
433,91,122144,1,0,0:0:0:0:
240,309,122493,2,0,P|305:313|331:318,2,58.1250022172929,6|0|0,0:0|0:0|0:0,0:0:0:0:
42,184,123190,2,0,P|105:185|186:176,1,116.250004434586,8|0,0:1|0:0,0:0:0:0:
428,62,123888,5,6,0:0:0:0:
197,32,124237,1,0,0:0:0:0:
411,256,124586,1,4,0:1:0:0:
348,31,124935,1,0,0:0:0:0:
240,305,125283,2,0,P|206:317|163:323,2,58.1250022172929,8|0|0,0:3|0:0|0:0,0:0:0:0:
166,68,125981,2,0,P|161:139|166:212,1,116.250004434586,8|0,0:1|0:0,0:0:0:0:
240,305,126505,1,0,0:0:0:0:
390,164,126680,6,0,P|324:161|258:163,1,131.750002512932,6|0,0:0|0:0,0:0:0:0:
36,86,127377,2,0,L|58:237,1,131.750002512932,8|0,0:1|0:0,0:0:0:0:
145,313,127901,1,0,0:0:0:0:
242,225,128075,2,0,P|273:225|330:236,1,65.8750012564659,4|0,0:0|0:0,0:0:0:0:
255,351,128423,1,0,0:0:0:0:
84,148,128773,2,0,P|155:152|222:137,1,131.750002512932,8|0,0:1|0:0,0:0:0:0:
512,277,129470,6,0,P|448:268|365:278,1,131.750002512932,6|0,0:0|0:0,0:0:0:0:
127,347,130168,2,0,P|138:292|144:190,1,131.750002512932,8|0,0:1|0:0,0:0:0:0:
366,73,130866,2,0,P|376:112|398:156,1,65.8750012564659,4|0,0:0|0:0,0:0:0:0:
387,135,131214,1,0,0:0:0:0:
133,86,131563,2,0,P|50:77|-2:76,1,131.750002512932,8|0,0:1|0:0,0:0:0:0:
144,216,132087,1,0,0:0:0:0:
267,260,132261,6,0,P|332:266|459:268,1,131.750002512932,6|0,0:0|0:0,0:0:0:0:
203,90,132959,1,8,0:1:0:0:
168,351,133308,1,0,0:0:0:0:
333,266,133656,2,0,L|329:198,1,65.8750012564659,4|0,0:0|0:0,0:0:0:0:
318,68,134005,1,0,0:0:0:0:
216,311,134354,1,8,0:1:0:0:
460,189,134703,1,0,0:0:0:0:
141,139,135052,6,0,P|57:131|-2:128,1,139.499995742798,6|0,0:0|0:0,0:0:0:0:
200,40,135574,1,0,0:0:0:0:
219,227,135749,2,0,P|249:251|288:277,1,69.749997871399,8|0,0:1|0:0,0:0:0:0:
399,190,136098,1,4,0:1:0:0:
115,248,136447,6,0,L|133:320,1,69.749997871399,4|0,0:0|0:0,0:0:0:0:
281,169,136795,2,0,L|297:100,1,69.749997871399
418,295,137144,2,0,L|441:383,1,69.749997871399,10|0,0:1|0:0,0:0:0:0:
258,333,137493,1,8,0:3:0:0:
328,85,137842,6,0,B|337:145|337:145|329:213|329:213|370:194|422:211,1,209.249993614197,6|4,0:0|0:0,0:0:0:0:
382,344,138540,5,8,0:0:0:0:
248,184,138715,1,8,0:3:0:0:
488,224,138889,1,4,0:0:0:0:
488,224,139238,5,4,0:0:0:0:
248,323,139411,1,8,0:0:0:0:
248,323,139761,5,8,0:3:0:0:
344,152,139935,1,8,0:0:0:0:
172,198,140110,1,8,0:3:0:0:
368,296,140284,1,4,0:0:0:0:
263,97,140459,1,8,0:0:0:0:
248,323,140632,6,0,P|328:326|460:308,1,170.500005203247,6|4,0:0|0:0,0:0:0:0:
278,172,141156,1,0,0:0:0:0:
131,144,141330,2,0,B|130:200|130:200|155:247|155:247|154:308,1,170.500005203247,8|0,0:0|0:0,0:0:0:0:
11,273,141853,1,0,0:0:0:0:
278,172,142028,6,0,L|304:279,1,85.2500026016236,4|0,0:0|0:0,0:0:0:0:
37,137,142377,2,0,L|62:38,1,85.2500026016236
276,2,142725,2,0,P|274:92|281:203,1,170.500005203247,8|0,0:0|0:0,0:0:0:0:
315,340,143249,1,0,0:0:0:0:
164,188,143423,6,0,L|44:198,1,85.2500026016236,6|0,0:0|0:0,0:0:0:0:
385,70,143772,2,0,L|478:85,1,85.2500026016236,8|0,0:3|0:0,0:0:0:0:
331,255,144121,1,8,0:0:0:0:
251,104,144295,1,0,0:0:0:0:
445,189,144470,1,0,0:0:0:0:
212,239,144644,1,0,0:0:0:0:
300,32,144818,6,0,L|407:17,1,85.2500026016236,4|0,0:0|0:0,0:0:0:0:
176,174,145167,2,0,L|58:162,1,85.2500026016236
321,296,145516,1,8,0:0:0:0:
297,100,145691,1,0,0:0:0:0:
157,294,145865,2,0,L|193:414,1,85.2500026016236,4|0,0:0|0:0,0:0:0:0:
419,212,146214,6,0,L|451:95,1,85.2500026016236,6|0,0:0|0:0,0:0:0:0:
262,100,146563,2,0,L|230:13,1,85.2500026016236,4|0,0:0|0:0,0:0:0:0:
157,294,146911,2,0,B|217:316|217:316|359:289,1,170.500005203247,8|0,0:0|0:0,0:0:0:0:
233,121,147435,1,0,0:0:0:0:
74,293,147609,6,0,L|95:392,1,85.2500026016236,4|0,0:0|0:0,0:0:0:0:
321,296,147958,2,0,L|349:208,1,85.2500026016236
168,79,148307,2,0,B|148:146|148:146|156:206|156:206|107:196,1,170.500005203247,8|0,0:0|0:0,0:0:0:0:
22,48,148830,1,0,0:0:0:0:
274,172,149004,6,0,L|290:283,1,85.2500026016236,6|0,0:0|0:0,0:0:0:0:
116,197,149353,1,8,0:3:0:0:
219,60,149528,1,0,0:0:0:0:
370,221,149702,2,0,L|383:316,1,85.2500026016236,8|0,0:0|0:0,0:0:0:0:
212,247,150051,1,0,0:0:0:0:
315,110,150225,1,0,0:0:0:0:
475,261,150400,6,0,L|451:380,1,85.2500026016236,4|0,0:0|0:0,0:0:0:0:
232,183,150749,2,0,L|216:78,1,85.2500026016236
253,303,151097,1,8,0:0:0:0:
357,180,151272,1,8,0:3:0:0:
111,210,151446,2,0,B|110:267|110:267|96:304,1,85.2500026016236,4|0,0:0|0:0,0:0:0:0:
32,176,151795,6,0,P|105:176|203:169,1,170.500005203247,6|4,0:0|0:0,0:0:0:0:
338,66,152318,1,0,0:0:0:0:
431,266,152493,2,0,P|355:255|247:255,1,170.500005203247,8|0,0:0|0:0,0:0:0:0:
423,383,153016,1,0,0:0:0:0:
482,192,153191,6,0,L|468:77,1,85.2500026016236,4|0,0:0|0:0,0:0:0:0:
261,253,153540,2,0,L|248:364,1,85.2500026016236
407,157,153888,2,0,B|348:157|348:157|301:131|301:131|241:130,1,170.500005203247,8|0,0:0|0:0,0:0:0:0:
261,253,154412,1,0,0:0:0:0:
413,128,154586,6,0,L|403:8,1,85.2500026016236,6|0,0:0|0:0,0:0:0:0:
164,211,154935,2,0,L|165:326,1,85.2500026016236,8|0,0:3|0:0,0:0:0:0:
159,82,155284,1,8,0:0:0:0:
301,223,155458,1,0,0:0:0:0:
73,183,155633,1,0,0:0:0:0:
262,74,155807,1,0,0:0:0:0:
202,331,155981,6,0,L|188:203,1,85.2500026016236,4|0,0:0|0:0,0:0:0:0:
421,158,156330,2,0,L|411:252,1,85.2500026016236
259,0,156679,1,8,0:0:0:0:
423,17,156853,1,0,0:0:0:0:
231,149,157028,2,0,L|121:129,1,85.2500026016236,4|0,0:0|0:0,0:0:0:0:
445,46,157377,6,0,L|428:148,1,85.2500026016236,6|0,0:0|0:0,0:0:0:0:
244,233,157726,2,0,L|228:131,1,85.2500026016236,4|0,0:0|0:0,0:0:0:0:
350,336,158074,2,0,P|258:385|172:364,1,170.500005203247,8|0,0:0|0:0,0:0:0:0:
110,205,158598,1,0,0:0:0:0:
256,148,158772,6,0,P|251:193|242:237,1,85.2500026016236,4|0,0:0|0:0,0:0:0:0:
36,293,159121,2,0,P|32:254|33:207,1,85.2500026016236
243,232,159470,2,0,P|332:228|429:206,1,170.500005203247,8|0,0:0|0:0,0:0:0:0:
228,133,159993,1,0,0:0:0:0:
106,252,160167,6,0,L|112:337,1,85.2500026016236,6|0,0:0|0:0,0:0:0:0:
228,133,160516,1,8,0:3:0:0:
57,140,160691,1,0,0:0:0:0:
237,266,160865,2,0,L|339:238,1,85.2500026016236,8|0,0:0|0:0,0:0:0:0:
383,54,161214,1,0,0:0:0:0:
228,133,161388,1,0,0:0:0:0:
408,287,161563,6,0,P|453:280|510:277,1,85.2500026016236,4|0,0:0|0:0,0:0:0:0:
237,266,161912,2,0,L|230:80,1,170.500005203247,4|8,0:0|0:0,0:0:0:0:
230,95,162435,1,8,0:3:0:0:
356,272,162609,2,0,P|397:271|460:264,1,85.2500026016236,4|0,0:0|0:0,0:0:0:0:
313,80,162958,6,0,L|142:68,1,170.500005203247,6|4,0:0|0:0,0:0:0:0:
237,266,163481,1,0,0:0:0:0:
419,196,163656,2,0,L|423:2,1,170.500005203247,8|0,0:0|0:0,0:0:0:0:
81,177,164353,6,0,L|68:92,1,85.2500026016236,4|0,0:0|0:0,0:0:0:0:
284,166,164702,1,8,0:3:0:0:
157,280,164877,1,0,0:0:0:0:
206,60,165051,1,10,0:1:0:0:
343,251,165225,1,0,0:0:0:0:
81,177,165400,2,0,L|63:52,1,85.2500026016236,4|0,0:0|0:0,0:0:0:0:
301,11,165749,6,0,L|281:191,1,155,6|0,0:0|0:0,0:0:0:0:
372,293,166272,1,0,0:0:0:0:
418,94,166446,2,0,L|225:84,1,155,8|0,0:0|0:0,0:0:0:0:
140,80,167144,5,10,0:0:0:0:
218,251,167318,1,0,0:0:0:0:
274,47,167493,1,4,0:0:0:0:
146,167,167667,1,0,0:0:0:0:
367,215,167842,5,6,0:0:0:0:
182,171,168016,1,0,0:0:0:0:
371,84,168191,1,8,0:3:0:0:
276,288,168365,1,0,0:0:0:0:
161,31,168539,6,0,L|361:21,1,170.500005203247,6|8,0:0|0:3,0:0:0:0:
380,187,169063,2,0,L|205:179,1,170.500005203247,6|4,0:0|0:1,0:0:0:0:
145,337,169586,2,0,L|322:330,1,170.500005203247,10|0,0:0|0:0,0:0:0:0:
458,236,170109,1,0,0:0:0:0:
276,216,170284,1,4,0:1:0:0:
276,216,170632,5,8,0:0:0:0:
406,104,170807,1,0,0:0:0:0:
426,258,170981,1,8,0:3:0:0:
290,137,171156,1,0,0:0:0:0:
471,54,171330,6,0,B|504:80|504:80|515:138|481:219,1,170.500005203247,6|8,0:0|0:3,0:0:0:0:
392,335,171853,2,0,B|351:310|351:310|337:253|352:182,1,170.500005203247,6|4,0:0|0:1,0:0:0:0:
201,271,172377,2,0,B|154:303|154:303|100:270|44:282,1,170.500005203247,10|0,0:0|0:0,0:0:0:0:
158,169,172900,1,0,0:0:0:0:
240,352,173074,1,4,0:1:0:0:
240,352,173423,6,0,P|284:348|343:328,1,85.2500026016236,8|0,0:0|0:0,0:0:0:0:
390,134,173772,1,0,0:0:0:0:
252,234,173946,1,0,0:0:0:0:
478,233,174121,6,0,P|485:157|488:45,1,170.500005203247,6|8,0:0|0:3,0:0:0:0:
136,145,174644,2,0,P|226:160|327:165,1,170.500005203247,6|4,0:0|0:1,0:0:0:0:
380,318,175167,2,0,P|330:323|277:338,2,85.2500026016236,10|0|4,0:0|0:0|0:1,0:0:0:0:
183,361,175691,6,0,P|181:306|184:223,1,127.875003902435,2|4,0:0|0:1,0:0:0:0:
24,237,176214,6,0,P|30:180|25:85,2,127.875003902435,10|2|4,0:0|0:0|0:1,0:0:0:0:
150,123,176911,6,0,P|225:113|320:113,1,170.500005203247,6|8,0:0|0:3,0:0:0:0:
392,268,177435,1,0,0:0:0:0:
226,229,177609,2,0,L|235:140,1,85.2500026016236,4|0,0:1|0:0,0:0:0:0:
460,97,177958,2,0,L|468:181,1,85.2500026016236,4|0,0:0|0:0,0:0:0:0:
342,298,178307,5,8,0:0:0:0:
204,146,178481,2,0,P|161:143|94:141,1,85.2500026016236,4|0,0:0|0:0,0:0:0:0:
230,311,178830,1,4,0:1:0:0:
363,164,179004,2,0,P|365:131|361:49,1,85.2500026016236,8|0,0:0|0:0,0:0:0:0:
101,112,179353,1,4,0:0:0:0:
101,112,179702,5,6,0:0:0:0:
230,311,180051,2,0,L|235:213,1,85.2500026016236,8|0,0:3|0:0,0:0:0:0:
192,328,180574,5,4,0:1:0:0:
78,199,180749,2,0,P|83:163|85:107,1,85.2500026016236,4|0,0:0|0:0,0:0:0:0:
307,161,181097,6,0,P|299:118|295:43,1,85.2500026016236,2|0,0:0|0:0,0:0:0:0:
48,278,181446,2,0,P|63:243|82:176,1,85.2500026016236,4|0,0:0|0:0,0:0:0:0:
335,241,181795,6,0,P|319:201|301:136,1,85.2500026016236,10|0,0:0|0:0,0:0:0:0:
5,351,182144,2,0,P|27:317|59:247,1,85.2500026016236,4|0,0:1|0:0,0:0:0:0:
308,364,182493,6,0,P|387:356|449:265,1,170.500005203247,6|8,0:0|0:3,0:0:0:0:
169,219,183016,2,0,P|112:215|-15:189,1,170.500005203247,6|4,0:0|0:1,0:0:0:0:
233,42,183539,2,0,B|288:18|347:41|347:41|356:76|397:101,1,170.500005203247,10|0,0:0|0:0,0:0:0:0:
463,12,184063,1,0,0:0:0:0:
368,193,184237,1,4,0:1:0:0:
368,193,184586,5,8,0:0:0:0:
215,117,184760,1,0,0:0:0:0:
406,73,184935,1,4,0:1:0:0:
318,258,185109,1,0,0:0:0:0:
136,143,185284,6,0,L|152:59,1,85.2500026016236,6|0,0:0|0:0,0:0:0:0:
356,108,185632,2,0,L|370:209,1,85.2500026016236,8|0,0:3|0:0,0:0:0:0:
162,304,185981,2,0,L|50:300,1,85.2500026016236,8|0,0:0|0:0,0:0:0:0:
263,192,186330,1,4,0:1:0:0:
295,368,186504,1,0,0:0:0:0:
395,208,186679,6,0,P|442:204|495:213,2,85.2500026016236,6|0|0,0:0|0:0|0:0,0:0:0:0:
452,337,187202,1,0,0:0:0:0:
483,90,187377,2,0,P|439:63|393:48,1,85.2500026016236,8|0,0:0|0:0,0:0:0:0:
220,132,187725,2,0,L|219:225,1,85.2500026016236,4|0,0:1|0:0,0:0:0:0:
17,341,188074,6,0,L|2:251,1,85.2500026016236,6|0,0:0|0:0,0:0:0:0:
79,77,188423,1,8,0:3:0:0:
184,339,188597,2,0,P|223:342|290:323,1,85.2500026016236,6|8,0:0|0:0,0:0:0:0:
411,171,188946,1,4,0:1:0:0:
220,47,189121,2,0,P|216:89|219:131,1,85.2500026016236,6|0,0:0|0:0,0:0:0:0:
267,332,189470,6,0,B|322:345|371:298|371:298|391:325|391:325|437:328|437:328|451:283|451:283|423:246,1,278.999991485596,6|0,0:0|0:0,0:0:0:0:
289,226,190865,6,0,P|216:226|157:220,1,131.750002512932,6|0,0:0|0:0,0:0:0:0:
157,220,191563,1,8,0:1:0:0:
326,66,191911,2,0,L|340:-17,1,65.8750012564659
439,83,192260,6,0,L|441:174,1,65.8750012564659,4|0,0:0|0:0,0:0:0:0:
316,195,192609,1,0,0:0:0:0:
66,109,192958,2,0,L|226:109,1,131.750002512932,8|0,0:1|0:0,0:0:0:0:
240,377,193656,6,0,L|175:372,1,65.8750012564659,6|0,0:0|0:0,0:0:0:0:
274,271,194004,2,0,L|357:261,1,65.8750012564659
240,377,194353,2,0,L|241:233,1,131.750002512932,8|0,0:1|0:0,0:0:0:0:
241,130,194877,1,0,0:0:0:0:
137,260,195051,6,0,L|72:247,1,65.8750012564659,4|0,0:0|0:0,0:0:0:0:
72,247,195400,1,0,0:0:0:0:
338,182,195749,2,0,L|346:6,1,131.750002512932,8|0,0:1|0:0,0:0:0:0:
228,142,196272,1,0,0:0:0:0:
306,293,196446,6,0,P|339:294|396:289,2,65.8750012564659,6|0|0,0:0|0:0|0:0,0:0:0:0:
499,112,197144,1,8,0:1:0:0:
512,364,197493,1,0,0:0:0:0:
277,222,197842,6,0,L|248:129,1,65.8750012564659,4|0,0:0|0:0,0:0:0:0:
59,232,198191,2,0,L|34:152,1,65.8750012564659
118,15,198539,6,0,L|139:81,1,65.8750012564659,8|0,0:1|0:0,0:0:0:0:
348,3,198888,2,0,L|373:80,1,65.8750012564659
234,297,199237,6,0,L|149:287,1,69.749997871399,6|0,0:0|0:0,0:0:0:0:
421,160,199586,2,0,L|496:153,1,69.749997871399
396,314,199935,2,0,L|395:389,1,69.749997871399,8|0,0:1|0:0,0:0:0:0:
265,132,200284,2,0,L|252:27,1,69.749997871399,4|0,0:1|0:0,0:0:0:0:
282,249,200632,5,4,0:0:0:0:
373,93,200807,1,0,0:0:0:0:
130,147,200981,1,0,0:0:0:0:
224,308,201156,1,0,0:0:0:0:
256,62,201330,5,10,0:1:0:0:
471,327,201679,1,8,0:3:0:0:
118,378,202028,6,0,B|116:305|116:305|99:274|99:274|131:231|110:168,1,209.249993614197,6|0,0:0|0:0,0:0:0:0:
46,55,202725,5,8,0:0:0:0:
10,211,202900,1,8,0:3:0:0:
172,105,203074,1,4,0:0:0:0:
352,384,203423,1,12,0:3:0:0:
432,96,203772,6,0,L|500:70,1,69.749997871399,2|0,0:3|0:0,0:0:0:0:
295,104,204121,2,0,L|319:24,1,69.749997871399
183,218,204470,2,0,L|171:150,1,69.749997871399
112,330,204818,6,0,B|150:365|225:364|258:324|258:324|259:263|259:263|295:229|295:229|335:262|335:262|334:293,1,348.750013303757,2|0,0:0|0:0,0:0:0:0:
183,218,206214,6,0,B|247:159|247:159|268:146|297:143|297:143|281:111|280:58|280:58|226:55|226:55|212:91|159:114,1,348.750013303757,2|0,0:0|0:0,0:0:0:0:
139,18,207609,6,0,L|57:8,1,58.1250022172929,2|0,0:0|0:0,0:0:0:0:
87,102,207958,2,0,L|-6:97,1,58.1250022172929
127,181,208307,2,0,P|138:233|135:317,1,116.250004434586
403,294,209004,6,0,B|393:214|393:214|421:199|443:167|443:167|389:122|405:51|485:49|498:99|498:99|482:117,1,348.750013303757,2|0,0:0|0:0,0:0:0:0:
343,153,210400,6,0,B|334:128|337:98|337:98|310:113|274:111,1,116.250004434586,2|0,0:0|0:0,0:0:0:0:
112,128,211097,2,0,P|47:112|110:83,1,174.375006651879
117,218,211795,6,0,B|42:236|-12:179|-12:179|-15:268|11:329|11:329|73:299,1,348.750013303757,2|0,0:0|0:0,0:0:0:0:
368,263,213191,6,0,L|373:347,1,69.749997871399,2|0,0:0|0:0,0:0:0:0:
225,187,213539,2,0,L|244:100,1,69.749997871399,4|0,0:1|0:0,0:0:0:0:
193,304,213888,5,2,0:0:0:0:
113,174,214063,1,0,0:0:0:0:
332,225,214237,1,4,0:1:0:0:
230,371,214411,1,0,0:0:0:0:
239,118,214586,6,0,L|307:107,1,69.749997871399,10|0,0:0|0:0,0:0:0:0:
105,288,214935,2,0,L|7:272,1,69.749997871399,4|0,0:0|0:0,0:0:0:0:
139,83,215284,5,8,0:0:0:0:
208,314,215458,1,8,0:0:0:0:
307,107,215632,2,0,L|413:104,1,69.749997871399,12|0,0:3|0:0,0:0:0:0:
179,350,215981,6,0,P|172:258|174:178,1,170.500005203247,6|4,0:0|0:0,0:0:0:0:
225,16,216504,1,0,0:0:0:0:
404,174,216679,2,0,P|454:167|488:46,1,170.500005203247,8|0,0:0|0:0,0:0:0:0:
267,104,217202,1,0,0:0:0:0:
366,322,217377,6,0,P|399:312|472:307,2,85.2500026016236,4|0|0,0:0|0:0|0:0,0:0:0:0:
0,292,218074,2,0,P|35:272|73:222,1,85.2500026016236,8|0,0:0|0:0,0:0:0:0:
232,190,218423,2,0,P|196:152|173:96,1,85.2500026016236
20,39,218772,6,0,P|28:81|28:130,1,85.2500026016236,6|0,0:0|0:0,0:0:0:0:
169,345,219121,2,0,P|156:309|147:244,1,85.2500026016236,8|0,0:3|0:0,0:0:0:0:
371,168,219470,2,0,P|353:211|316:256,1,85.2500026016236,8|0,0:0|0:0,0:0:0:0:
270,42,219818,1,0,0:0:0:0:
483,133,219993,1,0,0:0:0:0:
195,192,220167,6,0,L|163:85,1,85.2500026016236,4|0,0:0|0:0,0:0:0:0:
442,236,220516,2,0,L|412:331,1,85.2500026016236
393,25,220865,2,0,L|496:25,1,85.2500026016236,8|0,0:0|0:0,0:0:0:0:
308,230,221214,1,4,0:0:0:0:
308,230,221563,6,0,P|236:213|127:202,1,170.500005203247,6|4,0:0|0:0,0:0:0:0:
317,106,222086,1,0,0:0:0:0:
438,225,222260,2,0,L|418:307,1,85.2500026016236,8|0,0:0|0:0,0:0:0:0:
120,284,222609,2,0,L|140:202,1,85.2500026016236
400,96,222958,6,0,L|373:180,1,85.2500026016236,4|0,0:0|0:0,0:0:0:0:
144,107,223307,2,0,L|127:17,1,85.2500026016236
173,270,223656,1,8,0:0:0:0:
263,126,223830,1,0,0:0:0:0:
40,171,224004,1,0,0:0:0:0:
275,284,224179,1,0,0:0:0:0:
378,84,224353,6,0,L|339:7,1,85.2500026016236,6|0,0:0|0:0,0:0:0:0:
253,205,224702,1,8,0:3:0:0:
421,189,224877,1,0,0:0:0:0:
208,52,225051,2,0,L|76:71,1,85.2500026016236,8|0,0:0|0:0,0:0:0:0:
253,205,225400,1,0,0:0:0:0:
342,60,225574,1,0,0:0:0:0:
82,202,225749,5,4,0:0:0:0:
253,205,225923,1,8,0:3:0:0:
424,206,226097,1,4,0:0:0:0:
424,206,226446,6,0,L|436:105,1,85.2500026016236,8|0,0:0|0:0,0:0:0:0:
262,121,226795,2,0,L|217:43,1,85.2500026016236,4|0,0:0|0:0,0:0:0:0:
86,327,227144,6,0,B|143:346|143:346|318:295,1,170.500005203247,6|4,0:0|0:0,0:0:0:0:
348,177,227667,1,0,0:0:0:0:
141,187,227842,2,0,B|120:126|120:126|145:17,1,170.500005203247,8|0,0:0|0:0,0:0:0:0:
459,240,228539,2,0,L|433:350,1,85.2500026016236,6|0,0:0|0:0,0:0:0:0:
258,128,228888,2,0,L|269:37,1,85.2500026016236,4|0,0:0|0:0,0:0:0:0:
236,267,229237,5,10,0:1:0:0:
146,84,229411,1,4,0:0:0:0:
350,184,229586,1,4,0:0:0:0:
127,218,229760,1,8,0:3:0:0:
268,43,229935,5,6,0:0:0:0:
264,279,230109,1,0,0:0:0:0:
401,121,230284,1,4,0:1:0:0:
168,155,230458,1,0,0:0:0:0:
371,282,230632,5,10,0:0:0:0:
260,69,230807,1,4,0:1:0:0:
150,296,230981,2,0,P|191:296|268:259,1,85.2500026016236,2|0,0:3|0:0,0:0:0:0:
471,129,231330,5,6,0:0:0:0:
240,140,231504,1,4,0:0:0:0:
448,288,231679,5,8,0:0:0:0:
349,72,231853,1,4,0:0:0:0:
295,319,232028,5,14,0:0:0:0:
469,184,232202,1,4,0:0:0:0:
217,174,232377,5,8,0:0:0:0:
421,348,232551,1,12,0:3:0:0:
512,152,232725,6,0,P|377:148|333:144,1,178.250003399849,6|4,0:0|0:0,0:0:0:0:
264,1,233249,1,0,0:0:0:0:
131,91,233423,2,0,B|131:154|131:154|155:195|155:195|156:267,1,178.250003399849,8|0,0:0|0:0,0:0:0:0:
16,238,233946,1,0,0:0:0:0:
270,120,234121,6,0,L|268:216,1,89.1250016999245,4|0,0:0|0:0,0:0:0:0:
58,152,234470,1,0,0:0:0:0:
203,8,234644,1,0,0:0:0:0:
393,192,234818,2,0,L|367:281,1,89.1250016999245,8|0,0:0|0:0,0:0:0:0:
155,262,235167,1,0,0:0:0:0:
306,65,235342,1,0,0:0:0:0:
96,139,235516,5,6,0:0:0:0:
298,228,235691,1,0,0:0:0:0:
230,33,235865,1,8,0:3:0:0:
150,233,236039,1,0,0:0:0:0:
356,123,236214,2,0,L|473:143,1,89.1250016999245,8|0,0:0|0:0,0:0:0:0:
172,343,236563,2,0,L|76:325,1,89.1250016999245
206,123,236911,5,4,0:0:0:0:
504,280,237260,1,0,0:0:0:0:
443,138,237435,1,0,0:0:0:0:
349,272,237609,2,0,L|355:392,1,89.1250016999245,8|0,0:0|0:0,0:0:0:0:
165,312,237958,2,0,L|176:186,1,89.1250016999245,4|0,0:0|0:0,0:0:0:0:
323,74,238307,6,0,P|237:71|142:62,1,178.250003399849,6|4,0:0|0:0,0:0:0:0:
47,190,238830,1,0,0:0:0:0:
258,280,239004,2,0,P|254:233|253:178,1,89.1250016999245,8|0,0:0|0:0,0:0:0:0:
361,68,239353,1,0,0:0:0:0:
493,155,239528,2,0,P|484:196|472:247,1,89.1250016999245,0|4,0:0|0:0,0:0:0:0:
325,306,239877,5,0,0:0:0:0:
177,160,240051,2,0,L|79:159,1,89.1250016999245
221,285,240400,1,8,0:0:0:0:
290,66,240574,1,0,0:0:0:0:
91,70,240749,2,0,P|87:121|87:181,1,89.1250016999245
252,344,241097,5,6,0:0:0:0:
226,131,241272,1,0,0:0:0:0:
77,297,241446,1,8,0:3:0:0:
338,273,241621,1,0,0:0:0:0:
233,42,241795,6,0,P|228:89|225:178,1,89.1250016999245,8|0,0:0|0:0,0:0:0:0:
252,344,242144,1,0,0:0:0:0:
374,193,242318,1,0,0:0:0:0:
124,249,242493,5,4,0:0:0:0:
144,90,242667,1,0,0:0:0:0:
312,232,242842,6,0,B|400:240|400:240|432:200,1,118.833335599899,8|0,0:0|0:0,0:0:0:0:
464,136,243191,1,8,0:0:0:0:
464,136,243307,6,0,L|328:116,1,118.833335599899,8|4,0:3|0:0,0:0:0:0:
256,104,243656,1,0,0:0:0:0:
240,128,243888,6,0,P|233:205|232:324,1,178.250003399849,6|4,0:0|0:0,0:0:0:0:
394,125,244411,1,0,0:0:0:0:
192,224,244586,2,0,P|105:222|13:215,1,178.250003399849,8|0,0:0|0:0,0:0:0:0:
163,58,245109,1,0,0:0:0:0:
296,204,245284,6,0,L|280:316,1,89.1250016999245,4|0,0:0|0:0,0:0:0:0:
74,196,245632,2,0,L|59:104,1,89.1250016999245
322,108,245981,2,0,P|411:108|524:84,1,178.250003399849,8|0,0:0|0:0,0:0:0:0:
229,13,246504,1,0,0:0:0:0:
402,197,246679,5,6,0:0:0:0:
226,243,246853,1,0,0:0:0:0:
152,43,247028,1,8,0:3:0:0:
295,113,247202,1,0,0:0:0:0:
72,228,247377,5,8,0:0:0:0:
152,43,247551,2,0,P|189:45|256:43,1,89.1250016999245
389,143,247900,1,0,0:0:0:0:
248,249,248074,2,0,P|165:233|70:228,2,178.250003399849,4|0|8,0:0|0:0|0:0,0:0:0:0:
469,340,249121,6,0,L|525:321,3,44.5625008499623,4|0|0|0,0:0|0:0|0:0|0:0,0:0:0:0:
434,341,249470,6,0,L|442:149,1,178.250003399849,6|4,0:0|0:0,0:0:0:0:
328,48,249993,1,0,0:0:0:0:
193,133,250167,2,0,L|211:324,1,178.250003399849,8|0,0:0|0:0,0:0:0:0:
421,26,250865,6,0,L|531:20,1,89.1250016999245,4|0,0:0|0:0,0:0:0:0:
287,192,251214,2,0,L|168:183,1,89.1250016999245
412,122,251563,1,8,0:0:0:0:
323,298,251737,1,0,0:0:0:0:
287,74,251911,1,0,0:0:0:0:
462,221,252086,1,0,0:0:0:0:
209,310,252260,6,0,L|14:282,1,178.250003399849,6|8,0:0|0:3,0:0:0:0:
198,185,252784,1,0,0:0:0:0:
348,252,252958,2,0,L|349:368,1,89.1250016999245,8|0,0:0|0:0,0:0:0:0:
177,170,253307,1,0,0:0:0:0:
329,101,253481,2,0,L|410:150,1,89.1250016999245,0|4,0:0|0:0,0:0:0:0:
148,173,253830,1,0,0:0:0:0:
234,19,254004,5,4,0:0:0:0:
431,325,254353,1,8,0:0:0:0:
20,310,254702,1,4,0:0:0:0:
382,39,255051,6,0,P|375:127|357:234,1,178.250003399849,6|4,0:0|0:0,0:0:0:0:
235,317,255574,1,0,0:0:0:0:
146,182,255749,2,0,L|45:185,1,89.1250016999245,8|0,0:0|0:0,0:0:0:0:
321,345,256097,2,0,L|437:300,1,89.1250016999245
242,142,256446,5,4,0:0:0:0:
179,291,256621,1,0,0:0:0:0:
386,206,256795,2,0,L|391:100,1,89.1250016999245,8|0,0:3|0:0,0:0:0:0:
155,217,257144,1,8,0:0:0:0:
299,312,257318,1,0,0:0:0:0:
283,84,257493,2,0,L|173:52,1,89.1250016999245,4|0,0:0|0:0,0:0:0:0:
384,240,257842,5,6,0:0:0:0:
256,192,257929,12,8,258888,0:3:0:0:
256,192,259237,5,6,0:0:0:0:
256,192,260632,6,0,P|317:197|380:202,1,116.250004434586,2|0,0:0|0:0,0:0:0:0:
487,213,261155,1,0,0:0:0:0:
301,321,261504,1,0,0:0:0:0:
223,191,261678,1,0,0:0:0:0:
421,78,262027,6,0,B|452:146|424:224|424:224|472:227|507:196,1,232.500008869171,4|0,0:1|0:0,0:0:0:0:
149,159,263073,1,0,0:0:0:0:
220,254,263248,1,0,0:0:0:0:
269,141,263423,6,0,L|265:7,1,116.250004434586,2|0,0:0|0:0,0:0:0:0:
400,97,263945,1,0,0:0:0:0:
188,339,264294,1,0,0:0:0:0:
329,322,264469,1,0,0:0:0:0:
169,185,264818,6,0,L|52:191,1,116.250004434586,4|0,0:1|0:0,0:0:0:0:
258,323,265515,1,0,0:0:0:0:
261,74,265864,1,0,0:0:0:0:
395,243,266214,6,0,P|455:248|532:247,1,116.250004434586,2|0,0:0|0:0,0:0:0:0:
511,249,266736,1,0,0:0:0:0:
185,25,267259,1,0,0:0:0:0:
199,352,267608,5,4,0:1:0:0:
433,110,267957,1,0,0:0:0:0:
100,121,268306,1,0,0:0:0:0:
349,379,268655,1,0,0:0:0:0:
328,113,269004,6,0,L|322:42,1,58.1250022172929,2|0,0:0|0:0,0:0:0:0:
201,103,269353,2,0,L|160:23,1,58.1250022172929
145,210,269702,1,4,0:1:0:0:
145,210,270051,2,0,P|200:210|291:206,1,116.250004434586
376,190,270574,5,0,0:0:0:0:
300,313,270749,1,0,0:0:0:0:
182,64,271097,2,0,P|216:62|246:59,2,58.1250022172929,8|0|0,0:1|0:0|0:0,0:0:0:0:
0,258,271795,6,0,P|52:233|160:264,1,139.499995742798,6|0,0:0|0:0,0:0:0:0:
243,328,272319,1,0,0:0:0:0:
69,199,272493,2,0,L|68:129,1,69.749997871399,8|0,0:1|0:0,0:0:0:0:
70,368,272842,1,0,0:0:0:0:
327,241,273191,6,0,P|357:243|417:257,2,69.749997871399,4|0|0,0:0|0:0|0:0,0:0:0:0:
354,359,273888,1,8,0:1:0:0:
382,33,274237,1,0,0:0:0:0:
254,91,274412,1,0,0:0:0:0:
365,201,274586,6,0,P|422:206|505:209,1,139.499995742798,6|0,0:0|0:0,0:0:0:0:
384,80,275109,1,0,0:0:0:0:
256,244,275284,2,0,L|259:332,1,69.749997871399,8|0,0:1|0:0,0:0:0:0:
254,91,275632,1,0,0:0:0:0:
254,91,275981,6,0,L|154:87,1,69.749997871399,4|0,0:0|0:0,0:0:0:0:
44,80,276330,1,0,0:0:0:0:
231,287,276679,1,8,0:1:0:0:
249,0,277028,1,0,0:0:0:0:
22,300,277377,6,0,P|87:309|182:311,1,139.499995742798,6|0,0:0|0:0,0:0:0:0:
268,224,277900,1,0,0:0:0:0:
121,70,278074,2,0,L|135:230,1,139.499995742798,8|0,0:1|0:0,0:0:0:0:
253,334,278598,1,0,0:0:0:0:
330,219,278772,6,0,L|420:218,1,69.749997871399,4|0,0:0|0:0,0:0:0:0:
340,346,279121,1,0,0:0:0:0:
208,100,279470,5,8,0:1:0:0:
392,144,279644,1,0,0:0:0:0:
223,242,279819,1,0,0:0:0:0:
270,49,279993,1,0,0:0:0:0:
402,299,280167,5,6,0:0:0:0:
104,164,280516,1,8,0:3:0:0:
397,95,280865,1,8,0:1:0:0:
234,358,281214,2,0,P|178:353|98:332,1,116.250004434586,4|0,0:0|0:0,0:0:0:0:
189,48,281912,1,0,0:0:0:0:
189,48,282260,2,0,P|223:101|251:162,1,116.250004434586,8|12,0:0|0:3,0:0:0:0:
256,192,283395,12,0,291767,0:0:0:0:
