osu file format v5

[General]
AudioFilename: Pumpkin Ondo (TV Size).mp3
AudioLeadIn: 2000
PreviewTime: 37787
Countdown: 0
SampleSet: Soft
StackLeniency: 0.2
Mode: 0
LetterboxInBreaks: 1

[Metadata]
Title:Pumpkin Ondo (TV Size)
Artist:Ueda Kana
Creator:DJPop
Version:Easy
Source:Pumpkin Scissors
Tags:pumpkin ondo tv size ueda kana stekkin scissors

[Difficulty]
HPDrainRate:2
CircleSize:4
OverallDifficulty:2
SliderMultiplier:1.28
SliderTickRate:1

[Events]
//Background and Video events
0,0,"Pumpkin Ondo (TV Size).png"
1,350,"Pumpkin Ondo (TV Size).avi"
//Break Periods
//Storyboard Layer 0 (Background)
//Storyboard Layer 1 (Failing)
//Storyboard Layer 2 (Passing)
//Storyboard Layer 3 (Foreground)
//Storyboard Sound Samples
//Background Colour Transformations
3,100,255,128,0

[TimingPoints]
459,444.444444444444,4,2,0,80,1,0
66236,-100,4,2,0,80,0,1
73273,-100,4,2,0,80,0,0
87570,-100,4,2,0,80,0,1

[Colours]
Combo1 : 215,205,190
Combo2 : 180,110,60
Combo3 : 155,150,150
Combo4 : 65,70,45

[HitObjects]
32,352,459,5,4
160,352,1347,1,4
160,224,2236,5,4
288,224,3125,1,4
288,96,4014,6,0,L|32:96,1,256,4|8
32,224,5792,5,0
128,224,6533,1,2
144,32,7570,6,0,L|400:32,1,256,0|8
400,160,9347,5,0
304,160,10088,1,2
320,32,11125,6,2,C|448:96|448:288|256:359|64:288|64:96|192:32,1,1109.33333333333,0|2
128,128,15570,5,0
128,192,16014,2,0,L|384:192,1,256
336,320,19421,6,0,B|257:376|176:320,1,170.666666666667,2|4
160,192,20903,1,0
32,192,21792,5,0
32,64,22682,1,0
160,64,23570,5,0
288,64,24458,1,0
416,64,25347,5,0
416,160,26088,2,0,B|452:352|256:352,1,298.666666666667,0|0
128,352,28014,5,0
128,224,28903,5,0
128,128,29644,2,0,B|161:33|256:32,1,170.666666666667,0|8
320,32,30681,6,0,L|320:288,1,256,0|2
448,288,32458,5,2
448,160,33347,2,0,C|448:32,2,128,10|10|6
296,160,35125,6,0,B|257:188|216:160,1,85.3333333333333,14|14
32,32,37792,5,0
160,32,38681,1,0
160,160,39570,5,0
160,256,40310,2,0,B|160:350|288:320,1,170.666666666667,0|10
352,320,41347,5,0
480,320,42236,1,0
480,192,43125,5,0
480,96,43866,2,0,B|401:40|320:96,1,170.666666666667,0|10
256,96,44903,5,0
256,224,45792,1,0
256,352,46681,5,2
256,256,47421,2,0,B|256:170|128:176,1,170.666666666667,0|8
64,192,48458,6,2,B|96:256|128:320|192:352|256:353|320:352|384:320|416:256|448:192,1,512,6|6
480,32,52014,5,4
352,32,52903,1,0
224,32,53792,5,0
96,32,54681,1,0
96,160,55570,6,0,C|96:288,4,128,0|8|0|8|2
192,160,58088,5,2
192,320,59125,5,4
320,320,60014,1,0
448,320,60903,5,0
448,192,61792,1,0
320,192,62681,6,0,L|320:64,4,128,0|8|0|8|2
224,192,65199,5,2
128,320,66236,6,6,C|384:320,1,256
384,64,68014,6,6,C|128:64,1,256
128,256,69792,6,6,C|384:256,1,256
320,128,71570,6,10,C|192:128,2,128
448,128,73347,5,4
448,256,74236,1,0
320,256,75125,5,0
320,352,75865,2,0,B|288:352|216:352|224:288|224:256,1,160,0|10
224,192,76902,5,0
224,64,77791,1,0
96,64,78680,5,0
96,160,79421,2,0,B|132:256|224:256,1,170.666666666667,0|10
224,320,80458,5,0
352,320,81347,1,0
352,192,82236,5,2
352,96,82976,2,0,B|352:32|448:33|448:128,1,170.666666666667,0|8
448,192,84014,6,2,B|416:256|384:320|320:352|256:353|192:352|128:320|96:256|64:192,1,512,6|6
256,32,87570,6,2,C|272:64|232:97|256:128,1,128,4|10
256,192,88458,2,2,C|240:224|280:256|256:288,1,128,4|10
256,352,89347,1,4
