osu file format v9

[General]
AudioFilename: kiraraorz.mp3
AudioLeadIn: 2000
PreviewTime: 49296
Countdown: 0
SampleSet: Normal
StackLeniency: 0.7
Mode: 0
LetterboxInBreaks: 1

[Editor]
DistanceSpacing: 1.34
BeatDivisor: 8
GridSize: 8

[Metadata]
Title:Kira Kira Kirara (TV Size)
Artist:Uchiyae Yuka
Creator:arien666
Version:Oni
Source:Onegai My Melody Kirara
Tags:taiko taikosu arken1015

[Difficulty]
HPDrainRate:8
CircleSize:4
OverallDifficulty:7
ApproachRate:8
SliderMultiplier:1.44
SliderTickRate:1

[Events]
//Background and Video events
Video,-230,"kirarawut.avi"
0,0,"DAT DAMN RABBIT.jpg"
//Break Periods
//Storyboard Layer 0 (Background)
//Storyboard Layer 1 (Fail)
//Storyboard Layer 2 (Pass)
//Storyboard Layer 3 (Foreground)
//Storyboard Sound Samples
//Background Colour Transformations
3,100,163,162,255

[TimingPoints]
298,330.888435449181,4,1,1,80,1,0
49269,-100,4,1,1,80,0,1
65152,-100,4,1,1,80,0,0
74003,-100,4,1,1,5,0,0
74168,-100,4,1,1,80,0,0
87569,-100,4,1,1,5,0,0
87735,-100,4,1,1,80,0,0

[Colours]
Combo1 : 112,196,193
Combo2 : 243,89,34

[HitObjects]
256,192,298,12,0,1290
40,192,1621,5,0
136,192,1786,1,0
88,112,1952,1,8
220,54,2200,2,0,B|264:54,1,36
353,54,2448,1,0
304,136,2614,1,8
256,216,2779,1,0
88,312,3110,2,0,B|182:312,1,72,0|8
256,312,3441,1,0
408,192,3772,1,0
408,192,3937,1,8
360,108,4103,2,0,B|360:71,2,36
312,192,4434,5,0
312,192,4599,1,8
168,192,4847,2,0,B|112:192,1,36
88,104,5095,1,0
48,192,5261,1,8
88,280,5426,1,0
275,258,5757,2,0,B|289:302,2,36,0|0|8
322,172,6088,2,0,B|366:155,2,36,0|0|8
236,125,6419,2,0,B|222:82,2,36,0|0|8
190,211,6750,1,0
96,192,6915,6,0,B|48:192|14:226,1,72
8,304,7246,1,8
104,304,7411,2,0,B|128:336,2,36
184,232,7742,1,0
256,168,7908,1,8
328,232,8073,1,0
328,40,8404,1,0
256,104,8570,1,8
184,40,8735,1,0
256,216,9066,6,8,B|256:264,2,36,8|8|0
208,128,9397,1,0
304,128,9562,1,0
400,128,9728,2,0,B|448:104,2,36,0|0|8
352,212,10059,1,0
256,376,10389,1,0
256,280,10555,1,8
256,184,10720,1,0
32,192,11107,5,0
144,128,11327,1,0
256,64,11548,1,0
368,128,11768,1,0
480,192,11989,1,0
480,192,12209,1,2
256,192,12871,5,0
256,288,13037,2,0,B|256:328,2,36,0|0|2
256,96,13533,5,0
424,192,13864,1,8
424,336,14112,2,0,B|376:336,1,36
288,336,14360,1,0
272,240,14525,1,8
200,304,14691,1,0
40,192,15022,1,0
131,159,15187,1,8
54,100,15353,1,0
145,67,15518,1,0
224,120,15684,2,0,B|240:88,2,36,0|0|8
280,200,16014,2,0,B|320:184,2,36,0|8|0
96,264,16511,5,8
220,337,16759,2,0,B|268:337,1,36
352,336,17007,1,0
416,264,17173,1,8
352,192,17338,1,0
288,264,17503,1,0
192,264,17669,1,0
96,264,17834,1,8
144,128,18082,2,0,B|184:128,1,36
280,128,18331,2,0,B|328:128|328:176,1,72,0|8
328,264,18662,2,8,B|376:264,2,36,8|8|0
144,264,19158,5,8
16,192,19406,2,0,B|16:144,1,36
16,56,19654,2,0,B|48:88|96:88,1,72,0|8
176,88,19985,1,0
352,168,20316,1,0
288,240,20481,1,8
382,259,20647,1,0
451,192,20812,1,0
424,96,20978,2,0,B|440:56,2,36,0|0|8
451,192,21309,1,0
382,259,21474,5,0
382,259,21805,1,8
256,192,22053,2,0,B|208:192,1,36
120,192,22301,1,0
24,192,22467,1,8
72,272,22632,1,0
168,272,22798,1,0
256,312,22963,1,0
344,272,23128,1,8
344,272,23294,1,8
392,192,23459,1,0
408,96,23625,2,8,B|416:56,2,36,0|8|8
392,192,23956,1,0
291,192,24121,1,0
88,192,24452,5,8
88,48,24700,2,0,B|136:48,1,36
224,48,24948,1,0
240,144,25114,1,8
312,80,25279,1,0
472,192,25610,1,0
458,284,25776,1,8
381,225,25941,1,0
367,317,26106,1,0
288,264,26272,2,0,B|272:296,2,36,0|0|8
232,184,26603,2,0,B|192:200,2,36,0|8|0
416,120,27099,5,8
292,47,27347,2,0,B|244:47,1,36
160,48,27595,1,0
96,120,27761,1,8
160,192,27926,1,0
224,120,28092,1,0
320,120,28257,1,0
416,120,28423,1,8
368,256,28671,2,0,B|328:256,1,36
232,256,28919,2,0,B|184:256|184:208,1,72,0|8
184,120,29250,2,8,B|136:120,2,36,8|8|0
368,120,29746,5,8
496,192,29994,2,0,B|496:240,1,36
496,328,30242,2,0,B|464:296|416:296,1,72,0|8
336,296,30573,1,0
160,216,30904,1,0
224,144,31070,1,8
130,125,31235,1,0
61,192,31401,1,0
80,288,31566,2,0,B|64:328,2,36,0|0|8
61,192,31897,1,0
61,192,32062,5,4
256,56,32393,1,4
451,192,32724,1,0
451,192,32889,1,8
256,328,33220,1,0
196,93,33551,5,8
316,93,33717,1,8
256,200,33882,1,0
256,328,34048,2,0,B|256:368,2,36
256,328,34378,1,2
256,144,34709,5,0
442,192,35040,1,8
350,163,35206,2,0,B|367:120,2,36,0|0|8
256,328,35702,1,0
256,328,35867,1,0
120,192,36198,1,0
120,192,36364,1,8
256,56,36695,1,8
392,192,37026,1,0
392,192,37191,2,8,B|456:192,2,36,8|8|0
336,376,37687,5,8
256,328,37853,1,0
176,376,38018,1,8
120,192,38349,1,0
120,192,38515,1,8
304,144,38845,1,0
256,59,39011,1,8
208,144,39176,1,0
256,227,39342,2,0,B|256:268,2,36,8|0|0
304,144,39673,1,2
256,328,40003,5,4
176,192,40169,1,4
336,192,40334,1,4
160,56,40831,1,6
352,56,41162,1,4
256,224,41492,5,0
256,176,41575,1,0
256,128,41658,1,8
256,32,41823,1,0
256,32,41989,1,8
352,56,42154,1,0
352,104,42237,1,0
352,152,42320,1,8
352,248,42485,1,0
448,248,42651,5,8
448,344,42816,1,8
400,344,42899,1,8
352,344,42981,1,8
352,248,43147,1,0
304,248,43230,1,0
256,248,43312,1,0
256,152,43478,1,8
208,152,43560,1,8
160,152,43643,1,8
64,152,43809,1,0
112,64,43974,5,8
208,64,44140,1,8
256,152,44305,1,0
256,248,44470,1,0
304,248,44553,1,0
352,248,44636,1,8
448,248,44801,2,0,B|504:248|504:192,1,72,8|0
504,112,45132,1,0
504,64,45215,1,0
504,16,45298,1,8
416,64,45463,5,8
320,64,45628,1,0
224,64,45794,1,0
189,98,45877,1,0
154,132,45959,1,8
80,192,46125,1,8
80,192,46290,1,0
154,252,46456,1,0
189,286,46538,1,0
224,320,46621,5,8
320,320,46787,1,8
320,320,46952,1,0
416,320,47117,1,0
416,272,47200,1,0
416,224,47283,1,8
416,224,47448,1,8
328,192,47614,1,0
328,192,47779,1,0
40,192,48166,5,4
256,32,48387,1,4
472,192,48606,1,4
88,192,49268,5,0
112,96,49434,1,0
176,168,49599,1,8
256,288,49847,1,0
256,240,49930,1,0
336,168,50095,1,0
400,96,50261,1,8
424,192,50426,1,0
336,24,50757,5,0
256,72,50923,1,8
176,24,51088,1,8
336,128,51419,1,0
256,184,51584,1,8
176,232,51750,2,0,B|136:232,2,36
256,280,52081,5,0
336,232,52246,1,8
256,184,52412,2,0,B|256:144,2,36
176,232,52742,1,0
256,280,52908,1,8
336,232,53073,1,0
184,112,53404,6,0,B|232:112,2,36,0|0|8
336,120,53735,2,0,B|336:168,2,36,0|0|8
328,272,54066,2,0,B|280:272,2,36,0|0|8
176,264,54397,1,0
256,288,54562,5,0
256,192,54728,1,0
256,96,54893,1,8
400,96,55141,1,0
400,144,55224,1,0
400,240,55390,1,0
304,240,55555,1,8
208,240,55720,1,0
208,48,56051,5,0
304,48,56217,1,8
256,128,56382,1,8
256,320,56713,1,0
304,240,56879,1,8
208,240,57044,1,0
344,104,57375,5,0
256,128,57540,1,8
160,104,57706,1,0
112,104,57788,1,0
64,104,57871,1,0
8,184,58037,1,0
8,184,58202,1,8
64,264,58367,1,0
112,264,58450,1,0
160,264,58533,1,8
160,360,58698,5,0
208,360,58781,1,0
256,360,58864,1,8
256,264,59029,1,0
304,264,59112,1,0
352,264,59195,1,8
416,192,59360,1,0
416,144,59443,1,0
416,96,59526,1,8
336,152,59691,1,8
288,152,59774,1,8
240,152,59856,5,0
152,112,60022,1,0
233,60,60187,1,8
100,118,60436,1,0
100,118,60518,1,0
38,192,60684,1,0
100,265,60849,1,8
164,192,61015,1,0
360,192,61345,5,0
440,144,61511,1,8
440,240,61676,1,8
256,304,62007,1,0
256,304,62173,1,8
256,208,62338,1,0
256,160,62421,1,0
256,112,62504,1,0
256,16,62669,5,0
256,16,62834,1,8
392,64,63083,1,0
392,112,63165,1,0
344,192,63331,1,0
392,276,63496,1,8
440,192,63662,1,0
328,40,63993,5,0
256,104,64158,1,0
184,40,64323,1,0
256,216,64654,1,8
256,264,64737,1,8
256,312,64820,1,0
400,192,65152,5,0
256,64,65482,1,8
112,192,65813,1,0
112,288,65979,1,0
160,288,66062,1,0
208,288,66144,1,8
304,288,66310,1,0
304,288,66475,1,0
256,104,66806,5,8
208,288,67137,1,0
208,192,67302,1,0
160,192,67385,1,0
112,192,67468,1,8
160,104,67633,1,0
256,104,67799,1,0
304,288,68130,5,8
256,204,68295,1,0
208,288,68460,1,8
256,204,68626,1,0
256,155,68709,1,0
256,106,68791,1,8
304,24,68957,1,0
208,24,69122,1,0
40,120,69453,5,8
104,192,69619,1,0
40,264,69784,1,8
104,192,69949,1,0
152,192,70032,1,0
200,192,70115,1,8
283,144,70280,1,0
283,240,70446,1,0
472,192,70777,5,8
419,111,70942,1,0
328,80,71108,1,0
135,80,71438,1,8
136,272,71769,5,4
336,312,72100,1,4
376,112,72431,1,4
176,72,72762,1,4
136,272,73093,6,4,B|160:152|208:152|256:254|256:254|304:152|352:152|376:272,1,432,0|4
256,120,74416,1,4
256,120,75078,5,0
208,200,75244,1,8
208,248,75326,1,8
208,296,75409,1,0
304,296,75574,1,8
304,248,75657,1,8
304,200,75740,1,0
256,120,75905,5,0
256,24,76071,1,8
336,72,76236,1,0
384,72,76319,1,0
432,72,76402,1,0
384,152,76567,1,8
432,232,76733,1,8
432,328,76898,1,0
248,280,77229,5,0
344,280,77394,1,8
432,232,77560,1,0
432,40,77891,1,8
384,40,77973,1,8
336,40,78056,1,8
240,40,78221,1,0
144,40,78387,5,0
192,120,78552,1,0
96,120,78718,1,8
144,200,78883,1,0
144,200,78966,1,0
144,200,79049,1,0
48,200,79214,1,0
96,288,79380,1,8
192,288,79545,1,0
328,152,79876,5,0
328,152,79959,1,0
328,152,80041,1,8
296,264,80207,1,0
296,264,80290,1,0
296,264,80372,1,8
184,232,80538,1,0
184,232,80620,1,0
184,232,80703,1,8
216,120,80869,1,0
216,120,80951,1,0
216,120,81034,1,8
256,32,81199,5,8
312,112,81365,1,0
368,192,81530,1,8
416,192,81613,1,8
464,192,81696,1,0
416,280,81861,1,0
368,363,82027,1,8
322,277,82192,1,0
368,88,82523,5,8
320,88,82606,1,8
272,88,82688,1,0
272,88,82854,1,0
112,192,83185,1,8
112,240,83267,1,8
112,288,83350,1,8
196,240,83516,1,0
315,240,83681,5,8
256,336,83847,1,0
256,336,83929,1,0
256,336,84012,1,8
256,240,84177,1,0
256,240,84260,1,0
256,240,84343,1,8
256,144,84508,1,0
256,144,84591,1,0
256,144,84674,1,8
256,48,84839,1,0
424,144,85170,5,0
424,192,85253,1,0
424,240,85335,1,0
304,360,85501,1,8
256,360,85584,1,8
208,360,85666,1,8
88,240,85832,1,0
88,192,85915,1,0
88,144,85997,1,0
208,24,86163,1,8
256,192,86659,12,0,87652
256,328,87817,5,4
256,192,88066,1,4
256,56,88314,1,4
