osu file format v9

[General]
AudioFilename: kiraraorz.mp3
AudioLeadIn: 2000
PreviewTime: 49296
Countdown: 0
SampleSet: Normal
StackLeniency: 0.7
Mode: 0
LetterboxInBreaks: 1

[Editor]
DistanceSpacing: 1
BeatDivisor: 4
GridSize: 8

[Metadata]
Title:Kira Kira Kirara (TV Size)
Artist:Uchiyae Yuka
Creator:arien666
Version:Muzukashii
Source:Onegai My Melody Kirara
Tags:taiko taikosu arken1015

[Difficulty]
HPDrainRate:4
CircleSize:3
OverallDifficulty:5
ApproachRate:6
SliderMultiplier:1.44
SliderTickRate:1

[Events]
//Background and Video events
Video,-230,"kirarawut.avi"
0,0,"DAT DAMN RABBIT.jpg"
//Break Periods
//Storyboard Layer 0 (Background)
//Storyboard Layer 1 (Fail)
//Storyboard Layer 2 (Pass)
//Storyboard Layer 3 (Foreground)
//Storyboard Sound Samples
//Background Colour Transformations
3,100,163,162,255

[TimingPoints]
298,330.888435449181,4,1,1,80,1,0
49269,-100,4,1,1,80,0,1
65152,-100,4,1,1,80,0,0
73837,-100,4,1,1,5,0,0
74251,-100,4,1,1,80,0,0
85749,-100,4,1,1,5,0,0
85915,-100,4,1,1,80,0,0
86246,-100,4,1,1,5,0,0
86411,-100,4,1,1,80,0,0

[Colours]
Combo1 : 112,196,193
Combo2 : 243,89,34

[HitObjects]
256,192,298,12,0,1290
136,264,1621,5,0
256,336,1952,1,8
376,264,2283,1,0
376,120,2614,1,8
376,120,2779,1,0
256,48,3110,5,0
256,120,3275,1,0
256,192,3441,1,0
293,332,3772,1,0
221,332,3937,1,8
256,192,4268,6,0,B|256:48,1,144,0|8
136,120,4930,1,0
136,264,5261,2,0,B|200:328,1,72,8|0
328,312,5757,2,0,B|328:368|376:368,2,72
328,240,6253,2,0,B|328:160|248:120,1,144,0|2
128,192,6915,5,0
256,124,7246,1,8
384,192,7577,1,0
256,264,7908,2,0,B|256:352,1,72,8|0
288,192,8404,2,0,B|256:161|222:192,2,72
256,56,9066,2,0,B|344:56,1,72,0|8
376,192,9562,5,0
256,272,9893,1,8
136,192,10224,1,0
256,112,10555,2,0,B|256:200,1,72,8|4
32,192,13533,6,0,B|96:128,1,72
136,88,13864,1,8
256,16,14195,1,0
376,88,14525,2,0,B|448:88,1,72,8|0
352,192,15022,2,0,B|272:192,1,72,0|8
136,192,15518,2,0,B|88:192|56:224,2,72,0|0|8
256,272,16180,6,0,B|344:272,1,72
400,272,16511,1,8
504,168,16842,1,0
400,72,17173,1,8
328,72,17338,2,0,B|256:72,1,72
112,72,17834,1,8
200,192,18165,1,2
112,304,18496,1,8
256,304,18827,6,0,B|336:304,1,72
400,304,19158,1,8
488,192,19489,1,0
400,80,19820,2,0,B|400:160,1,72,8|0
256,152,20316,2,0,B|256:72,1,72,0|8
112,80,20812,2,0,B|72:80|40:112,2,72,0|0|8
256,80,21474,6,0,B|336:80,1,72
400,80,21805,1,8
488,192,22136,1,0
400,304,22467,1,8
328,304,22632,2,0,B|256:304,1,72
128,248,23128,2,0,B|88:224|75:192|88:160|128:136,1,144,2|0
400,248,24121,6,0,B|320:248,1,72
256,248,24452,1,8
128,192,24783,1,0
192,64,25114,2,0,B|248:120,1,72,8|0
384,112,25610,2,0,B|328:56,1,72,0|8
192,64,26106,2,0,B|128:128,2,72,0|0|8
328,112,26768,6,0,B|384:168,1,72
429,213,27099,1,8
328,312,27430,1,0
184,312,27761,1,8
133,261,27926,2,0,B|82:210,1,72
168,96,28423,1,8
256,210,28753,1,2
344,96,29084,1,8
256,210,29415,5,0
256,281,29581,1,0
256,352,29746,1,8
384,280,30077,1,0
328,144,30408,1,8
328,144,30573,1,0
184,144,30904,5,0
184,144,31070,1,8
200,288,31401,1,0
256,332,31566,1,0
312,288,31731,1,8
364,154,32062,5,4
148,154,32393,1,4
310,14,32724,1,8
202,14,32889,1,8
80,192,33220,2,0,B|160:336|256:151|256:151|352:336|432:192,1,504,0|2
256,64,34709,5,0
219,276,35206,2,0,B|291:276,1,72
435,276,35702,2,0,B|528:288|512:172,1,144,2|0
328,72,36529,2,0,B|248:72,1,72
112,72,37026,2,0,B|16:72|16:168,1,144,2|0
184,296,37853,6,0,B|256:296,1,72
328,168,38349,2,0,B|240:168,1,72,8|0
256,24,38845,2,0,B|184:24,1,72,0|8
88,128,39342,1,0
56,192,39507,1,0
88,256,39673,1,8
256,192,40003,5,0
328,328,40831,2,4,B|184:328,1,144
40,328,41492,1,0
40,328,41658,1,8
88,192,41989,1,2
48,56,42320,1,8
88,192,42651,6,0,B|232:192,1,144,0|2
360,120,43312,1,0
432,120,43478,1,0
504,120,43643,1,8
504,264,43974,1,0
432,264,44140,1,0
360,264,44305,1,8
240,192,44636,2,0,B|168:192,2,72,0|0|8
256,192,45298,12,0,46291
256,192,46621,5,0
256,120,46787,1,0
256,48,46952,1,8
377,124,47283,1,0
441,156,47448,1,0
441,228,47614,1,8
377,260,47779,1,0
256,336,48166,6,4,B|192:336|152:296,2,96
504,192,49269,5,0
432,312,49600,2,0,B|376:272|368:208,1,108,8|0
360,192,49931,1,0
224,155,50261,2,0,B|224:227,1,72,2|0
192,368,50757,1,0
256,336,50923,1,8
320,368,51088,1,0
256,240,51419,1,8
256,240,51584,1,8
8,192,51915,5,0
80,72,52247,2,0,B|136:112|144:176,1,108,8|0
152,192,52578,1,0
288,229,52908,2,0,B|288:157,1,72,2|0
320,16,53404,1,0
256,48,53570,1,8
192,16,53735,1,0
504,192,54562,5,0
432,72,54894,2,0,B|376:112|368:176,1,108,8|0
360,192,55225,1,0
223,156,55555,1,8
216,224,55720,1,0
208,368,56051,1,0
256,312,56217,1,8
304,368,56382,1,0
296,224,56713,5,8
289,156,56879,1,8
256,92,57044,1,0
128,152,57375,1,0
64,192,57540,1,8
32,256,57706,1,0
112,376,58037,1,0
112,376,58202,1,8
256,376,58533,1,0
8,192,59856,5,0
8,192,60187,1,8
112,192,60436,2,0,B|152:192,1,36
289,228,60849,1,8
296,160,61015,1,0
304,16,61345,1,0
256,72,61511,1,8
208,16,61676,1,0
216,160,62007,1,8
223,228,62173,1,8
360,192,62504,5,0
504,192,62834,1,8
432,112,63084,2,0,B|432:152,1,36
432,290,63496,1,8
256,192,63662,12,0,64820
256,192,65151,5,0
472,192,65647,1,0
400,192,65812,1,0
256,192,66143,1,8
256,192,66474,1,0
40,192,66972,1,0
112,192,67137,1,0
256,192,67468,1,8
256,192,67799,6,0,B|264:88|400:88|400:192|400:192|392:304|216:370|216:370|40:304|32:192|32:192|32:88|168:88|176:192,1,1008,2|0
176,192,70447,5,0
387,228,70941,1,0
387,156,71107,1,0
248,192,71438,1,8
256,336,71769,5,4
112,192,72100,1,4
256,48,72431,1,4
400,192,72762,1,4
256,336,73093,2,4,B|112:336|112:192|112:48|264:48,1,432,0|4
400,192,74416,1,4
72,192,75740,5,0
144,184,75905,1,0
208,152,76071,1,8
256,96,76236,1,0
400,96,76567,1,0
432,160,76733,1,8
464,224,76898,1,0
320,248,77229,5,0
256,280,77394,1,8
192,312,77560,1,0
56,352,77891,1,0
56,352,78056,1,2
72,192,78387,5,0
144,200,78552,1,0
208,232,78718,1,8
256,288,78883,1,0
400,288,79214,1,0
432,224,79380,1,8
464,160,79545,1,0
256,104,80041,5,8
144,192,80372,1,2
256,280,80703,1,8
368,192,81034,5,0
416,136,81199,1,0
360,88,81365,1,8
312,144,81530,1,0
168,160,81861,1,0
120,216,82027,1,8
190,230,82192,1,0
320,288,82523,5,0
376,336,82688,1,8
391,265,82854,1,0
256,192,83185,1,0
256,192,83350,1,2
256,48,83681,5,0
328,48,83847,1,0
400,48,84012,1,8
400,192,84343,1,0
328,192,84508,1,0
256,192,84674,1,8
184,192,84839,2,0,B|72:208|32:328,3,216,0|2|0|0
32,328,86659,1,4
368,192,87817,5,4
256,112,88066,1,4
144,192,88314,1,4
