osu file format v9

[General]
AudioFilename: kiraraorz.mp3
AudioLeadIn: 1000
PreviewTime: 49296
Countdown: 0
SampleSet: Normal
StackLeniency: 0.7
Mode: 0
LetterboxInBreaks: 1

[Editor]
DistanceSpacing: 0.89
BeatDivisor: 2
GridSize: 8

[Metadata]
Title:Kira Kira Kirara (TV Size)
Artist:Uchiyae Yuka
Creator:arien666
Version:Kantan
Source:Onegai My Melody Kirara
Tags:taiko taikosu arken1015

[Difficulty]
HPDrainRate:1
CircleSize:3
OverallDifficulty:1
ApproachRate:2
SliderMultiplier:0.72
SliderTickRate:1

[Events]
//Background and Video events
Video,-230,"kirarawut.avi"
0,0,"DAT DAMN RABBIT.jpg"
//Break Periods
//Storyboard Layer 0 (Background)
//Storyboard Layer 1 (Fail)
//Storyboard Layer 2 (Pass)
//Storyboard Layer 3 (Foreground)
//Storyboard Sound Samples
//Background Colour Transformations
3,100,163,162,255

[TimingPoints]
298,330.888435449181,4,1,1,80,1,0
49269,-100,4,1,1,80,0,1
65152,-100,4,1,1,80,0,0
87487,-100,4,1,1,5,0,0

[Colours]
Combo1 : 112,196,193
Combo2 : 243,89,34

[HitObjects]
32,192,1621,1,0
160,192,2283,1,0
96,80,2945,1,0
320,192,4268,5,0
192,192,4930,1,0
256,304,5592,1,0
488,192,6915,5,0
424,80,7577,1,0
360,192,8239,1,0
104,192,9562,5,0
128,64,10224,1,0
220,152,10886,2,0,B|306:153|330:77|330:77|360:152|464:152,1,288,8|0
256,352,13533,5,0
160,272,14195,1,0
56,192,14856,2,0,B|56:112,1,72
56,56,15518,1,0
184,56,16180,5,0
256,160,16842,1,0
376,192,17503,1,0
176,352,18827,5,0
256,248,19489,1,0
368,192,20150,2,0,B|408:168|416:128,1,72
415,73,20812,1,0
296,32,21474,5,0
218,135,22136,1,0
102,192,22798,1,0
296,360,24121,5,0
408,296,24783,1,0
484,192,25445,2,0,B|484:120,1,72
484,55,26106,1,0
352,56,26768,5,0
256,144,27430,1,0
160,56,28092,1,0
40,280,29415,5,0
136,192,30077,1,0
256,144,30739,2,0,B|312:144|360:176,1,72
380,192,31401,1,0
424,312,32062,5,4
200,280,33220,2,0,B|144:256|136:192|144:128|200:104,1,216
256,192,34709,5,0
464,48,36033,1,0
360,125,36695,1,8
256,48,37356,5,0
40,192,38680,1,0
256,336,40003,5,0
488,232,41327,1,0
368,8,42651,5,0
136,112,43974,1,0
256,336,45298,5,0
256,80,46621,5,0
384,80,47283,1,0
320,192,47945,1,0
110,256,49268,5,4
110,128,49930,1,4
224,192,50592,1,0
464,280,51915,5,0
368,192,52577,1,0
464,104,53239,1,0
208,144,54562,5,0
168,192,54893,1,0
128,240,55224,1,0
56,344,55886,1,0
256,184,57209,5,0
309,218,57540,1,0
360,256,57871,1,0
488,256,58533,1,0
320,64,59856,5,4
192,64,60518,1,4
256,176,61180,1,0
448,344,62504,5,0
320,344,63165,1,0
192,344,63827,1,0
256,96,65151,5,0
320,344,66474,1,0
192,344,67136,1,0
128,232,67798,2,0,B|184:64|256:223|256:223|328:64|384:232,1,432
192,64,70445,5,0
320,64,71107,1,0
352,187,71768,5,0
288,187,72099,1,0
224,187,72430,1,0
160,187,72761,1,0
95,187,73092,2,0,B|9:187|9:65,1,144
256,192,74416,12,0,77560
384,192,78387,5,0
256,192,79049,1,0
128,192,79711,1,0
320,24,81033,5,0
192,24,81695,1,0
256,128,82357,1,0
256,192,82689,1,0
256,256,83020,1,0
160,344,83681,5,0
256,256,84342,1,0
352,344,85004,1,0
56,232,86659,6,0,B|264:144,1,216,2|0
