osu file format v9

[General]
AudioFilename: kiraraorz.mp3
AudioLeadIn: 2000
PreviewTime: 49296
Countdown: 0
SampleSet: Normal
StackLeniency: 0.7
Mode: 0
LetterboxInBreaks: 1

[Editor]
DistanceSpacing: 1
BeatDivisor: 2
GridSize: 8

[Metadata]
Title:Kira Kira Kirara (TV Size)
Artist:Uchiyae Yuka
Creator:arien666
Version:Futsuu
Source:Onegai My Melody Kirara
Tags:taiko taikosu arken1015

[Difficulty]
HPDrainRate:3
CircleSize:3
OverallDifficulty:3
ApproachRate:4
SliderMultiplier:0.72
SliderTickRate:1

[Events]
//Background and Video events
Video,-230,"kirarawut.avi"
0,0,"DAT DAMN RABBIT.jpg"
//Break Periods
//Storyboard Layer 0 (Background)
//Storyboard Layer 1 (Fail)
//Storyboard Layer 2 (Pass)
//Storyboard Layer 3 (Foreground)
//Storyboard Sound Samples
//Background Colour Transformations
3,100,163,162,255

[TimingPoints]
298,330.888435449181,4,1,1,80,1,0
49269,-100,4,1,1,80,0,1
65152,-100,4,1,1,80,0,0
73837,-100,4,1,1,5,0,0
74251,-100,4,1,1,80,0,0
87487,-100,4,1,1,5,0,0

[Colours]
Combo1 : 112,196,193
Combo2 : 243,89,34

[HitObjects]
184,64,298,22,0,B|336:64,1,144
256,192,1621,5,0
308,326,2283,1,0
204,326,2779,1,0
453,120,4268,5,0
453,192,4599,1,0
453,264,4930,1,0
392,352,5426,1,0
256,192,6915,5,0
204,58,7577,1,0
308,58,8073,1,0
60,264,9562,5,0
60,192,9893,1,0
59,120,10224,1,0
120,32,10720,1,0
472,344,13533,5,0
328,344,14195,1,0
400,224,14856,1,0
400,152,15187,1,0
400,80,15518,1,0
280,152,16180,5,0
136,152,16842,1,0
208,24,17503,1,2
208,96,17834,1,8
208,168,18165,1,8
352,192,18827,5,0
256,296,19489,1,0
160,192,20150,1,0
88,192,20481,1,0
16,192,20812,1,0
112,88,21474,5,0
184,88,21805,1,0
256,88,22136,1,0
400,88,22798,1,2
112,40,24121,5,0
256,40,24783,1,0
184,160,25445,1,0
184,232,25776,1,0
184,304,26106,1,0
328,304,26768,5,0
472,304,27430,1,0
400,176,28092,1,2
400,104,28423,1,8
400,32,28753,1,8
256,80,29415,5,0
168,192,30077,1,0
256,304,30739,1,0
328,304,31070,1,0
400,304,31401,1,0
496,192,32062,5,4
496,192,32393,1,4
344,94,33220,2,0,B|316:40|256:25|196:40|168:94,1,216
120,192,34709,5,0
184,320,35371,1,0
328,320,36033,1,0
392,192,36695,1,0
328,64,37356,5,0
256,64,37687,1,0
184,64,38018,1,0
120,192,38680,1,0
365,272,40003,6,0,B|365:192,1,72
256,200,40831,2,4,B|256:280,1,72
147,272,41658,2,8,B|147:192,1,72
160,56,42651,6,0,B|208:112|256:80|256:80|304:112|352:56,1,216
424,56,43974,1,0
384,192,44636,1,0
256,192,45298,12,8,46291
256,192,46621,5,0
256,192,47283,1,0
256,192,47945,12,6,48938
112,192,49268,5,0
184,192,49599,1,0
256,192,49930,1,0
328,192,50261,1,0
472,192,50923,1,0
328,32,51915,5,0
256,32,52246,1,0
184,32,52577,1,0
80,32,53073,2,0,B|0:136|0:280,1,252
0,336,54562,5,0
144,336,55225,1,0
248,336,55721,1,0
400,24,57209,5,0
328,24,57540,1,0
256,24,57871,1,0
184,24,58202,1,0
112,24,58533,1,0
400,192,59856,5,0
328,192,60187,1,0
256,192,60518,1,0
184,192,60849,1,0
40,192,61511,1,0
184,352,62504,5,0
256,352,62834,1,0
328,352,63165,1,0
432,352,63662,2,0,B|512:240|512:104,1,252,2|0
512,48,65151,5,0
368,48,65812,1,0
256,136,66474,1,0
256,280,67136,1,0
184,280,67467,1,0
112,280,67798,2,0,B|160:120|256:199|352:120|400:280,1,396
256,264,70445,5,0
256,120,71107,1,0
128,192,71768,1,0
200,192,72099,1,0
221,260,72430,1,4
293,260,72761,1,4
312,192,73092,6,0,B|256:128|256:16,1,180
364,24,74417,1,4
328,312,75740,5,0
256,312,76071,1,0
184,312,76402,1,0
184,168,77063,1,0
256,168,77394,1,0
328,168,77725,1,0
400,40,78387,5,0
328,40,78718,1,0
256,40,79049,1,0
184,40,79380,1,0
112,40,79710,1,0
184,320,81034,5,0
256,320,81365,1,0
328,320,81696,1,0
456,248,82358,5,0
408,192,82688,1,0
456,136,83019,1,0
320,80,83681,5,0
256,112,84012,1,0
192,80,84343,1,0
256,192,84674,12,0,86329
168,192,86659,6,0,B|208:256|256:224|256:224|304:256|345:191,1,216,2|0
