osu file format v13

[General]
AudioFilename: soushou no innocence.mp3
AudioLeadIn: 0
PreviewTime: 49208
Countdown: 0
SampleSet: Soft
StackLeniency: 0.7
Mode: 0
LetterboxInBreaks: 0
WidescreenStoryboard: 1

[Editor]
DistanceSpacing: 1
BeatDivisor: 4
GridSize: 4
TimelineZoom: 1

[Metadata]
Title:Soushou Innocence
TitleUnicode:創傷イノセンス
Artist:Uchida Maaya
ArtistUnicode:内田真礼
Creator:Yasora
Version:Insane
Source:悪魔のリドル
Tags:opening Akuma no Riddle Story of Devil rossonero1899
BeatmapID:466918
BeatmapSetID:195293

[Difficulty]
HPDrainRate:7
CircleSize:4
OverallDifficulty:7
ApproachRate:9
SliderMultiplier:1.7
SliderTickRate:1

[Events]
//Background and Video events
0,0,"o.o.jpg",0,0
//Break Periods
//Storyboard Layer 0 (Background)
//Storyboard Layer 1 (Fail)
//Storyboard Layer 2 (Pass)
//Storyboard Layer 3 (Foreground)
//Storyboard Sound Samples
//Background Colour Transformations
3,100,163,162,255

[TimingPoints]
477,292.682926829268,4,2,1,60,1,0
5159,-100,4,2,1,70,0,0
49647,-100,4,2,1,70,0,1
59013,-100,4,2,1,70,0,0
73062,-100,4,2,1,70,0,0
77745,-100,4,2,1,70,0,0
86745,-100,4,2,1,70,0,0

[Colours]
Combo1 : 255,128,64
Combo2 : 0,64,128
Combo3 : 128,128,192
Combo4 : 221,0,0

[HitObjects]
128,148,477,6,0,L|40:160,1,85,0|0,1:0|1:0,0:0:0:0:
96,56,769,2,0,L|196:44,1,85,0|0,1:0|1:0,0:0:0:0:
244,120,1062,2,0,B|296:120|296:120|316:184|388:208,1,170,0|2,0:0|0:0,0:0:0:0:
310,282,1501,6,0,B|258:282|258:282|238:218|166:194,1,170
116,280,1940,2,0,P|148:304|172:352,1,85,2|0,0:0|0:0,0:0:0:0:
76,176,2233,2,0,L|88:76,1,85
184,24,2525,2,0,L|176:120,1,85,2|0,0:0|0:0,0:0:0:0:
303,191,2818,6,0,P|286:228|289:274,1,85,0|0,1:0|1:0,0:0:0:0:
376,248,3111,2,0,P|424:240|456:216,1,85,0|0,1:0|1:0,0:0:0:0:
385,152,3403,2,0,P|325:102|238:126,1,170,0|2,0:0|0:0,0:0:0:0:
140,248,3842,6,0,P|196:304|284:284,1,170,2|2,0:0|0:0,0:0:0:0:
376,248,4281,1,2,0:0:0:0:
176,160,4428,2,0,P|136:152|80:176,2,85,0|0|0,0:0|0:0|0:0,0:0:0:0:
348,64,4867,1,0,1:0:0:0:
348,64,5159,6,0,P|308:128|272:232,1,170,4|8,0:0|0:0,0:0:0:0:
440,112,5598,2,0,P|424:192|448:296,1,170,2|0,0:0|0:0,0:0:0:0:
176,327,6037,2,0,P|188:244|164:156,1,170,10|0,0:0|0:0,0:0:0:0:
64,124,6476,6,0,L|36:40,2,85,2|8|2,0:0|0:0|0:0,0:0:0:0:
76,228,6916,2,0,P|68:276|80:320,1,85,0|2,0:0|0:0,0:0:0:0:
176,328,7208,2,0,L|284:324,1,85,8|0,0:0|0:0,0:0:0:0:
368,244,7501,6,0,P|376:204|375:159,1,85,2|0,0:0|0:0,0:0:0:0:
256,144,7794,2,0,L|156:172,1,85,8|2,0:0|0:0,0:0:0:0:
64,124,8086,2,0,P|44:84|32:32,2,85,2|0|8,0:0|0:0|0:0,0:0:0:0:
148,220,8525,1,2,0:0:0:0:
240,40,8672,6,0,L|232:136,1,85,2|0,0:0|0:0,0:0:0:0:
272,344,8964,2,0,L|280:248,1,85,10|0,0:0|0:0,0:0:0:0:
112,68,9257,2,0,B|100:184|100:184|128:240,1,170,2|8,0:0|0:0,0:0:0:0:
172,324,9696,1,8,0:0:0:0:
364,288,9842,6,0,P|388:208|384:120,1,170,4|8,0:0|0:0,0:0:0:0:
208,40,10281,2,0,P|204:120|224:224,1,170,2|0,0:0|0:0,0:0:0:0:
364,288,10720,2,0,P|400:228|424:128,1,170,10|0,0:0|0:0,0:0:0:0:
292,32,11159,6,0,L|200:40,1,85,2|8,0:0|0:0,0:0:0:0:
56,192,11452,2,0,P|152:180|196:120,1,170,2|2,0:0|0:0,0:0:0:0:
84,72,11891,1,8,0:0:0:0:
56,192,12037,1,0,0:0:0:0:
108,296,12184,6,0,P|80:308|32:344,2,85,2|0|10,0:0|0:0|0:0,0:0:0:0:
204,260,12623,1,0,0:0:0:0:
300,292,12769,2,0,P|328:304|376:340,1,85,2|0,0:0|0:0,0:0:0:0:
468,296,13062,1,8,0:0:0:0:
436,200,13208,1,0,0:0:0:0:
436,200,13281,1,0,0:0:0:0:
436,200,13355,6,0,P|424:156|408:112,1,85,0|0,1:0|0:0,0:0:0:0:
248,40,13647,2,0,P|260:80|296:140,1,85,8|0,0:0|0:0,0:0:0:0:
300,292,13940,2,0,L|332:196,1,85,0|0,1:0|0:0,0:0:0:0:
168,124,14233,2,0,L|108:188,1,85,8|0,0:0|0:0,0:0:0:0:
48,324,14525,6,0,B|116:296|180:344|180:344|212:304,1,170,4|8,0:0|0:0,0:0:0:0:
300,292,14964,2,0,P|376:340|460:312,1,170,0|0,3:0|3:0,0:0:0:0:
388,236,15403,1,8,0:0:0:0:
296,196,15550,6,0,P|216:160|148:212,1,170,2|2,0:0|0:0,0:0:0:0:
208,324,15989,2,0,L|226:241,1,85,8|0,0:0|3:0,0:0:0:0:
68,220,16281,1,2,0:0:0:0:
68,220,16355,1,0,0:0:0:0:
68,220,16428,2,0,P|80:268|100:312,1,85,0|8,2:0|0:0,0:0:0:0:
164,160,16720,1,0,0:0:0:0:
88,104,16867,6,0,B|128:56|196:72|196:72|260:44,1,170,2|8,0:0|0:0,0:0:0:0:
332,116,17306,1,0,3:0:0:0:
420,176,17452,2,0,P|416:228|400:264,1,85,2|0,0:0|3:0,0:0:0:0:
312,308,17745,1,8,0:0:0:0:
212,280,17891,1,0,0:0:0:0:
128,336,18037,6,0,P|88:356|40:364,1,85,2|0,0:0|0:0,0:0:0:0:
36,264,18330,1,8,0:0:0:0:
36,264,18403,1,0,0:0:0:0:
36,264,18476,2,0,P|36:204|44:176,1,85,0|2,3:0|0:0,0:0:0:0:
112,104,18769,1,0,3:0:0:0:
212,88,18916,2,0,P|256:92|304:108,1,85,8|0,0:0|0:0,0:0:0:0:
428,196,19208,6,0,P|432:288|360:340,1,170,4|8,0:0|0:0,0:0:0:0:
340,240,19647,2,0,P|340:148|412:96,1,170,0|0,3:0|3:0,0:0:0:0:
428,196,20086,1,8,0:0:0:0:
304,328,20233,6,0,P|260:348|144:304,1,170,0|0,3:0|3:0,0:0:0:0:
112,216,20672,2,0,P|108:173|116:132,1,85,8|0,0:0|0:0,0:0:0:0:
172,48,20964,1,2,0:0:0:0:
204,36,21037,1,0,0:0:0:0:
240,36,21111,1,0,3:0:0:0:
340,40,21257,1,8,0:0:0:0:
440,64,21403,6,0,P|400:128|304:136,1,170,2|2,0:0|0:0,0:0:0:0:
208,152,21842,1,8,0:0:0:0:
124,208,21989,2,0,P|112:256|132:308,1,85,0|2,3:0|0:0,0:0:0:0:
208,340,22281,2,0,L|292:332,1,85,0|8,3:0|0:0,0:0:0:0:
216,248,22574,6,0,L|44:260,1,170,2|0,0:0|3:0,0:0:0:0:
60,56,23013,2,0,P|72:112|84:152,1,85,8|0,0:0|3:0,0:0:0:0:
112,152,23233,1,0,0:0:0:0:
144,136,23306,2,0,P|200:124|252:136,1,85,2|0,0:0|3:0,0:0:0:0:
316,176,23598,2,0,B|332:224|332:224|328:240|328:272,1,85,8|0,0:0|0:0,0:0:0:0:
332,360,23891,6,0,P|284:356|240:348,1,85,4|0,0:0|0:0,0:0:0:0:
316,176,24184,2,0,P|364:180|408:188,1,85,0|0,1:0|0:0,0:0:0:0:
220,312,24476,2,0,P|220:272|228:228,1,85,0|0,1:0|0:0,0:0:0:0:
428,192,24769,2,0,P|428:232|420:276,1,85,8|0,0:0|0:0,0:0:0:0:
252,96,25062,6,0,P|292:84|344:80,1,85,8|0,0:0|0:0,0:0:0:0:
184,200,25355,2,0,P|144:212|92:216,1,85,8|0,0:0|0:0,0:0:0:0:
144,48,25647,2,0,P|186:52|226:64,1,85,0|0,1:0|0:0,0:0:0:0:
64,196,25940,2,0,P|48:152|44:112,1,85,8|0,0:0|0:0,0:0:0:0:
276,192,26233,5,8,0:0:0:0:
300,320,26379,1,0,0:0:0:0:
400,236,26525,2,0,P|408:188|396:144,1,85,8|0,0:0|0:0,0:0:0:0:
300,320,26818,2,0,P|340:336|396:332,2,85,0|0|4,1:0|0:0|0:0,0:0:0:0:
200,280,27257,1,0,0:0:0:0:
100,272,27403,6,0,P|104:228|96:172,1,85,4|0,0:0|0:0,0:0:0:0:
76,148,27623,1,0,0:0:0:0:
56,104,27696,2,0,P|96:80|132:52,1,85,4|0,0:0|0:0,0:0:0:0:
228,56,27989,1,4,0:0:0:0:
228,56,28062,1,0,0:0:0:0:
228,56,28135,2,0,P|268:64|316:80,1,85,0|4,3:0|0:0,0:0:0:0:
392,184,28428,1,0,3:0:0:0:
344,308,28574,6,0,P|264:316|204:248,1,170,4|8,0:0|0:0,0:0:0:0:
92,204,29013,1,0,3:0:0:0:
308,143,29159,2,0,P|305:186|296:227,2,85,2|0|8,0:0|3:0|0:0,0:0:0:0:
184,120,29598,2,0,P|143:126|103:110,1,85,0|2,3:0|0:0,0:0:0:0:
264,60,29891,6,0,P|304:48|356:60,1,85,0|8,3:0|0:0,0:0:0:0:
436,96,30184,2,0,P|432:144|444:200,1,85,0|2,3:0|0:0,0:0:0:0:
344,336,30476,2,0,P|356:292|360:248,1,85,0|8,3:0|0:0,0:0:0:0:
280,188,30769,1,0,3:0:0:0:
176,184,30916,6,0,B|188:248|188:248|176:280|216:312|192:356,1,170,2|8,0:0|0:0,0:0:0:0:
68,268,31355,1,0,3:0:0:0:
176,184,31501,1,2,0:0:0:0:
156,340,31647,2,0,P|192:348|248:336,1,85,0|8,3:0|0:0,0:0:0:0:
328,288,31940,6,0,P|352:208|332:104,1,170,2|2,0:0|0:0,0:0:0:0:
256,160,32379,2,0,P|256:208|240:252,1,85,8|0,0:0|3:0,0:0:0:0:
144,268,32672,1,2,0:0:0:0:
112,112,32818,2,0,L|196:96,1,85,0|8,3:0|0:0,0:0:0:0:
244,242,33111,1,0,3:0:0:0:
64,192,33257,6,0,P|20:132|56:40,1,170,4|8,0:0|0:0,0:0:0:0:
148,28,33696,1,0,3:0:0:0:
236,80,33842,2,0,L|320:90,1,85,2|0,0:0|3:0,0:0:0:0:
408,88,34135,1,8,0:0:0:0:
408,88,34281,6,0,P|371:162|288:172,1,170,2|2,0:0|0:0,0:0:0:0:
228,252,34720,2,0,L|216:360,1,85,8|0,0:0|3:0,0:0:0:0:
320,352,35013,1,2,0:0:0:0:
411,307,35159,2,0,P|460:304|496:280,1,85,0|8,3:0|0:0,0:0:0:0:
428,204,35452,1,0,3:0:0:0:
480,116,35598,6,0,P|396:104|336:160,1,170,2|8,0:0|0:0,0:0:0:0:
300,256,36037,1,0,0:0:0:0:
224,328,36184,2,0,P|180:336|140:328,1,85,8|0,0:0|3:0,0:0:0:0:
56,272,36476,1,8,0:0:0:0:
80,172,36623,6,0,P|128:132|236:176,1,170,2|2,0:0|0:0,0:0:0:0:
328,152,37062,2,0,P|408:144|456:72,1,170,8|2,0:0|0:0,0:0:0:0:
356,56,37501,1,0,0:0:0:0:
324,48,37574,1,0,0:0:0:0:
292,52,37647,1,8,0:0:0:0:
260,68,37720,1,0,0:0:0:0:
240,96,37794,1,8,0:0:0:0:
228,128,37867,1,0,0:0:0:0:
228,160,37940,6,0,P|240:216|272:248,1,85,4|0,0:0|0:0,0:0:0:0:
320,316,38233,2,0,L|424:304,1,85,8|0,0:0|0:0,0:0:0:0:
168,284,38525,6,0,L|72:296,1,85,0|0,1:0|0:0,0:0:0:0:
52,120,38818,2,0,P|100:128|144:144,1,85,8|0,0:0|0:0,0:0:0:0:
316,236,39111,6,0,L|416:224,1,85,0|0,1:0|0:0,0:0:0:0:
216,76,39403,2,0,L|228:164,1,85,8|0,0:0|0:0,0:0:0:0:
396,312,39696,6,0,L|480:296,1,85,0|0,1:0|0:0,0:0:0:0:
304,112,39989,2,0,L|316:208,1,85,8|0,0:0|0:0,0:0:0:0:
464,52,40281,6,0,L|368:64,1,85,4|0,0:0|0:0,0:0:0:0:
228,304,40574,2,0,L|220:216,1,85,8|0,0:0|0:0,0:0:0:0:
440,144,40867,6,0,L|340:156,1,85,0|0,1:0|0:0,0:0:0:0:
136,240,41159,2,0,L|128:148,1,85,8|0,0:0|0:0,0:0:0:0:
256,52,41452,5,2,0:0:0:0:
256,52,41598,2,0,L|264:152,1,85,0|8,0:0|0:0,0:0:0:0:
352,288,41891,2,0,L|344:200,2,85,0|2|0,0:0|0:0|0:0,0:0:0:0:
172,152,42330,2,0,L|180:244,1,85,8|0,0:0|0:0,0:0:0:0:
352,288,42623,6,0,P|392:300|432:324,1,85,4|0,0:0|0:0,0:0:0:0:
260,248,42916,2,0,P|256:200|268:160,1,85,10|0,0:0|0:0,0:0:0:0:
268,348,43208,2,0,P|224:356|180:344,1,85,2|0,0:0|0:0,0:0:0:0:
108,288,43501,2,0,P|100:228|104:200,1,85,10|0,0:0|0:0,0:0:0:0:
256,56,43794,6,0,L|352:64,1,85,2|0,0:0|0:0,0:0:0:0:
172,110,44086,2,0,L|88:100,1,85,10|0,0:0|0:0,0:0:0:0:
315,170,44379,2,0,L|400:180,1,85,2|0,0:0|0:0,0:0:0:0:
260,247,44672,2,0,L|176:236,1,85,10|0,0:0|0:0,0:0:0:0:
76,220,44964,5,4,0:0:0:0:
96,320,45111,1,2,0:0:0:0:
200,336,45257,1,2,0:0:0:0:
260,248,45403,1,8,0:0:0:0:
180,160,45550,1,2,0:0:0:0:
76,220,45696,5,2,0:0:0:0:
180,160,45842,1,8,0:0:0:0:
136,56,45989,1,2,0:0:0:0:
76,220,46135,6,0,P|148:272|228:268,1,170,4|4,0:0|0:0,0:0:0:0:
288,136,46574,1,0,0:0:0:0:
136,56,46720,2,0,P|112:96|100:144,1,85,4|0,0:0|0:0,0:0:0:0:
288,136,47013,2,0,P|276:96|252:48,1,85,4|0,0:0|0:0,0:0:0:0:
256,252,47306,5,4,0:0:0:0:
256,252,48769,5,4,0:0:0:0:
424,324,49062,1,0,1:0:0:0:
432,304,49135,1,0,0:0:0:0:
440,284,49208,1,0,0:0:0:0:
448,264,49281,1,0,0:0:0:0:
456,244,49355,1,0,1:0:0:0:
456,244,49647,6,0,P|456:168|448:128,1,85,4|0,0:0|0:0,0:0:0:0:
420,68,49940,2,0,P|384:93|361:142,1,85,8|0,0:0|3:0,0:0:0:0:
308,216,50233,2,0,P|232:236|164:184,1,170,2|8,0:0|0:0,0:0:0:0:
248,147,50672,6,0,L|203:325,1,170,2|2,0:0|0:0,0:0:0:0:
80,276,51111,2,0,P|80:212|84:188,1,85,8|0,0:0|3:0,0:0:0:0:
248,148,51403,2,0,L|160:124,1,85,10|0,0:0|3:0,0:0:0:0:
104,44,51696,1,8,0:0:0:0:
204,40,51842,6,0,L|384:92,1,170,2|2,0:0|0:0,0:0:0:0:
416,176,52281,2,0,P|408:228|392:264,1,85,8|0,0:0|3:0,0:0:0:0:
312,316,52574,1,2,0:0:0:0:
216,352,52720,1,0,3:0:0:0:
124,308,52867,1,8,0:0:0:0:
112,208,53013,1,0,0:0:0:0:
172,124,53159,6,0,P|212:120|272:144,1,85,2|0,0:0|0:0,0:0:0:0:
320,212,53452,2,0,P|280:232|232:232,1,85,8|2,0:0|0:0,0:0:0:0:
384,136,53745,2,0,P|420:116|472:116,1,85,0|2,3:0|0:0,0:0:0:0:
448,216,54037,1,8,0:0:0:0:
384,296,54184,1,2,0:0:0:0:
384,296,54257,1,0,0:0:0:0:
384,296,54330,6,0,P|332:332|232:288,1,170,4|8,0:0|0:0,0:0:0:0:
100,204,54769,2,0,P|144:192|180:204,1,85,0|2,3:0|0:0,0:0:0:0:
138,296,55062,1,0,3:0:0:0:
100,204,55208,1,8,0:0:0:0:
60,108,55355,6,0,P|100:88|152:84,1,85,2|0,0:0|0:0,0:0:0:0:
240,88,55647,1,2,0:0:0:0:
340,100,55794,2,0,P|352:144|384:184,1,85,8|0,0:0|3:0,0:0:0:0:
452,244,56086,2,0,P|436:336|368:376,1,170,8|8,0:0|0:0,0:0:0:0:
268,272,56525,6,0,L|352:275,1,85,2|0,0:0|0:0,0:0:0:0:
180,328,56818,2,0,P|168:272|164:240,1,85,2|8,0:0|0:0,0:0:0:0:
160,144,57111,1,0,3:0:0:0:
184,44,57257,1,2,0:0:0:0:
280,32,57403,2,0,P|276:76|248:116,1,85,0|8,3:0|0:0,0:0:0:0:
84,80,57696,1,0,3:0:0:0:
112,244,57842,5,4,0:0:0:0:
324,344,58135,1,4,0:0:0:0:
312,80,58428,1,4,0:0:0:0:
312,80,58720,1,8,0:0:0:0:
316,112,58794,1,0,0:0:0:0:
320,144,58867,1,0,0:0:0:0:
324,176,58940,1,0,0:0:0:0:
328,208,59013,6,0,B|296:264|240:288|240:288|184:260,1,170,4|8,0:0|0:0,0:0:0:0:
92,168,59452,1,0,3:0:0:0:
200,68,59598,2,0,P|204:128|196:160,1,85,8|0,0:0|3:0,0:0:0:0:
144,344,59891,2,0,P|136:296|148:252,1,85,8|0,0:0|3:0,0:0:0:0:
240,300,60184,6,0,P|280:308|328:300,1,85,8|0,0:0|3:0,0:0:0:0:
320,200,60476,2,0,P|304:160|308:116,1,85,8|0,0:0|3:0,0:0:0:0:
392,64,60769,1,8,0:0:0:0:
476,124,60916,1,0,3:0:0:0:
500,224,61062,2,0,L|412:248,1,85,8|0,0:0|3:0,0:0:0:0:
320,200,61355,6,0,P|264:228|168:160,1,170,4|8,0:0|0:0,0:0:0:0:
128,92,61794,1,0,3:0:0:0:
256,144,61940,2,0,P|244:220|148:264,1,170,8|8,0:0|0:0,0:0:0:0:
128,92,62379,6,0,P|196:40|284:64,1,170,0|0,3:0|3:0,0:0:0:0:
356,116,62818,1,8,0:0:0:0:
356,116,63111,1,4,0:0:0:0:
356,116,63403,2,0,P|368:160|372:204,1,85,8|0,0:0|0:0,0:0:0:0:
312,312,63696,6,0,P|264:324|224:312,1,85,4|0,0:0|0:0,0:0:0:0:
128,332,63989,2,0,P|136:272|152:248,1,85,8|0,0:0|0:0,0:0:0:0:
120,156,64281,2,0,P|176:152|216:180,1,85,8|0,0:0|0:0,0:0:0:0:
276,96,64574,2,0,P|300:140|300:204,1,85,8|0,0:0|0:0,0:0:0:0:
312,312,64867,6,0,P|268:316|224:300,1,85,8|0,0:0|0:0,0:0:0:0:
388,236,65159,2,0,P|432:232|476:248,1,85,8|0,0:0|0:0,0:0:0:0:
304,296,65452,2,0,P|292:252|296:212,1,85,8|0,0:0|0:0,0:0:0:0:
392,252,65745,2,0,P|404:296|396:344,1,85,8|0,0:0|0:0,0:0:0:0:
212,172,66037,6,0,P|268:124|372:160,1,170,4|0,0:0|1:0,0:0:0:0:
156,260,66476,2,0,P|112:192|136:104,1,170,4|0,0:0|0:0,0:0:0:0:
212,172,66916,1,0,1:0:0:0:
360,328,67062,6,0,B|296:328|296:328|272:348|272:348|184:348,1,170,4|0,0:0|0:0,0:0:0:0:
192,64,67501,2,0,L|312:72,1,85,0|0,1:0|0:0,0:0:0:0:
328,245,67794,2,0,P|247:244|212:171,1,170,4|0,0:0|1:0,0:0:0:0:
284,96,68233,1,0,0:0:0:0:
408,184,68379,6,0,B|448:228|440:304|360:304|408:360,1,170,4|2,0:0|0:0,0:0:0:0:
328,244,68818,1,0,0:0:0:0:
252,300,68964,2,0,B|212:256|220:180|300:180|252:124,1,170,0|2,1:0|0:0,0:0:0:0:
140,224,69403,6,0,P|140:300|208:388,1,170,0|0,1:0|1:0,0:0:0:0:
252,300,69842,2,0,P|288:316|344:320,2,85,2|0|0,0:0|0:0|1:0,0:0:0:0:
232,200,70281,1,0,0:0:0:0:
160,128,70428,2,0,P|116:124|72:152,1,85,2|0,0:0|0:0,0:0:0:0:
256,96,70720,6,0,P|336:116|412:60,1,170,4|2,0:0|0:0,0:0:0:0:
320,20,71159,1,0,0:0:0:0:
448,148,71306,2,0,P|480:112|500:68,2,85,0|0|2,1:0|0:0|0:0,0:0:0:0:
408,244,71745,6,0,P|324:216|256:260,1,170,0|0,1:0|1:0,0:0:0:0:
184,324,72184,1,2,0:0:0:0:
184,324,72476,1,0,1:0:0:0:
184,324,72769,2,0,P|156:284|136:236,1,85,2|0,0:0|0:0,0:0:0:0:
104,156,73062,5,4,0:0:0:0:
116,132,73355,1,0,0:0:0:0:
128,108,73647,1,0,0:0:0:0:
140,84,73940,1,0,0:0:0:0:
256,188,74233,5,0,0:0:0:0:
276,204,74525,1,0,0:0:0:0:
304,188,74818,1,0,0:0:0:0:
332,204,75111,1,0,0:0:0:0:
332,204,75403,5,0,0:0:0:0:
256,192,75696,12,4,77745,0:0:0:0:
256,332,78037,5,8,0:0:0:0:
256,332,78184,2,0,P|176:320|136:244,1,170,2|2,0:0|0:0,0:0:0:0:
332,236,78623,1,8,0:0:0:0:
332,236,78769,2,0,B|328:192|304:164|304:164|368:72,1,170,2|2,0:0|0:0,0:0:0:0:
232,236,79208,5,8,0:0:0:0:
220,52,79355,2,0,P|208:108|204:144,1,85,2|0,0:0|0:0,0:0:0:0:
284,328,79647,2,0,P|328:332|372:328,1,85,2|8,0:0|0:0,0:0:0:0:
408,104,79940,6,0,L|332:156,1,85,2|2,0:0|0:0,0:0:0:0:
424,244,80233,1,0,0:0:0:0:
404,12,80379,2,0,L|332:60,1,85,10|0,0:0|0:0,0:0:0:0:
332,236,80672,1,2,0:0:0:0:
256,168,80818,2,0,P|208:180|168:164,1,85,0|8,0:0|0:0,0:0:0:0:
80,136,81111,1,2,0:0:0:0:
56,288,81257,6,0,L|156:272,1,85,2|0,0:0|0:0,0:0:0:0:
80,136,81550,2,0,L|-16:148,1,85,10|0,0:0|0:0,0:0:0:0:
164,272,81842,2,0,B|200:304|200:304|260:316,1,85,2|0,0:0|0:0,0:0:0:0:
332,236,82135,1,8,0:0:0:0:
324,128,82281,1,8,0:0:0:0:
232,92,82428,6,0,P|224:144|244:192,1,85,4|2,0:0|0:0,0:0:0:0:
332,236,82720,1,10,0:0:0:0:
304,44,82867,2,0,L|152:136,1,170,2|2,0:0|0:0,0:0:0:0:
112,224,83306,1,8,0:0:0:0:
104,324,83452,6,0,P|180:344|268:300,1,170,2|2,0:0|0:0,0:0:0:0:
332,236,83891,2,0,P|356:272|360:320,1,85,8|2,0:0|0:0,0:0:0:0:
236,200,84184,2,0,P|260:160|304:140,1,85,0|2,0:0|0:0,0:0:0:0:
204,288,84476,2,0,P|167:266|147:230,1,85,8|0,0:0|0:0,0:0:0:0:
256,60,84769,6,0,L|352:76,2,85,2|2|8,0:0|0:0|0:0,0:0:0:0:
148,136,85208,1,2,0:0:0:0:
84,252,85355,2,0,L|96:336,2,85,2|0|8,0:0|0:0|0:0,0:0:0:0:
80,68,85794,1,2,0:0:0:0:
216,204,85940,6,0,P|258:194|312:196,1,85,8|0,0:0|0:0,0:0:0:0:
396,224,86233,1,8,0:0:0:0:
444,312,86379,1,4,0:0:0:0:
444,312,86672,1,4,0:0:0:0:
256,192,86745,12,0,87696,0:0:0:0:
