osu file format v14

[General]
AudioFilename: Twintails.mp3
AudioLeadIn: 267
PreviewTime: 47333
Countdown: 0
SampleSet: Soft
StackLeniency: 0.7
Mode: 0
LetterboxInBreaks: 0
WidescreenStoryboard: 0

[Editor]
Bookmarks: 58449
DistanceSpacing: 1
BeatDivisor: 4
GridSize: 4
TimelineZoom: 0.9999998

[Metadata]
Title:Gimme! Revolution
TitleUnicode:ギミー!レボリューション
Artist:Uchida Maaya
ArtistUnicode:内田真礼
Creator:Underflow
Version:Insane
Source:俺、ツインテールになります。
Tags:Ore Twintail ni Narimasu Gonna be the twin-tails TV Size Opening
BeatmapID:530893
BeatmapSetID:227893

[Difficulty]
HPDrainRate:6
CircleSize:4
OverallDifficulty:7
ApproachRate:9
SliderMultiplier:1.8
SliderTickRate:1

[Events]
//Background and Video events
Video,213,"Twintails.flv"
0,0,"Red-B.jpg",0,0
//Break Periods
//Storyboard Layer 0 (Background)
//Storyboard Layer 1 (Fail)
//Storyboard Layer 2 (Pass)
//Storyboard Layer 3 (Foreground)
//Storyboard Sound Samples

[TimingPoints]
0,333.333333333333,4,2,1,60,1,0
1333,-83.3333333333333,4,2,1,60,0,0
2499,-142.857142857143,4,2,1,60,0,0
3833,-117.647058823529,4,2,1,60,0,0
6666,-142.857142857143,4,2,1,60,0,0
7333,-117.647058823529,4,2,1,60,0,0
7666,-100,4,2,1,60,0,0
12999,-111.111111111111,4,2,1,60,0,0
20166,-90.9090909090909,4,2,1,60,0,0
20499,-111.111111111111,4,2,1,60,0,0
22499,-100,4,2,1,60,0,0
23499,-166.666666666667,4,2,1,60,0,0
23999,-111.111111111111,4,2,1,60,0,0
30833,-100,4,2,1,60,0,0
31166,-111.111111111111,4,2,1,60,0,0
33166,-100,4,2,1,60,0,0
33999,-111.111111111111,4,2,1,60,0,0
34666,-125,4,2,1,60,0,0
35333,-142.857142857143,4,2,1,60,0,0
35833,-125,4,2,1,60,0,0
36499,-142.857142857143,4,2,1,60,0,0
37166,-125,4,2,1,60,0,0
39999,-111.111111111111,4,2,1,60,0,0
40333,-100,4,2,1,60,0,0
40666,-90.9090909090909,4,2,1,60,0,0
41166,-111.111111111111,4,2,1,60,0,0
41666,-100,4,2,1,60,0,0
41999,-90.9090909090909,4,2,1,60,0,0
42333,-111.111111111111,4,2,1,60,0,0
42666,-100,4,2,1,60,0,0
43666,-90.9090909090909,4,2,1,60,0,0
43999,-100,4,2,1,60,0,0
47333,-125,4,2,1,60,0,0
47999,-100,4,2,1,60,0,1
67999,-117.647058823529,4,2,1,60,0,0
70999,-100,4,2,1,60,0,0
71833,-100,4,2,1,60,0,1
73999,-76.9230769230769,4,2,1,60,0,0
74333,-111.111111111111,4,2,1,60,0,0
74666,-100,4,2,1,60,0,0
77833,-95.2380952380952,4,2,1,60,0,0
78499,-90.9090909090909,4,2,1,60,0,0
79833,-100,4,2,1,60,0,0
81166,-111.111111111111,4,2,1,50,0,0
81499,-100,4,2,1,55,0,0
81833,-90.9090909090909,4,2,1,60,0,0
82167,-100,4,2,1,60,0,0
84499,-95.2380952380952,4,2,1,60,0,0
85833,-90.9090909090909,4,2,1,60,0,0
87166,-86.9565217391304,4,2,1,60,0,0

[Colours]
Combo1 : 255,245,125
Combo2 : 255,67,81
Combo3 : 0,128,255

[HitObjects]
128,56,1333,6,0,P|184:104|76:124,1,215.999993408203,4|0,0:0|0:0,0:0:0:0:
91,150,2499,6,0,L|108:280,1,125.999996154785,4|2,0:0|0:0,0:0:0:0:
36,360,2999,1,8,0:0:0:0:
212,248,3166,1,4,0:0:0:0:
220,240,3499,2,0,L|296:256,1,62.9999980773926,8|8,0:0|0:0,0:0:0:0:
432,284,3833,6,0,B|388:296|348:284|348:284|328:320|288:328,1,153.000002918243,4|8,0:0|0:0,0:0:0:0:
208,344,4333,1,2,0:0:0:0:
320,204,4499,2,0,B|320:172|336:140|336:140|328:112|328:112|344:88|340:48,1,153.000002918243,12|8,0:0|0:0,0:0:0:0:
400,192,4999,1,2,0:0:0:0:
268,68,5166,6,0,P|220:52|192:32,1,76.5000014591217,12|2,0:0|0:0,0:0:0:0:
100,20,5499,1,0,0:0:0:0:
176,192,5666,1,0,0:0:0:0:
348,36,5833,6,0,P|388:20|420:120,1,153.000002918243,4|0,0:0|0:0,0:0:0:0:
408,252,6333,2,0,P|424:304|444:332,1,76.5000014591217,0|0,0:0|0:0,0:0:0:0:
336,188,6666,2,0,P|348:140|348:104,1,62.9999980773926,0|0,0:0|0:0,0:0:0:0:
328,24,6999,5,0,0:0:0:0:
476,192,7166,1,0,0:0:0:0:
272,136,7333,2,0,L|220:144,3,38.2500007295609,2|2|8|8,0:0|0:0|0:0|0:0,0:0:0:0:
160,168,7666,2,0,L|104:156,3,45,8|2|8|8,0:0|0:0|0:0|0:0,0:0:0:0:
56,100,7999,6,0,P|80:160|64:240,1,135,4|0,0:0|0:0,0:0:0:0:
40,260,8333,2,0,B|48:304|48:304|76:352,1,90,8|0,0:0|0:0,0:0:0:0:
216,268,8666,1,2,0:0:0:0:
84,356,8833,1,2,0:0:0:0:
160,168,8999,1,8,0:0:0:0:
320,224,9166,6,0,B|364:228|408:276|408:276|448:264|484:276,1,180,4|2,0:0|0:0,0:0:0:0:
448,360,9666,1,10,0:0:0:0:
432,192,9833,2,0,B|420:152|432:116|432:116|420:80|420:80|436:52|432:8,1,180,0|2,0:0|0:0,0:0:0:0:
504,152,10333,1,10,0:0:0:0:
356,32,10499,6,0,P|260:44|180:120,1,180,4|2,0:0|0:0,0:0:0:0:
108,208,10999,2,0,L|128:312,1,90,8|2,0:0|0:0,0:0:0:0:
80,376,11333,1,2,0:0:0:0:
220,264,11499,1,8,0:0:0:0:
16,192,11666,1,8,0:0:0:0:
180,356,11833,1,2,0:0:0:0:
132,100,12166,5,0,0:0:0:0:
128,92,12333,1,0,0:0:0:0:
124,84,12499,1,0,0:0:0:0:
120,76,12666,1,0,0:0:0:0:
116,68,12833,1,0,0:0:0:0:
112,60,12999,2,0,P|152:56|208:32,1,80.9999975280763,0|0,0:0|0:0,0:0:0:0:
216,172,13333,6,0,B|224:212|208:252|208:252|208:300|232:336,1,161.999995056153,4|8,0:0|0:0,0:0:0:0:
136,200,13833,1,0,0:0:0:0:
296,272,13999,1,0,0:0:0:0:
128,340,14166,2,0,L|36:356,1,80.9999975280763,2|0,0:0|0:0,0:0:0:0:
64,168,14499,6,0,P|100:132|208:168,1,161.999995056153,8|2,0:0|0:0,0:0:0:0:
136,200,14999,1,8,0:0:0:0:
244,80,15166,2,0,B|280:60|280:60|316:20,1,80.9999975280763,0|0,0:0|0:0,0:0:0:0:
296,192,15499,2,0,L|304:280,1,80.9999975280763,2|8,0:0|0:0,0:0:0:0:
312,364,15833,1,0,0:0:0:0:
156,264,15999,6,0,B|116:248|116:248|84:220,1,80.9999975280763,2|0,0:0|0:0,0:0:0:0:
52,124,16333,1,8,0:0:0:0:
76,324,16499,1,0,0:0:0:0:
196,48,16833,1,2,0:0:0:0:
284,292,17166,6,0,P|336:304|416:232,1,161.999995056153,8|2,0:0|0:0,0:0:0:0:
440,144,17666,1,8,0:0:0:0:
472,336,17833,1,0,0:0:0:0:
332,220,17999,1,0,0:0:0:0:
508,192,18166,1,2,0:0:0:0:
312,104,18333,2,0,P|260:88|224:68,1,80.9999975280763,10|0,0:0|0:0,0:0:0:0:
116,8,18666,6,0,B|116:52|96:84|96:84|92:136|116:180,1,161.999995056153,4|8,0:0|0:0,0:0:0:0:
144,264,19166,1,0,0:0:0:0:
16,192,19333,1,0,0:0:0:0:
200,100,19499,1,2,0:0:0:0:
152,248,19666,2,0,L|168:344,1,80.9999975280763,0|8,0:0|0:0,0:0:0:0:
268,144,20166,6,0,B|284:100|284:100|324:52,1,99.0000030212403,2|8,0:0|0:0,0:0:0:0:
184,84,20499,2,0,B|156:96|124:88|124:88|88:104|88:104|48:92|16:108,1,161.999995056153,0|2,0:0|0:0,0:0:0:0:
27,103,20999,1,8,0:0:0:0:
184,256,21333,6,0,P|228:280|336:240,1,161.999995056153,4|8,0:0|0:0,0:0:0:0:
400,108,21833,2,0,B|408:156|388:200|388:200|408:232|404:280,1,161.999995056153,4|2,0:0|0:0,0:0:0:0:
448,352,22333,1,8,0:0:0:0:
316,172,22499,6,0,B|280:140|232:140|232:140|200:100|148:88,1,180,4|2,0:0|0:0,0:0:0:0:
72,128,22999,1,10,0:0:0:0:
256,28,23166,1,2,0:0:0:0:
256,28,23499,2,0,P|316:56|372:52,1,107.999996704102,0|0,0:0|0:0,0:0:0:0:
376,36,23999,6,0,B|380:88|356:128|356:128|372:160|368:200,1,161.999995056153,4|8,0:0|0:0,0:0:0:0:
420,312,24499,1,0,0:0:0:0:
480,136,24666,1,0,0:0:0:0:
292,176,24833,2,0,P|240:164|204:148,1,80.9999975280763,2|0,0:0|0:0,0:0:0:0:
48,100,25166,6,0,B|80:136|140:144|140:144|140:184|160:204,1,161.999995056153,8|2,0:0|0:0,0:0:0:0:
128,56,25666,1,8,0:0:0:0:
100,248,25833,2,0,B|88:288|88:288|56:332,1,80.9999975280763,0|0,0:0|0:0,0:0:0:0:
16,196,26166,1,2,0:0:0:0:
188,296,26333,1,8,0:0:0:0:
0,356,26499,1,0,0:0:0:0:
200,308,26666,6,0,P|252:288|280:268,1,80.9999975280763,2|0,0:0|0:0,0:0:0:0:
364,200,26999,1,8,0:0:0:0:
336,360,27166,1,0,0:0:0:0:
252,64,27499,1,2,0:0:0:0:
184,320,27833,6,0,P|132:332|44:260,1,161.999995056153,8|2,0:0|0:0,0:0:0:0:
20,184,28333,1,8,0:0:0:0:
0,356,28499,1,0,0:0:0:0:
172,220,28666,2,0,B|208:200|208:200|244:164,1,80.9999975280763,0|2,0:0|0:0,0:0:0:0:
292,68,28999,1,8,0:0:0:0:
320,232,29166,1,0,0:0:0:0:
108,128,29333,6,0,P|104:64|192:68,1,161.999995056153,4|8,0:0|0:0,0:0:0:0:
300,184,29833,2,0,L|280:284,1,80.9999975280763,0|0,0:0|0:0,0:0:0:0:
308,356,30166,1,2,0:0:0:0:
184,216,30333,1,0,0:0:0:0:
360,108,30499,6,0,B|400:100|400:100|448:68,1,80.9999975280763,8|0,0:0|0:0,0:0:0:0:
460,232,30833,2,0,L|444:328,1,90,2|8,0:0|0:0,0:0:0:0:
316,212,31166,2,0,B|308:168|284:140|284:140|272:92|300:48,1,161.999995056153,0|2,0:0|0:0,0:0:0:0:
293,60,31666,1,8,0:0:0:0:
232,304,31999,6,0,P|176:320|104:240,1,161.999995056153,4|8,0:0|0:0,0:0:0:0:
68,100,32499,2,0,B|44:144|56:196|56:196|32:220|28:260,1,161.999995056153,4|2,0:0|0:0,0:0:0:0:
48,360,32999,1,8,0:0:0:0:
256,288,33166,6,0,B|300:288|336:312|336:312|384:320|432:284,1,180,4|2,0:0|0:0,0:0:0:0:
276,368,33666,1,8,0:0:0:0:
360,232,33833,1,8,0:0:0:0:
356,216,33916,1,8,0:0:0:0:
352,200,33999,2,0,L|376:112,1,80.9999975280763,8|0,0:0|0:0,0:0:0:0:
352,24,34333,1,0,3:0:0:0:
472,160,34499,1,2,0:0:0:0:
272,208,34666,6,0,P|232:192|200:168,1,72,8|8,0:0|0:0,0:0:0:0:
136,100,34999,1,0,0:0:0:0:
160,264,35166,1,0,0:0:0:0:
280,132,35333,6,0,L|348:116,1,62.9999980773926,0|0,0:0|0:0,0:0:0:0:
440,96,35666,1,0,0:0:0:0:
244,56,35833,6,0,P|176:52|104:12,1,144,8|8,0:0|0:0,0:0:0:0:
109,17,36333,1,0,0:0:0:0:
132,144,36499,6,0,P|128:196|104:268,1,125.999996154785,0|0,0:0|0:0,0:0:0:0:
52,344,36999,1,0,0:0:0:0:
204,304,37166,6,0,B|260:296|288:272|288:272|312:284|344:284,1,144,8|8,0:0|0:0,0:0:0:0:
404,352,37666,1,0,0:0:0:0:
336,208,37833,1,0,0:0:0:0:
372,84,37999,2,0,L|392:8,2,72,8|0|0,0:0|3:0|3:0,0:0:0:0:
264,244,38499,6,0,P|328:288|392:264,1,144,4|8,0:0|0:0,0:0:0:0:
460,200,38999,1,8,0:0:0:0:
220,160,39166,2,0,B|180:144|156:104|156:104|112:112|80:96,1,144,4|2,0:0|0:0,0:0:0:0:
16,52,39666,1,8,0:0:0:0:
72,200,39833,1,0,0:0:0:0:
236,80,39999,6,0,P|304:76|364:44,1,121.499996292114,4|0,0:0|0:0,0:0:0:0:
380,36,40333,2,0,L|368:132,1,90,8|2,0:0|0:0,0:0:0:0:
400,316,40666,2,0,L|412:217,1,99.0000030212403,2|0,0:0|0:0,0:0:0:0:
472,108,40999,1,8,0:0:0:0:
320,260,41166,6,0,P|264:280|172:228,1,161.999995056153,2|2,0:0|0:0,0:0:0:0:
104,64,41666,2,0,B|88:108|88:108|56:148,1,90,8|2,0:0|0:0,0:0:0:0:
172,324,41999,2,0,L|160:216,1,99.0000030212403,2|8,0:0|0:0,0:0:0:0:
240,56,42333,2,0,P|248:96|272:152,1,80.9999975280763,8|0,0:0|0:0,0:0:0:0:
292,316,42666,6,0,B|308:268|284:204|284:204|324:188|336:148,1,180,4|8,0:0|0:0,0:0:0:0:
352,64,43166,1,2,0:0:0:0:
204,192,43333,2,0,B|164:216|164:216|108:224,1,90,8|2,0:0|0:0,0:0:0:0:
376,236,43666,2,0,L|480:256,1,99.0000030212403,8|2,0:0|0:0,0:0:0:0:
220,172,43999,6,0,P|176:152|136:120,1,90,8|2,0:0|0:0,0:0:0:0:
32,20,44333,2,0,L|44:116,1,90,8|2,0:0|0:0,0:0:0:0:
96,296,44666,2,0,P|96:240|108:196,1,90,8|2,0:0|0:0,0:0:0:0:
140,44,44999,1,8,0:0:0:0:
4,192,45166,1,2,0:0:0:0:
192,240,45333,6,0,B|240:260|300:244|300:244|312:280|352:300,1,180,2|8,0:0|0:0,0:0:0:0:
252,352,45833,1,2,0:0:0:0:
248,168,45999,1,8,0:0:0:0:
244,152,46083,1,8,0:0:0:0:
240,136,46166,1,8,0:0:0:0:
236,120,46249,1,8,0:0:0:0:
232,104,46333,1,8,0:0:0:0:
168,256,46499,6,0,L|156:360,1,90,2|0,0:0|0:0,0:0:0:0:
92,176,46833,1,8,0:0:0:0:
252,352,46999,1,0,0:0:0:0:
36,260,47166,1,8,0:0:0:0:
252,196,47333,2,0,P|320:164|368:96,1,144,8|0,0:0|0:0,0:0:0:0:
372,96,47749,1,0,0:0:0:0:
380,80,47833,1,0,0:0:0:0:
388,64,47916,1,0,0:0:0:0:
396,48,47999,6,0,B|376:88|376:136|376:136|396:172|396:228,1,180,8|12,0:0|0:0,0:0:0:0:
424,324,48499,1,0,0:0:0:0:
480,148,48666,1,8,0:0:0:0:
292,200,48833,2,0,P|236:220|200:248,1,90,0|0,0:0|0:0,0:0:0:0:
8,116,49166,6,0,B|36:136|72:128|72:128|100:148|100:148|140:136|188:160,1,180,4|2,0:0|0:0,0:0:0:0:
288,296,49666,1,8,0:0:0:0:
248,136,49833,2,0,B|260:96|260:96|300:44,1,90,4|0,0:0|0:0,0:0:0:0:
208,0,50166,1,2,0:0:0:0:
296,212,50333,1,8,0:0:0:0:
172,308,50499,6,0,B|116:296|76:256|76:256|40:276|8:268,1,180,4|8,0:0|0:0,0:0:0:0:
52,368,50999,1,2,0:0:0:0:
96,228,51166,2,0,B|100:176|132:128|132:128|136:84|116:48,1,180,8|0,0:0|3:0,0:0:0:0:
48,4,51666,1,2,0:0:0:0:
220,96,51833,6,0,B|264:88|264:88|328:60,1,90,12|2,0:0|0:0,0:0:0:0:
408,24,52166,1,8,0:0:0:0:
352,172,52333,1,8,0:0:0:0:
152,40,52499,2,0,P|64:64|100:164,1,180,4|2,0:0|0:0,0:0:0:0:
160,224,52999,1,8,0:0:0:0:
164,240,53083,1,8,0:0:0:0:
168,256,53166,1,8,0:0:0:0:
172,272,53249,1,8,0:0:0:0:
176,288,53333,6,0,P|236:316|328:248,1,180,2|12,0:0|0:0,0:0:0:0:
368,160,53833,1,0,0:0:0:0:
400,336,53999,1,8,0:0:0:0:
244,240,54166,1,2,0:0:0:0:
400,336,54333,1,8,0:0:0:0:
376,188,54499,6,0,B|384:132|424:96|424:96|408:56|420:20,1,180,4|2,0:0|0:0,0:0:0:0:
468,176,54999,1,8,0:0:0:0:
300,88,55166,2,0,P|236:68|204:44,1,90,4|0,0:0|0:0,0:0:0:0:
96,44,55499,1,8,0:0:0:0:
288,8,55666,1,8,0:0:0:0:
216,160,55833,6,0,B|208:212|240:264|240:264|216:296|212:336,1,180,4|2,0:0|0:0,0:0:0:0:
96,252,56333,1,8,0:0:0:0:
292,324,56499,2,0,B|348:316|376:296|376:296|424:292|480:320,1,180,4|8,0:0|0:0,0:0:0:0:
496,328,56916,1,8,0:0:0:0:
496,328,56999,1,8,0:0:0:0:
396,248,57166,6,0,B|380:212|384:176|384:176|368:144|368:144|376:104|360:64,1,180,4|2,0:0|0:0,0:0:0:0:
268,244,57666,2,0,B|232:272|232:272|184:288,1,90,8|2,0:0|0:0,0:0:0:0:
328,328,57999,1,8,0:0:0:0:
356,333,58083,1,8,0:0:0:0:
381,339,58166,1,8,0:0:0:0:
405,345,58249,1,8,0:0:0:0:
430,351,58333,2,0,B|468:331|468:331|496:288,1,90,8|8,0:0|0:0,0:0:0:0:
480,244,58583,1,8,0:0:0:0:
500,200,58666,6,0,P|480:136|456:100,1,90,4|0,0:0|0:0,0:0:0:0:
448,20,58999,1,8,0:0:0:0:
412,184,59166,2,0,P|372:232|336:248,1,90,0|2,0:0|0:0,0:0:0:0:
316,148,59499,1,2,0:0:0:0:
420,312,59666,1,8,0:0:0:0:
236,268,59833,6,0,B|188:276|152:300|152:300|100:308|52:276,1,180,2|2,0:0|0:0,0:0:0:0:
132,200,60333,1,8,0:0:0:0:
224,352,60499,1,2,0:0:0:0:
236,364,60833,2,0,L|264:272,1,90,2|8,0:0|0:0,0:0:0:0:
348,124,61166,6,0,B|352:172|312:224|312:224|336:252|336:296,1,180,2|2,0:0|0:0,0:0:0:0:
452,208,61666,1,8,0:0:0:0:
268,148,61833,2,0,P|184:128|92:68,1,180,2|2,0:0|0:0,0:0:0:0:
40,4,62333,1,8,0:0:0:0:
96,184,62499,6,0,B|88:228|88:228|60:280,1,90,4|0,0:0|0:0,0:0:0:0:
16,108,62833,1,2,0:0:0:0:
164,288,62999,1,8,0:0:0:0:
280,128,63166,2,0,P|324:108|364:76,1,90,2|8,0:0|0:0,0:0:0:0:
424,16,63499,1,2,0:0:0:0:
432,196,63666,1,8,0:0:0:0:
280,40,63833,6,0,B|232:36|192:20|192:20|136:24|96:48,1,180,2|2,0:0|0:0,0:0:0:0:
16,108,64333,1,8,0:0:0:0:
16,108,64666,2,0,L|32:196,1,90,2|0,0:0|0:0,0:0:0:0:
20,300,64999,1,10,0:0:0:0:
192,336,65166,6,0,B|228:320|264:336|264:336|280:320|280:320|336:304|356:264,2,180,4|2|2,0:0|0:0|0:0,0:0:0:0:
80,324,65999,2,0,L|48:312,3,22.5,0|0|0|0,0:0|0:0|0:0|0:0,0:0:0:0:
40,296,66166,1,8,0:0:0:0:
20,260,66249,1,8,0:0:0:0:
20,220,66333,1,8,0:0:0:0:
36,184,66416,1,8,0:0:0:0:
68,160,66499,6,0,B|116:144|144:96|144:96|192:104|232:76,1,180,4|2,0:0|0:0,0:0:0:0:
172,24,66999,1,8,0:0:0:0:
192,212,67166,1,2,0:0:0:0:
312,56,67333,1,8,0:0:0:0:
376,260,67499,1,2,0:0:0:0:
400,80,67666,1,0,0:0:0:0:
296,180,67833,1,2,0:0:0:0:
172,24,67999,5,8,0:0:0:0:
312,204,68833,2,0,L|300:288,1,76.5000014591217,8|8,0:0|0:0,0:0:0:0:
284,364,69166,1,0,0:0:0:0:
244,160,69333,6,0,P|308:124|380:160,1,153.000002918243,4|0,0:0|3:0,0:0:0:0:
432,236,69833,1,0,0:0:0:0:
308,92,69999,2,0,L|328:12,2,76.5000014591217,2|2|0,0:0|0:0|3:0,0:0:0:0:
220,196,70499,6,0,L|244:360,1,153.000002918243,2|2,0:0|0:0,0:0:0:0:
120,248,70999,2,0,L|132:144,1,90,4|0,3:0|0:0,0:0:0:0:
100,52,71333,1,2,0:0:0:0:
208,112,71499,1,8,0:0:0:0:
20,184,71666,1,8,0:0:0:0:
248,216,71833,6,0,B|296:228|352:208|352:208|376:240|424:248,1,180,4|2,0:0|0:0,0:0:0:0:
316,328,72333,1,8,0:0:0:0:
420,172,72499,6,0,B|412:120|428:80|428:80|412:20|392:-4,1,180,4|2,0:0|0:0,0:0:0:0:
500,128,72999,1,8,0:0:0:0:
316,68,73166,6,0,P|228:80|152:144,1,180,4|2,0:0|0:0,0:0:0:0:
96,260,73666,1,8,0:0:0:0:
80,68,73833,1,2,0:0:0:0:
80,236,73999,6,0,L|96:356,1,116.999994644165,8|0,0:0|0:0,0:0:0:0:
176,292,74333,6,0,L|180:192,1,80.9999975280763,0|0,0:0|0:0,0:0:0:0:
96,88,74666,6,0,P|144:76|184:48,1,90,4|0,0:0|0:0,0:0:0:0:
296,48,74999,1,8,0:0:0:0:
112,8,75166,1,0,0:0:0:0:
180,160,75333,2,0,B|192:204|192:204|224:252,1,90,2|2,0:0|0:0,0:0:0:0:
300,348,75666,1,8,0:0:0:0:
276,192,75833,6,0,B|288:140|328:112|328:112|320:64|340:28,1,180,2|2,0:0|0:0,0:0:0:0:
440,140,76333,1,8,0:0:0:0:
260,208,76499,2,0,B|212:216|176:236|176:236|120:236|76:216,1,180,2|2,0:0|0:0,0:0:0:0:
248,296,76999,1,8,0:0:0:0:
124,140,77166,6,0,P|132:48|208:60,1,180,2|2,0:0|0:0,0:0:0:0:
136,240,77666,1,8,0:0:0:0:
206,130,77833,6,0,B|240:128|268:92|268:92|316:112|384:92,1,188.999994232178,2|2,0:0|0:0,0:0:0:0:
272,16,78333,1,8,0:0:0:0:
308,192,78499,6,0,B|324:232|360:268|360:268|376:324|360:372,1,198.000006042481,4|2,0:0|0:0,0:0:0:0:
400,188,78999,1,8,0:0:0:0:
236,252,79166,2,0,B|184:240|184:240|136:212,1,99.0000030212403,2|8,0:0|0:0,0:0:0:0:
52,144,79499,1,2,0:0:0:0:
100,312,79666,1,8,0:0:0:0:
232,164,79833,6,0,P|300:124|412:156,1,180,4|2,0:0|0:0,0:0:0:0:
460,256,80333,2,0,L|448:356,1,90,8|0,0:0|0:0,0:0:0:0:
416,168,80666,2,0,B|404:108|428:60|428:60|400:36|388:-4,1,180,2|8,0:0|0:0,0:0:0:0:
248,144,81166,6,0,P|200:168|160:176,1,80.9999975280763,4|0,0:0|0:0,0:0:0:0:
0,224,81499,2,0,L|92:240,1,90,4|0,0:0|0:0,0:0:0:0:
272,300,81833,2,0,L|174:283,1,99.0000030212403,4|0,0:0|0:0,0:0:0:0:
52,144,82166,1,2,0:0:0:0:
96,332,82333,1,8,0:0:0:0:
240,204,82499,6,0,B|276:164|280:104|280:104|320:88|336:56,1,180,4|2,0:0|0:0,0:0:0:0:
380,168,82999,1,8,0:0:0:0:
264,28,83166,1,2,0:0:0:0:
312,256,83333,1,0,0:0:0:0:
188,120,83499,1,2,0:0:0:0:
412,96,83666,1,8,0:0:0:0:
224,216,83833,6,0,B|180:240|120:232|120:232|104:264|64:288,1,180,4|2,0:0|0:0,0:0:0:0:
168,340,84333,1,8,0:0:0:0:
48,208,84499,2,0,B|48:160|64:120|64:120|60:64|32:16,1,188.999994232178,4|2,0:0|0:0,0:0:0:0:
37,25,84999,1,8,0:0:0:0:
176,112,85166,6,0,P|264:112|352:64,1,188.999994232178,4|2,0:0|0:0,0:0:0:0:
424,4,85666,1,8,0:0:0:0:
368,160,85833,2,0,B|368:216|396:256|396:256|380:296|384:356,1,198.000006042481,4|0,0:0|0:0,0:0:0:0:
456,188,86333,1,8,0:0:0:0:
288,296,86499,6,0,P|232:288|184:260,1,99.0000030212403,4|0,0:0|0:0,0:0:0:0:
104,176,86833,1,2,0:0:0:0:
140,352,86999,1,8,0:0:0:0:
268,220,87166,2,0,B|268:180|288:144|288:144|284:108|284:108|312:72|316:24,1,207.000003948212,4|2,0:0|0:0,0:0:0:0:
352,200,87666,1,8,0:0:0:0:
140,80,87833,1,4,0:0:0:0:
