osu file format v14

[General]
AudioFilename: Twintails.mp3
AudioLeadIn: 267
PreviewTime: 47333
Countdown: 0
SampleSet: Soft
StackLeniency: 0.7
Mode: 0
LetterboxInBreaks: 0
WidescreenStoryboard: 1

[Editor]
Bookmarks: 23782,42949,58449
DistanceSpacing: 1.1
BeatDivisor: 4
GridSize: 4
TimelineZoom: 1

[Metadata]
Title:Gimme! Revolution
TitleUnicode:ギミー!レボリューション
Artist:Uchida Maaya
ArtistUnicode:内田真礼
Creator:Underflow
Version:Hard
Source:俺、ツインテールになります。
Tags:Ore Twintail ni Narimasu Gonna be the twin-tails TV Size Opening
BeatmapID:533984
BeatmapSetID:227893

[Difficulty]
HPDrainRate:5
CircleSize:4
OverallDifficulty:6
ApproachRate:7
SliderMultiplier:1.5
SliderTickRate:1

[Events]
//Background and Video events
Video,213,"Twintails.flv"
0,0,"Red-A.jpg",0,0
//Break Periods
//Storyboard Layer 0 (Background)
//Storyboard Layer 1 (Fail)
//Storyboard Layer 2 (Pass)
//Storyboard Layer 3 (Foreground)
//Storyboard Sound Samples

[TimingPoints]
0,333.333333333333,4,2,1,60,1,0
1333,-83.3333333333333,4,2,1,60,0,0
2499,-142.857142857143,4,2,1,60,0,0
3833,-117.647058823529,4,2,1,60,0,0
6666,-142.857142857143,4,2,1,60,0,0
6999,-111.111111111111,4,2,1,60,0,0
7666,-100,4,2,1,60,0,0
12999,-111.111111111111,4,2,1,60,0,0
23499,-166.666666666667,4,2,1,60,0,0
23999,-111.111111111111,4,2,1,60,0,0
34666,-125,4,2,1,60,0,0
35333,-142.857142857143,4,2,1,60,0,0
35833,-125,4,2,1,60,0,0
36499,-142.857142857143,4,2,1,60,0,0
37166,-125,4,2,1,60,0,0
38499,-111.111111111111,4,2,1,60,0,0
39666,-100,4,2,1,60,0,0
39999,-111.111111111111,4,2,1,60,0,0
40333,-90.9090909090909,4,2,1,60,0,0
40666,-83.3333333333333,4,2,1,60,0,0
41166,-111.111111111111,4,2,1,60,0,0
41666,-100,4,2,1,60,0,0
41999,-90.9090909090909,4,2,1,60,0,0
42333,-111.111111111111,4,2,1,60,0,0
42666,-100,4,2,1,60,0,0
47333,-125,4,2,1,60,0,0
47999,-100,4,2,1,60,0,1
67999,-111.111111111111,4,2,1,60,0,0
70999,-90.9090909090909,4,2,1,60,0,0
71333,-100,4,2,1,60,0,0
71833,-100,4,2,1,60,0,1
73999,-83.3333333333333,4,2,1,60,0,0
74333,-111.111111111111,4,2,1,60,0,0
74666,-100,4,2,1,60,0,0
81166,-111.111111111111,4,2,1,50,0,0
81499,-100,4,2,1,55,0,0
81833,-90.9090909090909,4,2,1,60,0,0
82166,-100,4,2,1,60,0,0

[Colours]
Combo1 : 255,245,125
Combo2 : 255,67,81
Combo3 : 0,128,255

[HitObjects]
280,144,1333,6,0,B|321:137|356:147|356:147|375:130|375:130|415:111|423:63,1,179.999994506836,4|0,0:0|0:0,0:0:0:0:
428,48,2499,6,0,L|440:172,1,104.999996795654,4|2,0:0|0:0,0:0:0:0:
472,236,2999,2,0,L|456:296,1,52.4999983978272,8|4,0:0|0:0,0:0:0:0:
348,348,3499,2,0,L|336:280,1,52.4999983978272,8|8,0:0|0:0,0:0:0:0:
260,260,3833,6,0,P|288:228|384:224,1,127.50000243187,4|8,0:0|0:0,0:0:0:0:
456,240,4333,1,2,0:0:0:0:
369,217,4499,2,0,P|317:193|269:141,1,127.50000243187,12|8,0:0|0:0,0:0:0:0:
220,68,4999,1,2,0:0:0:0:
204,188,5166,2,0,L|192:272,1,63.7500012159348,12|2,0:0|0:0,0:0:0:0:
120,316,5499,2,0,L|112:232,1,63.7500012159348,0|0,0:0|0:0,0:0:0:0:
140,132,5833,6,0,P|184:108|268:136,1,127.50000243187,4|0,0:0|0:0,0:0:0:0:
340,172,6333,2,0,P|372:192|400:200,1,63.7500012159348,0|0,0:0|0:0,0:0:0:0:
332,84,6666,2,0,P|312:52|304:28,1,52.4999983978272,0|0,0:0|0:0,0:0:0:0:
256,144,6999,2,0,L|244:228,1,67.4999979400635,0|0,0:0|0:0,0:0:0:0:
272,296,7333,2,0,L|284:344,3,33.7499989700318,2|2|8|8,0:0|0:0|0:0|0:0,0:0:0:0:
208,340,7666,2,0,L|197:375,3,37.5,8|2|8|8,0:0|0:0|0:0|0:0,0:0:0:0:
128,352,7999,6,0,P|80:344|24:252,1,150,4|8,0:0|0:0,0:0:0:0:
96,120,8666,2,0,P|136:96|168:64,1,75,2|2,0:0|0:0,0:0:0:0:
220,16,8999,1,8,0:0:0:0:
232,120,9166,6,0,B|240:160|256:188|256:188|260:228|244:272,1,150,4|2,0:0|0:0,0:0:0:0:
156,204,9666,1,10,0:0:0:0:
180,300,9833,2,0,P|220:332|316:296,1,150,0|2,0:0|0:0,0:0:0:0:
392,264,10333,1,10,0:0:0:0:
316,204,10499,6,0,P|308:120|368:112,1,150,4|2,0:0|0:0,0:0:0:0:
444,140,10999,2,0,P|496:152|524:152,1,75,8|2,0:0|0:0,0:0:0:0:
357,108,11333,2,0,P|277:85|209:101,1,150,2|8,0:0|0:0,0:0:0:0:
128,132,11833,1,2,0:0:0:0:
52,260,12166,5,0,0:0:0:0:
56,276,12333,1,0,0:0:0:0:
60,292,12499,1,0,0:0:0:0:
64,308,12666,1,0,0:0:0:0:
68,324,12833,1,0,0:0:0:0:
72,340,12999,2,0,P|124:360|148:372,1,67.4999979400635,0|0,0:0|0:0,0:0:0:0:
228,380,13333,6,0,P|292:356|332:284,1,134.999995880127,4|8,0:0|0:0,0:0:0:0:
388,168,13999,2,0,L|376:92,1,67.4999979400635,0|2,0:0|0:0,0:0:0:0:
364,16,14333,1,0,0:0:0:0:
288,92,14499,6,0,P|236:112|152:88,1,134.999995880127,8|2,0:0|0:0,0:0:0:0:
76,52,14999,1,8,0:0:0:0:
84,148,15166,2,0,L|92:228,1,67.4999979400635,0|0,0:0|0:0,0:0:0:0:
128,324,15499,2,0,P|144:284|168:252,1,67.4999979400635,2|8,0:0|0:0,0:0:0:0:
212,192,15833,1,0,0:0:0:0:
260,296,15999,6,0,P|300:308|396:264,1,134.999995880127,2|8,0:0|0:0,0:0:0:0:
452,216,16499,1,0,0:0:0:0:
344,380,16833,1,2,0:0:0:0:
312,208,17166,6,0,L|336:72,1,134.999995880127,8|2,0:0|0:0,0:0:0:0:
392,8,17666,1,8,0:0:0:0:
264,52,17833,2,0,P|196:52|120:4,1,134.999995880127,0|2,0:0|0:0,0:0:0:0:
112,120,18333,2,0,L|120:200,1,67.4999979400635,10|0,0:0|0:0,0:0:0:0:
96,324,18666,6,0,P|72:268|8:208,1,134.999995880127,4|8,0:0|0:0,0:0:0:0:
104,100,19333,2,0,P|139:95|188:76,1,67.4999979400635,0|2,0:0|0:0,0:0:0:0:
252,60,19666,1,0,0:0:0:0:
228,152,19833,6,0,P|228:224|256:300,1,134.999995880127,8|2,0:0|0:0,0:0:0:0:
247,283,20333,1,8,0:0:0:0:
188,356,20499,2,0,P|128:360|68:304,1,134.999995880127,0|2,0:0|0:0,0:0:0:0:
32,236,20999,1,8,0:0:0:0:
132,128,21333,6,0,P|196:116|256:72,1,134.999995880127,4|8,0:0|0:0,0:0:0:0:
308,4,21833,2,0,L|296:144,1,134.999995880127,4|2,0:0|0:0,0:0:0:0:
288,224,22333,1,8,0:0:0:0:
336,304,22499,6,0,P|392:316|452:256,1,134.999995880127,4|2,0:0|0:0,0:0:0:0:
488,192,22999,1,10,0:0:0:0:
488,192,23166,1,2,0:0:0:0:
372,92,23499,2,0,P|316:72|276:44,1,89.9999972534181,0|0,0:0|0:0,0:0:0:0:
272,36,23999,6,0,L|284:176,1,134.999995880127,4|8,0:0|0:0,0:0:0:0:
208,300,24666,2,0,P|168:316|132:340,1,67.4999979400635,0|2,0:0|0:0,0:0:0:0:
64,376,24999,1,0,0:0:0:0:
84,276,25166,6,0,B|92:232|80:200|80:200|100:168|104:144,1,134.999995880127,8|2,0:0|0:0,0:0:0:0:
24,136,25666,1,8,0:0:0:0:
104,68,25833,2,0,P|136:56|172:36,1,67.4999979400635,0|0,0:0|0:0,0:0:0:0:
256,24,26166,2,0,P|320:28|392:72,1,134.999995880127,2|0,0:0|0:0,0:0:0:0:
448,128,26666,6,0,L|460:204,1,67.4999979400635,2|0,0:0|0:0,0:0:0:0:
468,284,26999,1,8,0:0:0:0:
468,284,27166,1,0,0:0:0:0:
256,344,27499,1,2,0:0:0:0:
56,280,27833,6,0,P|100:228|184:232,1,134.999995880127,8|2,0:0|0:0,0:0:0:0:
248,248,28333,1,8,0:0:0:0:
164,222,28499,2,0,P|105:196|49:132,1,134.999995880127,0|2,0:0|0:0,0:0:0:0:
160,124,28999,2,0,P|200:112|236:88,1,67.4999979400635,8|0,0:0|0:0,0:0:0:0:
280,32,29333,6,0,L|272:176,1,134.999995880127,4|8,0:0|0:0,0:0:0:0:
332,304,29999,2,0,L|404:332,1,67.4999979400635,0|2,0:0|0:0,0:0:0:0:
476,360,30333,1,0,0:0:0:0:
440,268,30499,6,0,P|428:216|440:132,1,134.999995880127,8|2,0:0|0:0,0:0:0:0:
468,60,30999,1,8,0:0:0:0:
380,68,31166,2,0,B|340:64|308:40|308:40|276:48|240:40,1,134.999995880127,0|2,0:0|0:0,0:0:0:0:
168,64,31666,1,8,0:0:0:0:
68,176,31999,6,0,L|84:312,1,134.999995880127,4|8,0:0|0:0,0:0:0:0:
16,356,32499,2,0,P|64:348|156:364,1,134.999995880127,4|2,0:0|0:0,0:0:0:0:
236,380,32999,1,8,0:0:0:0:
208,288,33166,6,0,L|228:144,1,134.999995880127,4|2,0:0|0:0,0:0:0:0:
212,68,33666,1,8,0:0:0:0:
304,96,33833,1,8,0:0:0:0:
324,92,33916,1,8,0:0:0:0:
344,88,33999,2,0,L|420:100,2,67.4999979400635,8|0|2,0:0|0:0|0:0,0:0:0:0:
212,68,34499,1,2,0:0:0:0:
228,168,34666,6,0,L|248:296,1,120,8|0,0:0|0:0,0:0:0:0:
260,368,35166,1,0,0:0:0:0:
336,312,35333,6,0,P|392:312|452:336,1,104.999996795654,0|0,0:0|0:0,0:0:0:0:
476,240,35833,6,0,L|460:120,1,120,8|8,0:0|0:0,0:0:0:0:
448,36,36333,1,0,0:0:0:0:
368,84,36499,6,0,P|316:80|252:52,1,104.999996795654,0|0,0:0|0:0,0:0:0:0:
188,32,36999,1,0,0:0:0:0:
204,128,37166,6,0,L|184:248,1,120,8|8,0:0|0:0,0:0:0:0:
164,328,37666,1,0,0:0:0:0:
164,328,37833,1,0,0:0:0:0:
100,256,37999,2,0,L|80:180,2,60,8|0|0,0:0|3:0|3:0,0:0:0:0:
164,328,38499,6,0,P|216:336|284:292,1,134.999995880127,4|8,0:0|0:0,0:0:0:0:
282,293,38999,1,8,0:0:0:0:
156,312,39166,2,0,L|12:336,1,134.999995880127,4|2,0:0|0:0,0:0:0:0:
60,244,39666,2,0,P|100:228|140:200,1,75,8|0,0:0|0:0,0:0:0:0:
220,160,39999,6,0,L|212:240,1,67.4999979400635,4|0,0:0|0:0,0:0:0:0:
296,296,40333,2,0,L|292:204,1,82.5000025177003,8|2,0:0|0:0,0:0:0:0:
340,108,40666,2,0,P|352:148|388:200,1,89.9999972534181,2|0,0:0|0:0,0:0:0:0:
440,264,40999,1,8,0:0:0:0:
352,352,41166,6,0,P|312:372|224:332,1,134.999995880127,2|2,0:0|0:0,0:0:0:0:
164,284,41666,2,0,L|180:204,1,75,8|2,0:0|0:0,0:0:0:0:
92,128,41999,2,0,L|96:220,1,82.5000025177003,2|8,0:0|0:0,0:0:0:0:
56,308,42333,2,0,L|12:244,1,67.4999979400635,8|0,0:0|0:0,0:0:0:0:
20,96,42666,6,0,P|64:56|160:88,1,150,4|8,0:0|0:0,0:0:0:0:
216,128,43166,1,2,0:0:0:0:
204,216,43333,2,0,L|192:300,1,75,8|2,0:0|0:0,0:0:0:0:
284,348,43666,2,0,L|280:260,1,75,8|2,0:0|0:0,0:0:0:0:
260,156,43999,6,0,P|228:140|172:140,1,75,8|2,0:0|0:0,0:0:0:0:
336,204,44333,2,0,P|380:196|412:180,1,75,8|2,0:0|0:0,0:0:0:0:
464,104,44666,2,0,L|448:256,1,150,8|8,0:0|0:0,0:0:0:0:
308,340,45333,6,0,P|260:344|176:280,1,150,2|8,0:0|0:0,0:0:0:0:
100,244,45833,2,0,L|84:160,1,75,2|8,0:0|0:0,0:0:0:0:
68,84,46166,2,0,L|24:56,2,37.5,8|8|8,0:0|0:0|0:0,0:0:0:0:
164,124,46499,6,0,P|240:112|312:60,1,150,2|8,0:0|0:0,0:0:0:0:
376,24,46999,2,0,L|452:36,1,75,0|8,0:0|0:0,0:0:0:0:
500,104,47333,2,0,P|504:156|460:204,1,120,8|0,0:0|0:0,0:0:0:0:
444,212,47999,6,0,B|404:208|364:184|364:184|332:200|288:192,1,150,8|12,0:0|0:0,0:0:0:0:
208,264,48499,1,0,0:0:0:0:
280,204,48666,2,0,L|296:120,1,75,8|0,0:0|0:0,0:0:0:0:
312,44,48999,1,0,0:0:0:0:
220,92,49166,6,0,P|172:88|76:36,1,150,4|2,0:0|0:0,0:0:0:0:
56,144,49666,2,0,L|64:220,1,75,8|4,0:0|0:0,0:0:0:0:
160,352,50166,2,0,L|168:264,1,75,2|8,0:0|0:0,0:0:0:0:
136,200,50499,6,0,P|192:248|272:252,1,150,4|8,0:0|0:0,0:0:0:0:
356,236,50999,1,2,0:0:0:0:
265,253,51166,2,0,B|228:272|204:300|204:300|156:296|120:312,1,150,8|0,0:0|3:0,0:0:0:0:
48,340,51666,1,2,0:0:0:0:
68,244,51833,6,0,L|80:168,1,75,12|2,0:0|0:0,0:0:0:0:
136,72,52166,2,0,P|160:120|184:148,1,75,8|8,0:0|0:0,0:0:0:0:
236,200,52499,2,0,L|220:352,1,150,4|2,0:0|0:0,0:0:0:0:
304,300,52999,2,0,P|336:272|408:272,1,112.5,8|8,0:0|0:0,0:0:0:0:
436,288,53333,6,0,L|452:204,1,75,2|0,0:0|0:0,0:0:0:0:
468,128,53666,1,12,0:0:0:0:
380,160,53833,2,0,P|300:168|232:120,1,150,0|2,0:0|0:0,0:0:0:0:
176,72,54333,1,8,0:0:0:0:
180,180,54499,6,0,L|188:336,1,150,4|2,0:0|0:0,0:0:0:0:
268,276,54999,2,0,P|284:228|296:204,1,75,8|4,0:0|0:0,0:0:0:0:
424,104,55499,2,0,P|384:88|352:60,1,75,8|8,0:0|0:0,0:0:0:0:
280,4,55833,6,0,L|288:156,1,150,4|2,0:0|0:0,0:0:0:0:
292,236,56333,1,8,0:0:0:0:
248,316,56499,2,0,P|180:324|120:264,1,150,4|8,0:0|0:0,0:0:0:0:
122,272,56999,1,8,0:0:0:0:
264,312,57166,6,0,B|304:300|352:308|352:308|376:284|408:268,1,150,4|2,0:0|0:0,0:0:0:0:
460,204,57666,2,0,P|472:164|496:124,1,75,8|2,0:0|0:0,0:0:0:0:
400,48,57999,2,0,L|396:136,1,75,8|8,0:0|0:0,0:0:0:0:
404,260,58333,2,0,P|448:280|484:280,1,75,8|8,0:0|0:0,0:0:0:0:
336,200,58666,6,0,P|300:208|252:236,1,75,4|0,0:0|0:0,0:0:0:0:
192,264,58999,1,8,0:0:0:0:
216,160,59166,2,0,B|228:128|224:72|224:72|256:48|264:16,1,150,0|2,0:0|0:0,0:0:0:0:
312,108,59666,1,8,0:0:0:0:
188,8,59833,6,0,P|100:20|44:72,1,150,2|2,0:0|0:0,0:0:0:0:
20,140,60333,2,0,L|4:228,1,75,8|2,0:0|0:0,0:0:0:0:
104,348,60833,2,0,L|96:264,1,75,2|8,0:0|0:0,0:0:0:0:
152,200,61166,6,0,P|216:184|288:240,1,150,2|2,0:0|0:0,0:0:0:0:
320,304,61666,1,8,0:0:0:0:
282,228,61833,2,0,B|279:191|267:159|267:159|271:111|291:71,1,150,2|2,0:0|0:0,0:0:0:0:
316,4,62333,1,8,0:0:0:0:
208,64,62499,6,0,L|128:84,1,75,4|0,0:0|0:0,0:0:0:0:
52,148,62833,2,0,P|120:160|196:208,1,150,2|2,0:0|0:0,0:0:0:0:
260,256,63333,1,8,0:0:0:0:
256,160,63499,2,0,L|252:72,1,75,2|8,0:0|0:0,0:0:0:0:
340,44,63833,6,0,L|332:200,1,150,2|2,0:0|0:0,0:0:0:0:
324,284,64333,1,8,0:0:0:0:
468,176,64666,1,2,0:0:0:0:
324,284,64999,1,10,0:0:0:0:
396,352,65166,6,0,P|452:360|512:288,2,150,4|2|2,0:0|0:0|0:0,0:0:0:0:
244,256,66166,2,0,L|252:180,1,75,8|8,0:0|0:0,0:0:0:0:
208,100,66499,6,0,P|140:92|64:148,1,150,4|2,0:0|0:0,0:0:0:0:
20,208,66999,2,0,P|40:252|48:288,1,75,8|2,0:0|0:0,0:0:0:0:
104,348,67333,2,0,B|148:376|204:360|204:360|216:336|216:336|280:316|296:240|264:192,1,300,8|8,0:0|0:0,0:0:0:0:
260,184,68833,6,0,L|340:200,1,67.4999979400635,8|8,0:0|0:0,0:0:0:0:
472,100,69333,2,0,P|440:56|356:44,1,134.999995880127,4|0,0:0|3:0,0:0:0:0:
296,96,69833,2,0,L|212:108,2,67.4999979400635,0|2|2,0:0|0:0|0:0,0:0:0:0:
392,120,70333,1,0,3:0:0:0:
296,96,70499,6,0,P|232:64|176:16,1,134.999995880127,2|2,0:0|0:0,0:0:0:0:
124,104,70999,2,0,L|144:212,1,82.5000025177003,4|0,3:0|0:0,0:0:0:0:
200,280,71333,2,0,P|212:228|228:196,1,75,2|8,0:0|0:0,0:0:0:0:
256,124,71666,1,8,0:0:0:0:
139,185,71833,6,0,P|59:193|27:125,1,150,4|2,0:0|0:0,0:0:0:0:
19,57,72333,1,8,0:0:0:0:
27,141,72499,2,0,B|24:186|48:226|48:226|33:261|33:289,1,150,4|2,0:0|0:0,0:0:0:0:
40,372,72999,1,8,0:0:0:0:
112,272,73166,6,0,P|184:268|256:304,1,150,4|2,0:0|0:0,0:0:0:0:
324,356,73666,1,8,0:0:0:0:
324,356,73833,1,2,0:0:0:0:
312,248,73999,6,0,L|300:156,1,89.9999972534181,8|0,0:0|0:0,0:0:0:0:
384,96,74333,6,0,L|380:184,1,67.4999979400635,0|0,0:0|0:0,0:0:0:0:
436,272,74666,6,0,P|456:196|504:116,1,150,4|8,0:0|0:0,0:0:0:0:
348,80,75333,2,0,P|304:68|264:48,1,75,2|2,0:0|0:0,0:0:0:0:
196,16,75666,1,8,0:0:0:0:
216,120,75833,6,0,B|216:156|228:200|228:200|224:240|212:272,1,150,2|2,0:0|0:0,0:0:0:0:
128,200,76333,1,8,0:0:0:0:
144,300,76499,2,0,P|184:336|276:312,1,150,2|2,0:0|0:0,0:0:0:0:
380,328,76999,1,8,0:0:0:0:
332,244,77166,6,0,B|348:200|340:152|340:152|364:124|372:88,1,150,2|2,0:0|0:0,0:0:0:0:
400,20,77666,1,8,0:0:0:0:
292,88,77833,6,0,P|240:92|144:64,1,150,2|2,0:0|0:0,0:0:0:0:
56,20,78333,1,8,0:0:0:0:
64,108,78499,6,0,L|84:268,1,150,4|2,0:0|0:0,0:0:0:0:
92,340,78999,1,8,0:0:0:0:
176,288,79166,2,0,P|224:284|324:328,1,150,2|2,0:0|0:0,0:0:0:0:
388,364,79666,1,8,0:0:0:0:
372,260,79833,6,0,B|368:216|392:176|392:176|376:144|376:112,1,150,4|2,0:0|0:0,0:0:0:0:
288,176,80333,2,0,P|240:200|212:204,1,75,8|0,0:0|0:0,0:0:0:0:
128,212,80666,2,0,P|192:232|264:292,1,150,2|8,0:0|0:0,0:0:0:0:
324,348,81166,6,0,L|392:356,1,67.4999979400635,4|0,0:0|0:0,0:0:0:0:
468,268,81499,2,0,L|380:276,1,75,4|0,0:0|0:0,0:0:0:0:
296,220,81833,2,0,P|344:204|376:180,1,82.5000025177003,4|0,0:0|0:0,0:0:0:0:
440,92,82166,2,0,L|456:180,1,75,2|8,0:0|0:0,0:0:0:0:
380,284,82499,6,0,P|332:292|248:216,1,150,4|2,0:0|0:0,0:0:0:0:
200,164,82999,2,0,L|184:80,1,75,8|2,0:0|0:0,0:0:0:0:
112,176,83333,2,0,B|104:216|80:252|80:252|92:284|84:332,1,150,0|8,0:0|0:0,0:0:0:0:
160,368,83833,6,0,P|248:368|292:320,1,150,4|2,0:0|0:0,0:0:0:0:
360,360,84333,1,8,0:0:0:0:
360,360,84499,2,0,P|316:312|284:224,1,150,4|2,0:0|0:0,0:0:0:0:
264,148,84999,1,8,0:0:0:0:
320,68,85166,6,0,B|364:64|400:40|400:40|436:52|476:44,1,150,4|2,0:0|0:0,0:0:0:0:
463,46,85666,1,8,0:0:0:0:
424,136,85833,2,0,L|444:296,1,150,4|0,0:0|0:0,0:0:0:0:
452,376,86333,1,8,0:0:0:0:
344,308,86499,6,0,B|304:308|260:280|260:280|220:292|184:284,1,150,4|2,0:0|0:0,0:0:0:0:
116,320,86999,1,8,0:0:0:0:
224,212,87166,2,0,B|212:172|224:120|224:120|196:104|180:76,1,150,4|2,0:0|0:0,0:0:0:0:
260,44,87666,1,8,0:0:0:0:
124,168,87833,1,4,0:0:0:0:
