osu file format v14

[General]
AudioFilename: Twintails.mp3
AudioLeadIn: 267
PreviewTime: 47333
Countdown: 0
SampleSet: Soft
StackLeniency: 0.7
Mode: 0
LetterboxInBreaks: 0
WidescreenStoryboard: 0

[Editor]
Bookmarks: 47782
DistanceSpacing: 1
BeatDivisor: 2
GridSize: 4
TimelineZoom: 1

[Metadata]
Title:Gimme! Revolution
TitleUnicode:ギミー!レボリューション
Artist:Uchida Maaya
ArtistUnicode:内田真礼
Creator:Underflow
Version:Easy
Source:俺、ツインテールになります。
Tags:Ore Twintail ni Narimasu Gonna be the twin-tails TV Size Opening
BeatmapID:536714
BeatmapSetID:227893

[Difficulty]
HPDrainRate:2
CircleSize:3
OverallDifficulty:2
ApproachRate:3
SliderMultiplier:0.9
SliderTickRate:1

[Events]
//Background and Video events
Video,213,"Twintails.flv"
0,0,"Red.jpg",0,0
//Break Periods
//Storyboard Layer 0 (Background)
//Storyboard Layer 1 (Fail)
//Storyboard Layer 2 (Pass)
//Storyboard Layer 3 (Foreground)
//Storyboard Sound Samples

[TimingPoints]
0,333.333333333333,4,2,1,60,1,0
47999,-100,4,2,1,60,0,1
67999,-100,4,2,1,60,0,0
71833,-100,4,2,1,60,0,1
73999,-100,4,2,1,60,0,0
81166,-100,4,2,1,50,0,0
81499,-100,4,2,1,55,0,0
81833,-100,4,2,1,60,0,0

[Colours]
Combo1 : 255,245,125
Combo2 : 255,67,81
Combo3 : 0,128,255

[HitObjects]
124,304,1333,5,4,0:0:0:0:
124,304,2499,2,0,B|96:256|100:208|100:208|116:164|120:112,1,180,4|4,0:0|0:0,0:0:0:0:
108,40,3499,1,8,0:0:0:0:
188,80,3833,6,0,P|288:88|368:48,1,180,4|12,0:0|0:0,0:0:0:0:
436,216,5166,2,0,L|248:180,1,180,12|4,0:0|0:0,0:0:0:0:
120,64,7999,6,0,P|132:96|132:160,1,90,4|8,0:0|0:0,0:0:0:0:
100,236,8666,1,2,0:0:0:0:
192,336,9166,2,0,P|264:336|348:260,1,180,4|0,0:0|0:0,0:0:0:0:
436,116,10499,6,0,L|460:256,1,135,4|8,0:0|0:0,0:0:0:0:
416,328,11333,2,0,P|352:332|280:288,1,135,2|2,0:0|0:0,0:0:0:0:
280,284,13333,6,0,L|296:184,1,90,4|8,0:0|0:0,0:0:0:0:
308,108,13999,1,0,0:0:0:0:
188,172,14499,2,0,P|120:164|40:84,1,180,8|0,0:0|0:0,0:0:0:0:
168,44,15666,1,8,0:0:0:0:
256,64,15999,6,0,L|400:100,1,135,2|0,0:0|0:0,0:0:0:0:
440,168,16833,2,0,P|388:184|348:208,1,90,2|8,0:0|0:0,0:0:0:0:
204,300,17833,2,0,P|140:280|88:224,1,135,0|10,0:0|0:0,0:0:0:0:
44,156,18666,6,0,L|28:52,1,90,4|8,0:0|0:0,0:0:0:0:
256,92,19833,1,8,0:0:0:0:
372,228,20499,2,0,P|436:216|484:156,1,135,0|8,0:0|0:0,0:0:0:0:
392,140,21333,6,0,L|468:272,1,135,4|4,0:0|0:0,0:0:0:0:
304,348,22499,2,0,P|232:340|144:264,1,180,4|2,0:0|0:0,0:0:0:0:
100,200,23499,1,0,0:0:0:0:
180,92,23999,6,0,P|228:80|272:56,1,90,4|8,0:0|0:0,0:0:0:0:
344,20,24666,1,0,0:0:0:0:
316,152,25166,2,0,B|324:196|344:236|344:236|348:296|332:336,1,180,8|0,0:0|0:0,0:0:0:0:
252,364,26166,2,0,P|180:356|124:316,1,135,2|2,0:0|0:0,0:0:0:0:
64,260,26999,5,8,0:0:0:0:
100,132,27499,2,0,L|124:36,1,90,2|8,0:0|0:0,0:0:0:0:
216,196,28499,2,0,P|224:252|264:340,1,135,0|8,0:0|0:0,0:0:0:0:
336,356,29333,6,0,P|376:356|432:336,1,90,4|8,0:0|0:0,0:0:0:0:
500,296,29999,1,0,0:0:0:0:
372,260,30499,2,0,P|296:236|208:176,1,180,8|0,0:0|0:0,0:0:0:0:
112,92,31666,1,8,0:0:0:0:
120,180,31999,6,0,L|132:320,1,135,4|4,0:0|0:0,0:0:0:0:
308,360,33166,2,0,P|388:348|456:268,1,180,4|8,0:0|0:0,0:0:0:0:
500,152,34333,1,0,3:0:0:0:
412,128,34666,6,0,P|348:104|284:68,1,135,8|0,0:0|0:0,0:0:0:0:
248,248,35833,2,0,L|256:348,1,90,8|8,0:0|0:0,0:0:0:0:
112,108,37166,6,0,L|128:16,1,90,8|8,0:0|0:0,0:0:0:0:
224,112,37999,2,0,P|232:188|264:252,1,135,8|4,0:0|0:0,0:0:0:0:
124,360,39166,2,0,L|140:208,1,135,4|8,0:0|0:0,0:0:0:0:
120,136,39999,6,0,P|84:112|52:68,2,90,4|8|2,0:0|0:0|0:0,0:0:0:0:
248,184,41166,2,0,L|384:160,1,135,2|8,0:0|0:0,0:0:0:0:
468,144,41999,1,2,0:0:0:0:
332,260,42666,6,0,P|288:304|268:332,1,90,4|8,0:0|0:0,0:0:0:0:
188,364,43333,2,0,P|112:356|56:264,1,180,8|8,0:0|0:0,0:0:0:0:
40,188,44333,1,8,0:0:0:0:
76,104,44666,2,0,P|124:88|172:60,1,90,8|8,0:0|0:0,0:0:0:0:
240,32,45333,6,0,P|296:32|368:68,1,135,2|2,0:0|0:0,0:0:0:0:
276,224,46499,2,0,L|288:364,1,135,2|0,0:0|0:0,0:0:0:0:
372,328,47333,2,0,L|376:232,1,90,8|0,0:0|0:0,0:0:0:0:
428,164,47999,6,0,P|380:136|344:104,1,90,8|12,0:0|0:0,0:0:0:0:
280,60,48666,1,8,0:0:0:0:
148,28,49166,2,0,P|60:52|8:132,1,180,4|4,0:0|0:0,0:0:0:0:
104,276,50499,6,0,L|288:340,2,180,4|8|12,0:0|0:0|0:0,0:0:0:0:
36,216,52166,2,0,P|76:188|112:156,1,90,8|4,0:0|0:0,0:0:0:0:
208,72,52999,1,8,0:0:0:0:
296,96,53333,6,0,L|392:124,1,90,2|12,0:0|0:0,0:0:0:0:
468,148,53999,1,8,0:0:0:0:
340,196,54499,2,0,P|260:220|180:272,1,180,4|4,0:0|0:0,0:0:0:0:
112,332,55499,1,8,0:0:0:0:
96,244,55833,6,0,L|68:60,1,180,4|4,0:0|0:0,0:0:0:0:
240,124,57166,2,0,P|312:112|364:68,1,135,4|8,0:0|0:0,0:0:0:0:
420,140,57999,2,0,L|412:244,1,90,8|8,0:0|0:0,0:0:0:0:
404,320,58666,5,4,0:0:0:0:
284,356,59166,2,0,P|236:360|180:340,1,90,0|2,0:0|0:0,0:0:0:0:
112,316,59833,2,0,L|68:140,1,180,2|2,0:0|0:0,0:0:0:0:
44,56,60833,1,2,0:0:0:0:
136,76,61166,6,0,P|236:76|316:40,1,180,2|2,0:0|0:0,0:0:0:0:
412,192,62499,2,0,L|212:168,1,180,4|2,0:0|0:0,0:0:0:0:
56,204,63833,6,0,P|124:224|176:276,1,135,2|8,0:0|0:0,0:0:0:0:
228,336,64666,1,2,0:0:0:0:
364,344,65166,2,0,L|472:328,2,90,4|2|2,0:0|0:0|0:0,0:0:0:0:
188,316,66499,6,0,P|156:260|108:200,1,135,4|8,0:0|0:0,0:0:0:0:
128,116,67333,2,0,P|192:56|280:72,1,180,8|8,0:0|0:0,0:0:0:0:
496,124,68833,6,0,L|480:264,1,135,8|4,0:0|0:0,0:0:0:0:
384,352,69833,2,0,P|332:344|292:320,1,90,0|2,0:0|0:0,0:0:0:0:
224,276,70499,2,0,P|140:288|84:320,1,135,2|4,0:0|3:0,0:0:0:0:
24,364,71333,1,2,0:0:0:0:
44,232,71833,6,0,L|72:48,2,180,4|4|4,0:0|0:0|0:0,0:0:0:0:
24,364,73666,1,8,0:0:0:0:
96,308,73999,2,0,P|140:280|184:268,1,90,8|0,0:0|0:0,0:0:0:0:
264,252,74666,6,0,L|356:272,1,90,4|8,0:0|0:0,0:0:0:0:
440,288,75333,1,2,0:0:0:0:
352,184,75833,2,0,P|284:112|244:32,1,180,2|2,0:0|0:0,0:0:0:0:
128,176,77166,6,0,L|104:356,2,180,2|2|4,0:0|0:0|0:0,0:0:0:0:
288,92,79166,2,0,P|352:80|384:60,1,90,2|2,0:0|0:0,0:0:0:0:
448,20,79833,6,0,P|420:88|424:152,1,135,4|8,0:0|0:0,0:0:0:0:
440,236,80666,1,2,0:0:0:0:
332,320,81166,2,0,L|240:336,2,90,4|4|4,0:0|0:0|0:0,0:0:0:0:
472,208,82499,6,0,P|400:192|340:160,1,135,4|8,0:0|0:0,0:0:0:0:
264,124,83333,1,0,0:0:0:0:
160,36,83833,2,0,L|176:224,1,180,4|4,0:0|0:0,0:0:0:0:
56,348,85166,6,0,L|68:160,1,180,4|4,0:0|0:0,0:0:0:0:
200,48,86499,2,0,P|280:40|376:100,1,180,4|4,0:0|0:0,0:0:0:0:
476,228,87833,1,4,0:0:0:0:
