osu file format v14

[General]
AudioFilename: Twintails.mp3
AudioLeadIn: 267
PreviewTime: 47333
Countdown: 0
SampleSet: Soft
StackLeniency: 0.7
Mode: 0
LetterboxInBreaks: 0
WidescreenStoryboard: 0

[Editor]
Bookmarks: 47782
DistanceSpacing: 1
BeatDivisor: 2
GridSize: 4
TimelineZoom: 1

[Metadata]
Title:Gimme! Revolution
TitleUnicode:ギミー!レボリューション
Artist:Uchida Maaya
ArtistUnicode:内田真礼
Creator:Underflow
Version:Normal
Source:俺、ツインテールになります。
Tags:Ore Twintail ni Narimasu Gonna be the twin-tails TV Size Opening
BeatmapID:533985
BeatmapSetID:227893

[Difficulty]
HPDrainRate:3
CircleSize:3
OverallDifficulty:4
ApproachRate:5
SliderMultiplier:1.2
SliderTickRate:1

[Events]
//Background and Video events
Video,213,"Twintails.flv"
0,0,"Blue.jpg",0,0
//Break Periods
//Storyboard Layer 0 (Background)
//Storyboard Layer 1 (Fail)
//Storyboard Layer 2 (Pass)
//Storyboard Layer 3 (Foreground)
//Storyboard Sound Samples

[TimingPoints]
0,333.333333333333,4,2,1,60,1,0
35333,-111.111111111111,4,2,1,60,0,0
35833,-100,4,2,1,60,0,0
36499,-111.111111111111,4,2,1,60,0,0
37166,-100,4,2,1,60,0,0
39999,-100,4,2,1,60,0,0
47333,-111.111111111111,4,2,1,60,0,0
47999,-100,4,2,1,60,0,1
67999,-100,4,2,1,60,0,0
71833,-100,4,2,1,60,0,1
73999,-100,4,2,1,60,0,0
81166,-100,4,2,1,50,0,0
81499,-100,4,2,1,55,0,0
81833,-100,4,2,1,60,0,0

[Colours]
Combo1 : 255,245,125
Combo2 : 255,67,81
Combo3 : 0,128,255

[HitObjects]
396,80,1333,5,4,0:0:0:0:
396,80,2499,2,0,P|404:168|416:216,1,120,4|2,0:0|0:0,0:0:0:0:
432,256,2999,2,0,L|408:320,1,60,8|4,0:0|0:0,0:0:0:0:
300,360,3499,1,8,0:0:0:0:
188,312,3833,6,0,P|152:264|216:172,1,180,4|2,0:0|0:0,0:0:0:0:
268,164,4499,2,0,P|332:152|436:72,1,180,12|2,0:0|0:0,0:0:0:0:
464,44,5166,1,12,0:0:0:0:
476,164,5499,2,0,L|492:304,1,120,0|4,0:0|0:0,0:0:0:0:
200,324,7999,6,0,P|144:304|88:240,1,120,4|8,0:0|0:0,0:0:0:0:
36,160,8666,2,0,L|72:40,1,120,2|8,0:0|0:0,0:0:0:0:
112,20,9166,2,0,P|192:24|248:116,1,180,4|10,0:0|0:0,0:0:0:0:
248,148,9833,2,0,P|260:240|324:328,1,180,0|10,0:0|0:0,0:0:0:0:
344,340,10499,6,0,L|476:324,1,120,4|2,0:0|0:0,0:0:0:0:
512,320,10999,1,8,0:0:0:0:
436,228,11333,2,0,P|420:184|468:52,1,180,2|2,0:0|0:0,0:0:0:0:
340,92,12166,2,0,B|288:92|228:72|200:36|200:36|176:44|176:44|136:28|92:36|56:56,1,300,0|0,0:0|0:0,0:0:0:0:
28,168,13333,6,0,L|48:296,1,120,4|8,0:0|0:0,0:0:0:0:
140,360,13999,2,0,P|200:356|264:316,1,120,0|0,0:0|0:0,0:0:0:0:
288,296,14499,2,0,L|324:108,1,180,8|8,0:0|0:0,0:0:0:0:
332,72,15166,1,0,0:0:0:0:
224,124,15499,2,0,P|180:120|100:80,1,120,2|0,0:0|0:0,0:0:0:0:
72,64,15999,5,2,0:0:0:0:
88,184,16333,1,8,0:0:0:0:
104,224,16499,2,0,L|80:348,2,120,0|2|8,0:0|0:0|0:0,0:0:0:0:
200,148,17499,2,0,L|272:128,1,60,2|8,0:0|0:0,0:0:0:0:
292,100,17833,2,0,L|476:132,1,180,0|10,0:0|0:0,0:0:0:0:
416,240,18666,6,0,P|432:308|460:360,1,120,4|8,0:0|0:0,0:0:0:0:
336,336,19333,2,0,L|204:352,1,120,0|0,0:0|0:0,0:0:0:0:
168,356,19833,1,8,0:0:0:0:
56,312,20166,2,0,L|36:248,1,60,2|8,0:0|0:0,0:0:0:0:
40,208,20499,2,0,P|72:160|192:172,1,180,0|8,0:0|0:0,0:0:0:0:
288,224,21333,6,0,P|352:216|404:160,1,120,4|8,0:0|0:0,0:0:0:0:
432,136,21833,2,0,B|416:192|416:228|416:228|432:280|428:320,1,180,4|8,0:0|0:0,0:0:0:0:
400,352,22499,2,0,P|328:360|236:288,1,180,4|10,0:0|0:0,0:0:0:0:
208,268,23166,1,2,0:0:0:0:
116,188,23499,2,0,L|136:56,1,120,0|0,0:0|0:0,0:0:0:0:
128,32,23999,6,0,P|180:60|248:64,1,120,4|8,0:0|0:0,0:0:0:0:
360,56,24666,2,0,P|424:68|472:124,1,120,0|0,0:0|0:0,0:0:0:0:
484,148,25166,2,0,B|496:200|480:244|480:244|504:276|504:332,1,180,8|8,0:0|0:0,0:0:0:0:
504,372,25833,1,0,0:0:0:0:
404,308,26166,2,0,P|340:288|288:256,1,120,2|0,0:0|0:0,0:0:0:0:
256,232,26666,5,2,0:0:0:0:
164,156,26999,1,8,0:0:0:0:
132,128,27166,2,0,L|8:152,2,120,0|2|8,0:0|0:0|0:0,0:0:0:0:
248,96,28166,2,0,L|312:104,1,60,2|8,0:0|0:0,0:0:0:0:
356,108,28499,2,0,P|408:144|368:236,1,180,0|8,0:0|0:0,0:0:0:0:
284,320,29333,6,0,L|152:336,1,120,4|8,0:0|0:0,0:0:0:0:
116,340,29833,2,0,P|144:284|124:160,1,180,0|0,0:0|0:0,0:0:0:0:
104,132,30499,1,8,0:0:0:0:
164,28,30833,1,2,0:0:0:0:
280,56,31166,2,0,P|344:56|456:12,1,180,0|8,0:0|0:0,0:0:0:0:
428,132,31999,6,0,L|440:268,1,120,4|8,0:0|0:0,0:0:0:0:
416,292,32499,2,0,P|356:332|248:276,1,180,4|8,0:0|0:0,0:0:0:0:
228,264,33166,2,0,P|152:264|80:336,1,180,4|8,0:0|0:0,0:0:0:0:
52,372,33833,2,0,L|60:244,1,120,8|0,0:0|0:0,0:0:0:0:
64,204,34333,1,0,3:0:0:0:
140,112,34666,6,0,P|212:104|308:44,1,180,8|0,0:0|0:0,0:0:0:0:
332,16,35333,2,0,L|324:140,1,107.999996704102,0|0,0:0|0:0,0:0:0:0:
340,168,35833,2,0,P|376:212|472:144,1,180,8|0,0:0|0:0,0:0:0:0:
488,128,36499,2,0,L|504:300,1,161.999995056153,0|0,0:0|0:0,0:0:0:0:
484,332,37166,6,0,P|420:360|304:304,1,180,8|0,0:0|0:0,0:0:0:0:
216,264,37999,2,0,L|232:80,1,180,8|4,0:0|0:0,0:0:0:0:
136,12,38833,2,0,P|80:28|20:76,1,120,8|4,0:0|0:0,0:0:0:0:
104,228,39666,2,0,L|128:296,1,60,8|0,0:0|0:0,0:0:0:0:
136,332,39999,6,0,P|80:356|16:336,2,120,4|8|2,0:0|0:0|0:0,0:0:0:0:
244,280,40999,1,8,0:0:0:0:
280,260,41166,2,0,P|352:272|452:336,1,180,2|8,0:0|0:0,0:0:0:0:
420,208,41999,1,2,0:0:0:0:
364,100,42333,2,0,L|380:36,1,60,8|0,0:0|0:0,0:0:0:0:
392,4,42666,6,0,P|320:36|204:20,1,180,4|2,0:0|0:0,0:0:0:0:
180,16,43333,2,0,P|112:40|72:76,1,120,8|8,0:0|0:0,0:0:0:0:
8,172,43999,2,0,B|4:220|36:260|88:264|88:264|120:284|120:284|156:268|200:276,1,240,8|8,0:0|0:0,0:0:0:0:
296,316,44999,1,8,0:0:0:0:
256,200,45333,6,0,L|284:12,1,180,2|2,0:0|0:0,0:0:0:0:
368,104,46166,2,0,P|400:168|440:208,1,120,8|2,0:0|0:0,0:0:0:0:
380,308,46833,2,0,P|316:320|256:344,1,120,8|8,0:0|0:0,0:0:0:0:
224,352,47333,2,0,P|180:340|128:308,1,107.999996704102,8|0,0:0|0:0,0:0:0:0:
52,216,47999,6,0,L|32:88,1,120,8|12,0:0|0:0,0:0:0:0:
128,24,48666,2,0,P|204:32|244:64,1,120,8|0,0:0|0:0,0:0:0:0:
272,92,49166,2,0,P|356:104|444:40,1,180,4|8,0:0|0:0,0:0:0:0:
468,24,49833,1,4,0:0:0:0:
460,144,50166,2,0,L|472:212,1,60,2|8,0:0|0:0,0:0:0:0:
480,248,50499,6,0,P|436:232|312:268,1,180,4|2,0:0|0:0,0:0:0:0:
276,300,51166,2,0,L|296:112,1,180,8|2,0:0|0:0,0:0:0:0:
300,72,51833,1,12,0:0:0:0:
192,24,52166,2,0,P|128:36|72:72,1,120,8|4,0:0|0:0,0:0:0:0:
8,228,52999,1,8,0:0:0:0:
104,300,53333,6,0,P|172:320|220:312,1,120,2|12,0:0|0:0,0:0:0:0:
332,276,53999,1,8,0:0:0:0:
244,196,54333,1,8,0:0:0:0:
220,164,54499,2,0,L|244:36,1,120,4|2,0:0|0:0,0:0:0:0:
216,12,54999,2,0,L|136:24,1,60,8|4,0:0|0:0,0:0:0:0:
36,36,55499,1,8,0:0:0:0:
96,140,55833,6,0,B|96:188|80:232|80:232|84:280|100:328,1,180,4|8,0:0|0:0,0:0:0:0:
132,348,56499,2,0,P|184:352|284:276,1,180,4|8,0:0|0:0,0:0:0:0:
308,240,57166,2,0,P|340:204|468:248,1,180,4|8,0:0|0:0,0:0:0:0:
364,152,57999,2,0,P|312:124|256:72,1,120,8|8,0:0|0:0,0:0:0:0:
160,24,58666,5,4,0:0:0:0:
80,100,58999,1,8,0:0:0:0:
48,136,59166,2,0,P|40:208|112:284,1,180,0|8,0:0|0:0,0:0:0:0:
156,288,59833,2,0,P|216:288|344:348,1,180,2|8,0:0|0:0,0:0:0:0:
364,360,60499,1,2,0:0:0:0:
412,248,60833,2,0,L|400:188,1,60,2|8,0:0|0:0,0:0:0:0:
428,132,61166,6,0,P|376:164|264:144,1,180,2|8,0:0|0:0,0:0:0:0:
224,120,61833,2,0,P|136:124|72:212,1,180,2|8,0:0|0:0,0:0:0:0:
56,232,62499,1,4,0:0:0:0:
124,332,62833,2,0,L|248:360,1,120,2|2,0:0|0:0,0:0:0:0:
356,324,63499,2,0,L|424:304,1,60,2|8,0:0|0:0,0:0:0:0:
456,296,63833,6,0,P|416:268|376:144,1,180,2|8,0:0|0:0,0:0:0:0:
300,56,64666,2,0,L|272:176,1,120,2|10,0:0|0:0,0:0:0:0:
232,216,65166,2,0,L|256:352,2,120,4|2|2,0:0|0:0|0:0,0:0:0:0:
172,112,66166,2,0,L|104:84,1,60,8|8,0:0|0:0,0:0:0:0:
68,96,66499,2,0,P|24:132|64:252,1,180,4|8,0:0|0:0,0:0:0:0:
132,324,67333,6,0,B|192:312|208:284|208:284|236:288|236:288|300:280|368:332,1,240,8|8,0:0|0:0,0:0:0:0:
376,340,68833,2,0,L|368:268,1,60,8|8,0:0|0:0,0:0:0:0:
416,172,69333,6,0,P|340:160|248:84,1,180,4|0,0:0|0:0,0:0:0:0:
232,60,69999,2,0,L|200:116,1,60,2|2,0:0|0:0,0:0:0:0:
204,232,70499,2,0,P|160:272|36:240,1,180,2|4,0:0|3:0,0:0:0:0:
4,144,71333,1,2,0:0:0:0:
148,80,71833,6,0,P|224:76|328:36,1,180,4|8,0:0|0:0,0:0:0:0:
364,20,72499,2,0,P|424:44|484:144,1,180,4|8,0:0|0:0,0:0:0:0:
472,184,73166,2,0,L|428:360,1,180,4|8,0:0|0:0,0:0:0:0:
348,268,73999,2,0,L|340:148,1,120,8|0,0:0|0:0,0:0:0:0:
252,68,74666,6,0,P|176:68|128:112,1,120,4|8,0:0|0:0,0:0:0:0:
64,180,75333,2,0,L|88:316,1,120,2|8,0:0|0:0,0:0:0:0:
116,336,75833,2,0,P|176:344|264:252,1,180,2|8,0:0|0:0,0:0:0:0:
272,224,76499,2,0,L|300:44,1,180,2|8,0:0|0:0,0:0:0:0:
336,16,77166,6,0,P|256:40|144:24,1,180,2|8,0:0|0:0,0:0:0:0:
116,20,77833,2,0,P|44:48|44:160,1,180,2|8,0:0|0:0,0:0:0:0:
56,184,78499,2,0,P|112:204|192:296,1,180,4|8,0:0|0:0,0:0:0:0:
212,336,79166,2,0,L|232:152,1,180,2|8,0:0|0:0,0:0:0:0:
252,116,79833,6,0,P|284:76|400:108,1,180,4|8,0:0|0:0,0:0:0:0:
472,176,80666,2,0,L|464:300,1,120,2|8,0:0|0:0,0:0:0:0:
440,336,81166,2,0,P|380:356|316:340,2,120,4|4|4,0:0|0:0|0:0,0:0:0:0:
372,236,82166,2,0,L|316:200,1,60,2|8,0:0|0:0,0:0:0:0:
284,176,82499,6,0,P|192:192|144:280,1,180,4|8,0:0|0:0,0:0:0:0:
48,328,83333,2,0,L|64:196,1,120,0|8,0:0|0:0,0:0:0:0:
44,164,83833,6,0,P|116:152|192:72,1,180,4|8,0:0|0:0,0:0:0:0:
216,40,84499,2,0,P|280:32|388:80,1,180,4|8,0:0|0:0,0:0:0:0:
416,112,85166,6,0,L|448:304,1,180,4|8,0:0|0:0,0:0:0:0:
432,336,85833,2,0,P|400:356|280:300,1,180,4|8,0:0|0:0,0:0:0:0:
248,272,86499,6,0,P|172:276|88:340,1,180,4|8,0:0|0:0,0:0:0:0:
60,372,87166,2,0,L|76:184,1,180,4|8,0:0|0:0,0:0:0:0:
80,144,87833,1,4,0:0:0:0:
