osu file format v13

[General]
AudioFilename: Gimme! Revolution.mp3
AudioLeadIn: 1500
PreviewTime: 47099
Countdown: 0
SampleSet: Soft
StackLeniency: 0.4
Mode: 0
LetterboxInBreaks: 0
WidescreenStoryboard: 0

[Editor]
DistanceSpacing: 0.8
BeatDivisor: 4
GridSize: 4
TimelineZoom: 3.3

[Metadata]
Title:Gimme! Revolution (TV Size)
TitleUnicode:ギミー!レボリューション (TV Size)
Artist:Uchida Maaya
ArtistUnicode:内田真礼
Creator:MerryGate
Version:Insane
Source:俺、ツインテールになります。
Tags:opening yashikin tabuchi tomoya UNISON SQUARE GARDEN codama saori ore twintale ni narimasu
BeatmapID:536052
BeatmapSetID:230475

[Difficulty]
HPDrainRate:7
CircleSize:4
OverallDifficulty:8
ApproachRate:9
SliderMultiplier:1.7
SliderTickRate:1

[Events]
//Background and Video events
Video,-200,"VIDEO.avi"
0,0,"BG.jpg",0,0
//Break Periods
//Storyboard Layer 0 (Background)
//Storyboard Layer 1 (Fail)
//Storyboard Layer 2 (Pass)
//Storyboard Layer 3 (Foreground)
//Storyboard Sound Samples
//Background Colour Transformations
3,100,163,162,255

[TimingPoints]
-151,333.333333333333,4,2,1,60,1,0
3682,-125,4,2,1,50,0,0
4348,-111.111111111111,4,2,1,55,0,0
5015,-100,4,2,1,60,0,0
5348,-125,4,2,1,60,0,0
5682,-125,4,2,1,50,0,0
6848,-111.111111111111,4,2,1,50,0,0
7848,-100,4,2,1,60,0,0
8098,-100,4,2,1,20,0,0
8182,-100,4,2,1,60,0,0
9265,-100,4,2,1,20,0,0
9348,-100,4,2,1,60,0,0
10598,-100,4,2,1,20,0,0
10682,-100,4,2,1,60,0,0
12015,-100,4,2,2,50,0,0
13182,-100,4,2,1,60,0,0
13432,-100,4,2,1,20,0,0
13515,-100,4,2,1,55,0,0
18765,-100,4,2,1,20,0,0
18848,-100,4,2,1,55,0,0
19932,-100,4,2,1,20,0,0
20015,-100,4,2,1,60,0,0
21098,-100,4,2,1,20,0,0
21182,-83.3333333333333,4,2,1,65,0,0
21682,-100,4,2,1,55,0,0
23348,-100,4,2,1,60,0,0
24098,-100,4,2,1,20,0,0
24182,-100,4,2,1,55,0,0
29432,-100,4,2,1,20,0,0
29515,-100,4,2,1,55,0,0
30598,-100,4,2,1,20,0,0
30682,-100,4,2,1,60,0,0
31015,-100,4,2,3,50,0,0
31848,-100,4,2,1,60,0,0
32348,-100,4,2,1,55,0,0
33015,-90.9090909090908,4,2,1,60,0,0
33682,-83.3333333333333,4,2,1,65,0,0
34515,-100,4,1,1,60,0,0
37848,-100,4,3,1,50,0,0
38348,-111.111111111111,4,2,1,55,0,0
39848,-100,4,2,1,60,0,0
42765,-100,4,2,1,20,0,0
42848,-100,4,2,1,65,0,0
46348,-83.3333333333333,4,2,1,65,0,0
46598,-100,4,2,1,20,0,0
46682,-83.3333333333333,4,2,1,65,0,0
46932,-100,4,2,1,20,0,0
47015,-83.3333333333333,4,2,1,65,0,0
47182,-90.9090909090909,4,2,1,60,0,0
47432,-100,4,2,1,20,0,0
47515,-90.9090909090909,4,2,1,60,0,0
47848,-83.3333333333333,4,2,1,70,0,1
48098,-83.3333333333333,4,2,1,20,0,1
48182,-83.3333333333333,4,2,1,70,0,1
49265,-83.3333333333333,4,2,1,20,0,1
49348,-83.3333333333333,4,2,1,70,0,1
50598,-83.3333333333333,4,2,1,20,0,1
50682,-83.3333333333333,4,2,1,70,0,1
51932,-83.3333333333333,4,2,1,20,0,1
52015,-83.3333333333333,4,2,1,70,0,1
52598,-83.3333333333333,4,2,1,20,0,1
52682,-83.3333333333333,4,2,1,70,0,1
53432,-83.3333333333333,4,2,1,20,0,1
53515,-83.3333333333333,4,2,1,70,0,1
54598,-83.3333333333333,4,2,1,20,0,1
54682,-83.3333333333333,4,2,1,70,0,1
55932,-83.3333333333333,4,2,1,20,0,1
56015,-83.3333333333333,4,2,1,70,0,1
56598,-83.3333333333333,4,2,1,20,0,1
56682,-83.3333333333333,4,2,1,70,0,1
57765,-83.3333333333333,4,2,1,20,0,1
57848,-83.3333333333333,4,2,1,60,0,1
58182,-83.3333333333333,4,2,1,65,0,1
58515,-83.3333333333333,4,2,1,70,0,1
58765,-83.3333333333333,4,2,1,20,0,1
58814,333.333333333333,4,2,1,70,1,0
58814,-83.3333333333333,4,2,1,70,0,1
58848,-83.3333333333333,4,2,1,70,0,1
59676,333.333333333333,4,2,1,70,1,0
59676,-83.3333333333333,4,2,1,70,0,1
59932,-83.3333333333333,4,2,1,20,0,1
60015,-83.3333333333333,4,2,1,70,0,1
61176,333.333333333333,4,2,1,70,1,0
61176,-83.3333333333333,4,2,1,70,0,1
61259,-83.3333333333333,4,2,1,20,0,1
61342,-83.3333333333333,4,2,1,70,0,1
61926,-83.3333333333333,4,2,1,20,0,1
62009,-83.3333333333333,4,2,1,70,0,1
62592,-83.3333333333333,4,2,1,20,0,1
62676,-83.3333333333333,4,2,1,70,0,1
63676,-100,4,2,1,65,0,1
63759,-100,4,2,1,55,0,1
65009,-125,4,2,2,50,0,1
65259,-125,4,2,2,20,0,1
65342,-100,4,2,2,55,0,1
65592,-100,4,2,2,20,0,1
65676,-83.3333333333333,4,2,1,60,0,1
66592,-83.3333333333333,4,2,1,20,0,1
66676,-83.3333333333333,4,2,1,60,0,1
67842,-100,4,2,1,60,0,0
68675,-125,4,1,1,40,0,0
69175,-125,4,2,1,40,0,0
71342,-100,4,2,1,50,0,0
71675,-100,4,2,1,60,0,0
71925,-100,4,2,1,20,0,0
72009,-100,4,2,1,60,0,0
72592,-100,4,2,1,20,0,0
72675,-100,4,2,1,60,0,0
73842,-125,4,2,1,60,0,0
74092,-125,4,2,1,20,0,0
74175,-62.5,4,2,2,60,0,0
74425,-62.5,4,2,2,20,0,0
74509,-100,4,2,1,60,0,0
74759,-100,4,2,1,20,0,0
74842,-100,4,2,1,60,0,0
75925,-100,4,2,1,20,0,0
76009,-100,4,2,1,60,0,0
77259,-100,4,2,1,20,0,0
77342,-100,4,2,1,60,0,0
77925,-100,4,2,1,20,0,0
78009,-100,4,2,1,60,0,0
78342,-90.9090909090909,4,2,1,60,0,0
78592,-90.9090909090909,4,2,1,20,0,0
78675,-90.9090909090909,4,2,1,60,0,0
79259,-90.9090909090909,4,2,1,20,0,0
79342,-90.9090909090909,4,2,1,60,0,0
79675,-83.3333333333333,4,2,1,60,0,0
79925,-83.3333333333333,4,2,1,20,0,0
80009,-83.3333333333333,4,2,1,60,0,0
81009,-125,4,2,2,60,0,0
81259,-125,4,2,2,20,0,0
81342,-100,4,2,2,65,0,0
81592,-100,4,2,2,20,0,0
81675,-83.3333333333333,4,2,2,70,0,0
81925,-83.3333333333333,4,2,2,20,0,0
82009,-83.3333333333333,4,2,1,50,0,0
82342,-100,4,2,1,60,0,0
83675,-125,4,2,2,50,0,0
85009,-100,4,2,2,55,0,0
86342,-83.3333333333333,4,2,2,60,0,0
86592,-83.3333333333333,4,2,2,20,0,0
86675,-83.3333333333333,4,2,2,60,0,0
87259,-83.3333333333333,4,2,2,20,0,0
87342,-83.3333333333333,4,2,2,60,0,0
87675,-83.3333333333333,4,2,2,70,0,0

[Colours]
Combo1 : 180,180,180
Combo2 : 255,64,64
Combo3 : 64,159,255
Combo4 : 255,255,64

[HitObjects]
256,100,515,6,0,L|212:108,1,42.5
40,116,682,2,0,L|72:88,1,42.5,0|0,0:0|0:0,0:0:0:0:
136,144,848,1,0,0:0:0:0:
138,169,932,1,0,0:0:0:0:
140,194,1015,1,0,0:0:0:0:
142,220,1098,1,0,0:0:0:0:
144,245,1182,5,4,0:1:0:0:
146,270,1848,5,0,0:0:0:0:
171,247,1932,1,0,0:0:0:0:
203,237,2015,1,0,0:0:0:0:
236,242,2098,1,0,0:0:0:0:
264,261,2182,1,0,0:0:0:0:
282,290,2265,1,0,0:0:0:0:
285,324,2348,6,0,L|299:152,1,170,4|0,0:1|0:0,0:0:0:0:
412,96,2848,1,0,0:0:0:0:
460,288,3015,2,0,P|417:288|379:270,1,85,4|0,0:1|0:0,0:0:0:0:
284,144,3348,2,0,L|236:148,2,42.5,0|0|0,3:0|3:0|3:0,0:0:0:0:
464,32,3682,6,0,P|496:92|472:152,1,136,8|8,0:0|0:0,0:0:0:0:
448,176,4098,2,0,L|405:172,1,34,0|0,3:0|3:0,0:0:0:0:
208,112,4348,6,0,P|263:63|336:79,1,152.999995330811,8|8,0:0|0:0,0:0:0:0:
448,176,4848,1,0,0:0:0:0:
306,345,5015,6,0,P|293:305|300:264,1,85,8|0,0:0|0:0,0:0:0:0:
460,288,5348,2,0,L|508:292,2,34,8|0|0,0:0|3:0|3:0,0:0:0:0:
300,264,5682,6,0,L|165:276,1,136,2|0,0:0|0:0,0:0:0:0:
48,132,6182,2,0,P|58:97|82:73,1,68,2|0,0:0|0:0,0:0:0:0:
164,276,6515,2,0,P|198:286|222:310,1,68,2|0,0:0|0:0,0:0:0:0:
188,108,6848,2,0,P|200:92|216:82,1,38.2499988327027,2|0,0:0|0:0,0:0:0:0:
264,192,7015,2,0,P|282:185|301:182,1,38.2499988327027,2|0,0:0|0:0,0:0:0:0:
344,92,7182,6,0,L|361:83,1,19.1249994163513,2|0,0:0|0:0,0:0:0:0:
380,84,7265,2,0,L|399:85,1,19.1249994163513,2|0,0:0|0:0,0:0:0:0:
415,95,7348,2,0,L|431:105,1,19.1249994163513,2|0,0:0|0:0,0:0:0:0:
439,122,7432,2,0,L|447:139,1,19.1249994163513,2|0,0:0|0:0,0:0:0:0:
447,157,7515,1,0,3:0:0:0:
436,191,7598,1,0,3:0:0:0:
409,216,7682,1,0,3:0:0:0:
374,223,7765,1,0,3:0:0:0:
339,212,7848,6,0,P|276:196|224:224,1,127.5,4|0,3:0|0:0,0:0:0:0:
164,276,8182,2,0,L|80:268,1,85,8|0,0:0|0:0,0:0:0:0:
32,124,8515,1,0,3:0:0:0:
64,276,8682,1,0,3:0:0:0:
120,72,8848,1,8,0:0:0:0:
120,72,8932,1,0,0:0:0:0:
120,72,9015,6,0,P|184:76|231:40,1,127.5,0|0,3:0|0:0,0:0:0:0:
256,64,9348,2,0,L|340:72,1,85,0|8,3:0|0:0,0:0:0:0:
408,152,9682,1,0,0:0:0:0:
468,52,9848,1,0,3:0:0:0:
411,269,10015,1,0,3:0:0:0:
512,212,10182,1,8,0:0:0:0:
308,208,10348,6,0,L|181:220,1,127.5,0|0,3:0|0:0,0:0:0:0:
160,240,10682,1,0,3:0:0:0:
108,136,10848,1,8,0:0:0:0:
308,208,11015,1,0,3:0:0:0:
256,64,11182,1,0,3:0:0:0:
152,256,11348,1,0,3:0:0:0:
168,72,11515,1,8,0:0:0:0:
256,292,11682,1,4,0:0:0:0:
256,92,12015,6,0,L|256:116,1,21.25,2|0,0:0|0:0,0:0:0:0:
342,241,12182,2,0,L|324:231,1,21.25,2|0,0:0|0:0,0:0:0:0:
169,142,12348,2,0,L|190:154,1,21.25,2|0,0:0|0:0,0:0:0:0:
342,142,12515,2,0,L|321:154,1,21.25,2|0,0:0|0:0,0:0:0:0:
169,241,12682,2,0,L|190:230,1,21.25,2|0,0:0|0:0,0:0:0:0:
256,92,12848,2,0,L|256:116,1,21.25,2|0,0:0|0:0,0:0:0:0:
256,292,13182,6,0,L|383:280,1,127.5,0|0,3:0|0:0,0:0:0:0:
425,255,13515,2,0,L|342:241,1,85,8|0,0:0|0:0,0:0:0:0:
412,348,13848,1,0,0:0:0:0:
438,162,14015,1,0,3:0:0:0:
396,356,14182,1,0,0:0:0:0:
342,142,14348,6,0,L|168:158,1,170,8|0,0:0|0:0,0:0:0:0:
76,228,14848,1,8,0:0:0:0:
4,64,15015,2,0,L|91:71,1,85,0|0,0:0|0:0,0:0:0:0:
92,236,15348,1,0,3:0:0:0:
96,88,15515,1,8,0:0:0:0:
108,244,15682,1,0,0:0:0:0:
184,44,15848,5,0,3:0:0:0:
12,80,16015,1,0,0:0:0:0:
180,140,16182,1,8,0:0:0:0:
180,140,16348,2,0,L|263:132,1,85
432,232,16682,2,0,L|348:224,1,85,0|0,3:0|0:0,0:0:0:0:
180,324,17015,2,0,L|263:316,1,85,8|0,0:0|0:0,0:0:0:0:
468,328,17348,5,0,3:0:0:0:
432,232,17515,1,8,0:0:0:0:
368,312,17682,1,0,0:0:0:0:
496,152,17848,1,0,0:0:0:0:
332,216,18015,1,0,3:0:0:0:
396,136,18182,1,8,0:0:0:0:
368,312,18348,1,0,0:0:0:0:
296,120,18515,6,0,P|240:92|180:108,1,127.5,0|0,3:0|0:0,0:0:0:0:
116,152,18848,2,0,L|28:144,1,85,8|0,0:0|0:0,0:0:0:0:
144,40,19182,1,0,0:0:0:0:
232,184,19348,1,0,3:0:0:0:
128,48,19515,1,0,0:0:0:0:
104,256,19682,6,0,P|160:288|220:276,1,127.5,8|0,0:0|0:0,0:0:0:0:
288,244,20015,2,0,P|328:232|372:240,1,85,0|8,3:0|0:0,0:0:0:0:
464,336,20348,1,0,0:0:0:0:
464,336,20432,1,0,0:0:0:0:
464,336,20515,1,0,0:0:0:0:
416,172,20682,1,0,3:0:0:0:
332,320,20848,2,0,P|260:328|216:292,1,127.5,8|0,0:0|0:0,0:0:0:0:
152,252,21182,6,0,L|50:260,1,101.999996887207,4|0,0:0|3:0,0:0:0:0:
100,76,21515,1,8,0:0:0:0:
180,148,21682,6,0,L|349:161,1,170,4|0,0:0|3:0,0:0:0:0:
108,60,22182,1,8,0:0:0:0:
172,164,22348,6,0,L|341:177,1,170,4|0,0:0|3:0,0:0:0:0:
400,96,22848,1,8,0:0:0:0:
424,272,23015,1,0,3:0:0:0:
424,272,23348,5,0,0:0:0:0:
402,267,23432,1,0,0:0:0:0:
384,278,23515,1,0,0:0:0:0:
366,290,23598,1,0,0:0:0:0:
345,285,23682,1,0,0:0:0:0:
326,297,23765,1,0,0:0:0:0:
305,292,23848,6,0,P|272:236|288:176,1,127.5,0|0,3:0|0:0,0:0:0:0:
308,152,24182,2,0,L|224:144,1,85,8|0,0:0|0:0,0:0:0:0:
128,212,24515,1,0,0:0:0:0:
72,60,24682,1,0,3:0:0:0:
112,220,24848,1,0,0:0:0:0:
216,108,25015,6,0,B|253:76|253:76|376:65,1,170,8|0,0:0|3:0,0:0:0:0:
456,144,25515,1,8,0:0:0:0:
326,233,25682,2,0,B|312:207|312:207|308:152,1,85
404,324,26015,1,0,3:0:0:0:
288,344,26182,1,8,0:0:0:0:
479,243,26348,1,0,0:0:0:0:
412,340,26515,5,0,3:0:0:0:
474,136,26682,1,0,0:0:0:0:
496,252,26848,1,8,0:0:0:0:
384,216,27015,2,0,L|300:223,1,85
130,225,27348,2,0,L|196:280,1,85,0|0,3:0|0:0,0:0:0:0:
17,192,27682,2,0,L|9:107,1,85,8|0,0:0|0:0,0:0:0:0:
240,40,28015,5,0,3:0:0:0:
138,30,28182,1,8,0:0:0:0:
308,180,28348,1,0,0:0:0:0:
208,192,28515,1,0,0:0:0:0:
347,87,28682,1,0,3:0:0:0:
368,260,28848,1,8,0:0:0:0:
208,192,29015,1,0,0:0:0:0:
208,192,29098,1,0,0:0:0:0:
208,192,29182,6,0,P|148:188|96:228,1,127.5,0|0,3:0|0:0,0:0:0:0:
172,268,29515,2,0,L|255:275,1,85,8|0,0:0|0:0,0:0:0:0:
480,216,29848,1,0,0:0:0:0:
368,260,30015,1,0,3:0:0:0:
460,332,30182,1,0,0:0:0:0:
400,176,30348,6,0,P|384:116|416:60,1,127.5,8|0,0:0|0:0,0:0:0:0:
436,36,30682,2,0,L|351:28,1,85,0|8,3:0|0:0,0:0:0:0:
145,70,31015,2,0,L|167:64,1,21.25,2|0,0:0|0:0,0:0:0:0:
180,68,31098,2,0,L|201:73,1,21.25,2|0,0:0|0:0,0:0:0:0:
209,84,31182,1,2,0:0:0:0:
226,113,31265,1,2,0:0:0:0:
226,147,31348,1,2,3:0:0:0:
209,176,31432,1,2,0:0:0:0:
181,193,31515,2,0,L|136:197,1,42.5,8|0,0:0|0:0,0:0:0:0:
60,272,31682,2,0,L|102:276,1,42.5,0|0,3:0|3:0,0:0:0:0:
176,308,31848,5,4,0:0:0:0:
64,160,32015,1,0,3:0:0:0:
88,372,32182,1,8,0:0:0:0:
256,244,32348,6,0,P|324:204|404:236,1,170,4|0,0:0|3:0,0:0:0:0:
452,324,32848,1,8,0:0:0:0:
240,236,33015,6,0,P|244:144|316:92,1,187.000005706787,4|0,0:0|3:0,0:0:0:0:
428,112,33515,1,8,0:0:0:0:
364,284,33682,6,0,L|313:288,2,50.9999984436036,0|0|0,3:0|3:0|3:0,0:0:0:0:
472,228,34015,1,0,3:0:0:0:
428,112,34182,2,0,P|412:64|428:16,1,101.999996887207,8|0,0:0|0:0,0:0:0:0:
512,64,34515,5,0,0:0:0:0:
328,168,34682,1,0,0:0:0:0:
336,184,35682,5,0,0:0:0:0:
116,96,36015,1,0,0:0:0:0:
108,80,37015,5,0,0:0:0:0:
188,304,37348,1,0,0:0:0:0:
168,312,37848,5,8,0:0:0:0:
204,216,38015,1,0,0:0:0:0:
284,280,38182,1,0,0:0:0:0:
320,184,38348,6,0,P|376:136|448:152,1,152.999995330811,4|0,0:1|3:0,0:0:0:0:
384,320,38848,1,0,3:0:0:0:
284,280,39015,2,0,L|268:128,1,152.999995330811,4|0,0:1|3:0,0:0:0:0:
180,64,39515,1,8,0:0:0:0:
152,240,39682,1,0,0:0:0:0:
268,128,39848,6,0,P|336:84|412:116,2,170,0|8|0,3:0|0:0|0:0,0:0:0:0:
152,240,40682,2,0,L|108:243,2,42.5,0|0|8,0:0|0:0|0:0,0:0:0:0:
328,352,41015,2,0,L|342:180,1,170,0|0,3:0|3:0,0:0:0:0:
342,182,41515,1,8,0:0:0:0:
240,296,41682,1,0,3:0:0:0:
428,236,41848,1,0,3:0:0:0:
268,128,42015,2,0,L|224:125,2,42.5,0|0|8,0:0|0:0|0:0,0:0:0:0:
436,252,42348,1,0,0:0:0:0:
232,280,42515,6,0,L|104:268,1,127.5,8|0,0:0|0:0,0:0:0:0:
36,296,42848,1,8,0:0:0:0:
52,144,43015,1,0,3:0:0:0:
224,264,43182,5,8,0:0:0:0:
172,88,43348,1,0,3:0:0:0:
348,236,43515,1,8,0:0:0:0:
390,18,43682,1,0,3:0:0:0:
444,268,43848,5,8,0:0:0:0:
410,93,44015,1,0,3:0:0:0:
300,320,44182,1,8,0:0:0:0:
234,152,44348,1,0,3:0:0:0:
348,236,44515,5,8,0:0:0:0:
410,93,44682,1,0,3:0:0:0:
224,264,44848,1,8,0:0:0:0:
172,88,45015,1,0,3:0:0:0:
24,224,45182,6,0,P|100:251|165:201,1,170,4|8,0:0|0:0,0:0:0:0:
124,8,45682,1,0,0:0:0:0:
84,125,45848,2,0,L|88:168,1,42.5,0|0,3:0|3:0,0:0:0:0:
220,306,46015,2,0,L|224:264,1,42.5,0|0,3:0|3:0,0:0:0:0:
316,136,46182,1,8,0:0:0:0:
480,228,46348,6,0,P|404:224|353:278,1,152.999995330811,0|0,3:0|0:0,0:0:0:0:
278,171,46682,2,0,P|205:153|172:88,1,152.999995330811,0|0,0:0|0:0,3:0:0:0:
100,204,47015,1,0,3:0:0:0:
220,306,47182,6,0,L|359:292,1,140.25000428009,0|0,3:0|0:0,0:0:0:0:
480,228,47515,2,2,L|483:179,1,46.7500014266968,2|2,0:0|0:0,0:0:0:0:
412,108,47682,2,0,L|407:61,1,46.7500014266968,2|2,0:0|0:0,0:0:0:0:
290,18,47848,6,0,L|278:171,1,152.999995330811,0|0,3:0|0:0,0:0:0:0:
148,112,48182,2,0,L|249:103,1,101.999996887207,12|0,0:0|0:0,0:0:0:0:
480,228,48515,1,0,3:0:0:0:
480,228,48598,1,0,3:0:0:0:
480,228,48682,2,0,L|379:219,1,101.999996887207,0|0,3:0|0:0,0:0:0:0:
220,306,49015,6,0,P|272:256|268:180,1,152.999995330811,0|0,0:0|0:0,0:0:0:0:
216,120,49348,1,0,3:0:0:0:
64,172,49515,1,8,0:0:0:0:
196,228,49682,2,0,L|299:237,1,101.999996887207,0|0,0:0|0:0,0:0:0:0:
372,312,50015,1,0,3:0:0:0:
456,168,50182,1,8,0:0:0:0:
298,237,50348,6,0,P|246:187|250:111,1,152.999995330811,4|0,0:0|0:0,0:0:0:0:
308,60,50682,1,0,3:0:0:0:
408,184,50848,1,8,0:0:0:0:
196,228,51015,2,0,L|144:231,2,50.9999984436036,0|0|0,3:0|3:0|3:0,0:0:0:0:
372,312,51348,2,0,L|422:316,2,50.9999984436036,0|0|0,3:0|3:0|3:0,0:0:0:0:
323,156,51682,6,0,L|337:4,1,152.999995330811,4|0,0:0|0:0,0:0:0:0:
337,3,52015,1,0,3:0:0:0:
456,168,52182,1,0,3:0:0:0:
329,247,52348,2,0,P|258:268|196:228,1,152.999995330811,4|0,0:0|0:0,0:0:0:0:
112,184,52682,2,0,L|107:133,1,50.9999984436036,2|2,0:0|0:0,0:0:0:0:
116,40,52848,1,0,3:0:0:0:
116,40,52932,1,0,3:0:0:0:
116,40,53015,1,0,3:0:0:0:
116,40,53098,1,0,3:0:0:0:
116,40,53182,6,0,P|176:84|248:64,1,152.999995330811,0|0,3:0|0:0,0:0:0:0:
312,24,53515,2,0,L|415:33,1,101.999996887207,12|0,0:0|0:0,0:0:0:0:
400,252,53848,1,0,3:0:0:0:
364,124,54015,1,0,0:0:0:0:
456,168,54182,1,8,0:0:0:0:
308,208,54348,6,0,L|152:194,1,152.999995330811,0|0,3:0|0:0,0:0:0:0:
80,212,54682,1,0,3:0:0:0:
248,108,54848,1,8,0:0:0:0:
132,280,55015,2,0,P|84:300|36:288,1,101.999996887207,0|0,0:0|0:0,0:0:0:0:
4,72,55348,1,0,3:0:0:0:
80,212,55515,1,8,0:0:0:0:
172,64,55682,6,0,P|232:20|304:40,1,152.999995330811,4|0,3:0|0:0,0:0:0:0:
240,209,56015,2,0,L|248:108,1,101.999996887207,0|8,3:0|0:0,0:0:0:0:
384,180,56348,6,0,L|397:332,1,152.999995330811,4|0,3:0|0:0,0:0:0:0:
200,296,56682,2,0,P|249:303|293:279,1,101.999996887207,0|8,3:0|0:0,0:0:0:0:
476,152,57015,6,0,P|407:83|311:116,1,203.999993774414,4|0,3:0|3:0,0:0:0:0:
200,296,57515,6,0,L|186:143,1,152.999995330811,8|0,0:0|0:0,0:0:0:0:
121,59,57848,2,0,L|172:64,1,50.9999984436036,0|0,0:0|0:0,3:0:0:0:
264,80,58015,1,0,3:0:0:0:
264,80,58098,1,0,3:0:0:0:
264,80,58182,5,8,0:0:0:0:
299,73,58265,1,0,3:0:0:0:
334,67,58348,1,0,3:0:0:0:
369,61,58432,1,0,3:0:0:0:
404,55,58515,6,0,L|248:38,1,152.999995330811,0|0,3:0|0:0,0:0:0:0:
336,160,58814,2,0,P|384:140|436:152,1,101.999996887207,8|0,0:0|0:0,0:0:0:0:
492,232,59147,1,0,3:0:0:0:
320,168,59314,1,0,3:0:0:0:
439,49,59480,1,8,0:0:0:0:
304,176,59676,6,0,L|152:189,1,152.999995330811,0|0,3:0|0:0,0:0:0:0:
84,224,60009,1,0,3:0:0:0:
229,87,60176,1,8,0:0:0:0:
216,312,60342,2,0,L|207:211,1,101.999996887207,0|0,0:0|0:0,0:0:0:0:
229,87,60676,1,0,3:0:0:0:
364,232,60842,1,8,0:0:0:0:
200,320,61009,6,0,L|183:167,1,152.999995330811,4|0,3:0|0:0,0:0:0:0:
364,232,61342,2,0,L|263:223,1,101.999996887207,0|8,3:0|0:0,0:0:0:0:
152,52,61676,6,0,P|212:8|284:28,1,152.999995330811,4|0,3:0|0:0,0:0:0:0:
183,168,62009,2,0,L|82:177,1,101.999996887207,0|8,3:0|0:0,0:0:0:0:
200,320,62342,6,0,B|256:340|296:304|296:304|344:320,1,152.999995330811,4|0,3:0|0:0,0:0:0:0:
240,248,62676,2,0,P|236:200|264:156,1,101.999996887207,0|8,3:0|0:0,0:0:0:0:
488,180,63009,2,0,P|448:207|396:205,1,101.999996887207,4|0,0:0|3:0,0:0:0:0:
304,0,63342,1,0,0:0:0:0:
424,124,63509,1,8,0:0:0:0:
263,156,63676,6,0,L|94:170,1,170,4|0,0:1|0:0,0:0:0:0:
196,36,64176,1,8,0:0:0:0:
196,36,64509,1,8,0:0:0:0:
196,36,64842,1,8,0:0:0:0:
300,68,65009,6,0,P|344:88|396:80,1,102,4|0,1:0|0:0,0:0:0:0:
468,120,65342,6,0,L|340:131,1,127.5,4|0,1:0|0:0,0:0:0:0:
263,156,65676,6,0,L|259:207,1,50.9999984436036,4|0,1:0|0:0,0:0:0:0:
220,312,65842,2,0,L|236:292,1,25.4999992218018,2|0,0:0|0:0,0:0:0:0:
252,288,65926,2,0,L|278:278,1,25.4999992218018,2|0,0:0|0:0,0:0:0:0:
291,283,66009,2,0,L|318:287,1,25.4999992218018,0|0,3:0|0:0,0:0:0:0:
327,298,66092,2,0,L|348:315,1,25.4999992218018,0|0,3:0|0:0,0:0:0:0:
351,329,66176,1,0,3:0:0:0:
472,348,66342,6,0,L|458:192,1,152.999995330811,0|0,3:0|0:0,0:0:0:0:
468,120,66676,1,0,3:0:0:0:
368,192,66842,1,8,0:0:0:0:
356,68,67009,1,0,3:0:0:0:
476,136,67176,5,8,0:0:0:0:
340,36,67342,1,0,3:0:0:0:
336,208,67509,1,0,3:0:0:0:
484,152,67676,5,8,3:0:0:0:
304,224,67842,1,12,0:0:0:0:
304,224,68675,5,0,0:0:0:0:
112,156,68842,2,0,L|44:161,1,68,0|0,0:0|2:0,0:0:0:0:
100,260,69175,6,0,P|158:227|222:243,1,136,0|8,3:0|0:0,0:0:0:0:
376,160,69675,1,0,3:0:0:0:
376,160,69759,1,0,3:0:0:0:
376,160,69842,2,0,P|393:188|399:222,1,68,0|0,3:0|0:0,0:0:0:0:
304,224,70175,1,8,0:0:0:0:
296,112,70342,2,0,L|431:100,1,136,0|0,0:0|3:0,0:0:0:0:
304,224,70842,2,0,L|236:218,1,68,8|0,0:0|0:0,0:0:0:0:
56,68,71175,2,0,L|40:66,3,17,2|0|2|0,0:0|0:0|0:0|0:0,0:0:0:0:
56,68,71342,2,0,L|60:111,1,42.5,0|0,1:0|3:0,0:0:0:0:
136,156,71509,2,0,L|133:199,1,42.5,0|0,1:0|3:0,0:0:0:0:
80,300,71675,6,0,P|135:272|194:291,1,127.5,4|0,3:0|0:0,0:0:0:0:
256,336,72009,2,0,L|340:327,1,85,0|8,3:0|0:0,0:0:0:0:
412,160,72342,6,0,L|285:148,1,127.5,4|0,3:0|0:0,0:0:0:0:
211,160,72675,2,0,P|195:121|200:80,1,85,0|8,3:0|0:0,0:0:0:0:
472,228,73009,6,0,B|408:268|356:228|356:228|316:252,1,170,4|0,3:0|3:0,0:0:0:0:
412,160,73509,2,0,L|404:76,1,85,8|0,0:0|0:0,0:0:0:0:
211,160,73842,6,0,P|161:180|116:168,1,102
72,156,74175,6,0,P|148:216|104:296,1,204,4|0,0:1|0:0,0:0:0:0:
64,320,74509,6,0,L|191:308,1,127.5,4|0,3:0|0:0,0:0:0:0:
268,292,74842,2,0,L|358:307,1,85,8|0,0:0|0:0,0:0:0:0:
412,160,75175,1,0,3:0:0:0:
268,196,75342,1,0,3:0:0:0:
484,216,75509,1,8,0:0:0:0:
484,216,75592,1,0,0:0:0:0:
484,216,75675,6,0,P|504:156|480:100,1,127.5,0|0,3:0|0:0,0:0:0:0:
416,60,76009,2,0,L|332:51,1,85,0|8,3:0|0:0,0:0:0:0:
412,160,76342,1,0,3:0:0:0:
324,36,76509,2,0,L|240:27,1,85,0|0,0:0|3:0,0:0:0:0:
123,138,76842,1,8,0:0:0:0:
235,307,77009,6,0,P|273:257|268:196,1,127.5,4|0,3:0|0:0,0:0:0:0:
208,148,77342,2,0,L|124:139,1,85,0|8,3:0|0:0,0:0:0:0:
200,236,77675,6,0,L|327:225,1,127.5,4|0,3:0|0:0,0:0:0:0:
404,256,78009,2,0,P|376:287|334:303,1,85,0|8,3:0|0:0,0:0:0:0:
314,86,78342,6,0,L|327:225,1,140.25000428009,4|0,3:0|0:0,0:0:0:0:
480,216,78675,2,0,P|452:179|407:167,1,93.5000028533936,0|8,3:0|0:0,0:0:0:0:
91,299,79009,6,4,P|159:290|200:236,1,140.25000428009,4|0,3:0|0:0,0:0:0:0:
96,124,79342,2,0,L|112:216,1,93.5000028533936,0|8,3:0|0:0,0:0:0:0:
320,312,79675,6,0,L|333:160,1,152.999995330811,4|0,3:0|0:0,0:0:0:0:
314,86,80009,1,0,3:0:0:0:
404,256,80175,1,8,0:0:0:0:
232,176,80342,2,0,L|180:171,2,50.9999984436036,0|0|0,0:0|0:0|0:0,0:0:0:0:
424,144,80675,1,0,3:0:0:0:
296,272,80842,1,8,0:0:0:0:
120,225,81009,6,0,L|16:233,1,102,4|0,0:1|0:0,0:0:0:0:
120,225,81342,6,0,L|47:119,1,127.5,4|0,0:1|0:0,0:0:0:0:
120,225,81675,6,0,L|185:86,1,152.999995330811,4|0,0:1|0:0,0:0:0:0:
256,28,82009,2,0,P|279:21|307:19,1,50.9999984436036,0|0,3:0|0:0,0:0:0:0:
424,144,82175,2,0,P|398:141|373:135,1,50.9999984436036,8|0,0:0|0:0,0:0:0:0:
483,79,82342,6,0,P|516:154|469:221,1,170,4|0,3:0|3:0,0:0:0:0:
296,272,82842,1,8,0:0:0:0:
424,144,83009,1,0,3:0:0:0:
352,360,83175,1,0,0:0:0:0:
392,236,83342,1,0,3:0:0:0:
448,324,83509,1,8,0:0:0:0:
296,272,83675,6,0,L|160:283,1,136,4|0,3:0|3:0,0:0:0:0:
160,283,84175,1,8,0:0:0:0:
76,104,84342,2,0,L|211:115,1,136,4|0,3:0|3:0,0:0:0:0:
211,115,84842,1,8,0:0:0:0:
340,200,85009,6,0,P|420:215|478:159,1,170,4|0,3:0|3:0,0:0:0:0:
478,159,85509,1,8,0:0:0:0:
296,272,85675,2,0,L|282:102,1,170,4|0,3:0|3:0,0:0:0:0:
282,102,86175,1,8,0:0:0:0:
24,180,86342,6,0,P|97:193|153:144,1,152.999995330811,4|0,3:0|0:0,0:0:0:0:
164,184,86675,2,0,L|267:193,1,101.999996887207,0|8,3:0|0:0,0:0:0:0:
488,316,87009,2,0,P|414:302|358:351,1,152.999995330811,4|0,3:0|0:0,0:0:0:0:
348,312,87342,2,0,L|244:302,1,101.999996887207,0|8,3:0|0:0,0:0:0:0:
256,80,87675,5,4,0:0:0:0:
