osu file format v13

[General]
AudioFilename: Gimme! Revolution.mp3
AudioLeadIn: 500
PreviewTime: 47332
Countdown: 0
SampleSet: Soft
StackLeniency: 0.7
Mode: 0
LetterboxInBreaks: 0
WidescreenStoryboard: 0

[Editor]
DistanceSpacing: 0.9
BeatDivisor: 4
GridSize: 8
TimelineZoom: 1.9

[Metadata]
Title:Gimme! Revolution
TitleUnicode:ギミー!レボリューション
Artist:Uchida Maaya
ArtistUnicode:内田真礼
Creator:Meyrink
Version:Yomi's Insane
Source:俺、ツインテールになります。
Tags:Ore, Twintails ni Narimasu. Gonna be the Twin-Tails!! Opening TV Size Kibbleru Tsukuyomi baldrace
BeatmapID:556637
BeatmapSetID:225675

[Difficulty]
HPDrainRate:6.5
CircleSize:4.5
OverallDifficulty:8
ApproachRate:9
SliderMultiplier:1.8
SliderTickRate:1

[Events]
//Background and Video events
0,0,"TwinTails.jpg",0,0
Video,-12,"OP.avi"
//Break Periods
//Storyboard Layer 0 (Background)
//Storyboard Layer 1 (Fail)
//Storyboard Layer 2 (Pass)
//Storyboard Layer 3 (Foreground)
//Storyboard Sound Samples

[TimingPoints]
1333,333.333333333333,4,2,3,70,1,0
1333,-133.333333333333,4,2,3,70,0,0
1666,-100,4,2,3,70,0,0
5832,-200,4,2,3,70,0,0
5999,-100,4,2,3,70,0,0
13332,-100,4,2,3,50,0,0
23499,-100,4,2,4,30,0,0
23999,-100,4,2,3,50,0,0
38499,-100,4,2,3,60,0,0
38832,-100,4,2,3,50,0,0
38999,-100,4,2,3,60,0,0
48332,-83.3333333333333,4,2,3,70,0,1
58999,-100,4,2,3,70,0,1
65499,-80,4,2,3,75,0,1
65832,-66.6666666666667,4,2,3,75,0,1
65999,-100,4,2,3,75,0,1
67999,-100,4,2,3,75,0,0
68832,-100,4,2,1,50,0,0
69332,-100,4,2,3,60,0,0
73999,-100,4,2,1,60,0,0
74332,-80,4,2,3,60,0,0
74666,-100,4,2,3,70,0,0
79832,-80,4,2,3,75,0,0
80166,-100,4,2,3,75,0,0
81166,-80,4,2,3,75,0,0
81999,-100,4,2,3,75,0,0

[Colours]
Combo1 : 247,117,136
Combo2 : 255,255,128
Combo3 : 94,166,255

[HitObjects]
441,121,1333,6,0,B|401:186|348:177|348:177|341:214,1,135.000005149842,4|0,0:0|0:0,0:0:0:0:
356,94,1832,1,2,0:0:0:0:
441,121,1999,1,0,0:0:0:0:
482,204,2166,1,2,0:0:0:0:
471,211,2249,1,0,0:0:0:0:
462,221,2332,1,2,0:0:0:0:
453,231,2416,1,0,0:0:0:0:
446,242,2499,6,0,B|405:258|405:258|383:291|383:291|281:275,1,180,4|2,0:0|0:0,0:0:0:0:
337,199,2999,1,8,0:0:0:0:
201,317,3166,2,0,B|160:313|160:313|144:297|144:297|117:295,1,90,4|0,0:0|0:0,0:0:0:0:
276,365,3499,1,0,3:0:0:0:
276,365,3582,1,0,0:0:0:0:
276,365,3666,1,0,3:0:0:0:
117,295,3832,6,0,B|158:291|158:291|174:275|174:275|200:273,1,90,4|0,0:0|0:0,0:0:0:0:
276,365,4166,1,8,0:0:0:0:
276,365,4332,1,2,0:0:0:0:
200,273,4499,6,0,B|159:269|159:269|143:253|143:253|116:251,1,90,12|0,0:0|0:0,0:0:0:0:
116,251,4832,1,8,0:0:0:0:
276,365,4999,1,2,0:0:0:0:
116,251,5166,6,0,B|157:247|157:247|173:231|173:231|199:229,1,90,12|0,0:0|0:0,0:0:0:0:
54,185,5499,1,8,3:0:0:0:
54,185,5582,1,0,0:0:0:0:
54,185,5666,1,0,3:0:0:0:
121,81,5832,6,0,L|121:126,1,45,4|2,0:0|0:0,0:0:0:0:
54,185,6332,5,2,0:0:0:0:
121,126,6666,5,2,0:0:0:0:
54,185,6999,5,2,0:0:0:0:
121,126,7166,5,2,0:0:0:0:
187,66,7332,5,0,3:0:0:0:
199,71,7416,1,0,0:0:0:0:
211,76,7499,1,0,3:0:0:0:
222,82,7582,1,0,0:0:0:0:
234,106,7666,1,0,3:0:0:0:
233,119,7749,1,0,0:0:0:0:
232,132,7832,1,0,3:0:0:0:
231,145,7916,1,0,0:0:0:0:
253,159,7999,6,0,B|285:161|285:161|352:127,1,90,4|0,0:0|0:0,0:0:0:0:
441,197,8332,2,0,B|409:195|409:195|358:222,1,90,8|0,0:0|0:0,0:0:0:0:
278,266,8666,1,2,0:0:0:0:
118,337,8832,2,0,B|150:339|150:339|201:312,1,90,2|8,0:0|0:0,0:0:0:0:
111,157,9166,6,0,B|96:203|96:203|111:242|111:242|150:244|150:244|196:221,1,180,4|0,0:0|0:0,0:0:0:0:
278,266,9666,1,8,0:0:0:0:
357,222,9832,1,0,0:0:0:0:
253,352,9999,5,2,0:0:0:0:
357,222,10166,1,2,0:0:0:0:
223,125,10332,1,10,0:0:0:0:
385,136,10499,2,0,B|297:164|297:164|297:66,1,180,4|2,0:0|0:0,0:0:0:0:
266,255,10999,6,0,B|222:269|222:269|222:220,1,90,8|0,0:0|0:0,0:0:0:0:
357,222,11332,1,8,0:3:0:0:
297,76,11499,1,2,0:0:0:0:
385,136,11666,1,8,0:0:0:0:
223,125,11832,1,2,0:0:0:0:
223,125,12166,5,2,0:0:0:0:
166,169,12332,1,2,0:0:0:0:
104,131,12499,1,2,0:0:0:0:
247,151,12666,5,0,0:0:0:0:
173,209,12832,2,0,L|121:175,1,45,2|0,0:0|0:0,0:0:0:0:
92,159,12999,1,2,0:0:0:0:
92,159,13332,5,4,0:0:0:0:
92,159,13666,2,0,B|65:193|65:193|85:306,1,135,8|0,0:0|0:0,0:0:0:0:
93,326,13999,1,2,0:0:0:0:
272,336,14166,1,2,0:0:0:0:
183,330,14332,1,0,0:0:0:0:
272,336,14499,6,0,B|299:302|299:302|285:217,2,90,8|0|2,0:0|0:0|0:0,0:0:0:0:
183,330,14999,1,8,0:0:0:0:
73,246,15166,2,0,B|66:292|66:292|93:326,1,90,0|0,0:0|0:0,0:0:0:0:
272,336,15499,1,2,0:0:0:0:
183,330,15666,1,8,0:0:0:0:
232,255,15832,1,2,0:0:0:0:
286,345,15999,5,2,0:0:0:0:
167,337,16166,1,0,0:0:0:0:
232,237,16332,1,8,0:0:0:0:
301,353,16499,5,2,0:0:0:0:
321,343,16832,1,2,0:0:0:0:
342,335,17166,1,10,0:0:0:0:
362,325,17499,5,0,0:0:0:0:
448,300,17666,1,8,0:0:0:0:
354,303,17832,1,2,0:0:0:0:
441,278,17999,2,0,B|430:235|430:235|441:186,1,90,2|0,0:0|0:0,0:0:0:0:
353,122,18332,2,0,B|363:167|363:167|352:210,1,90,8|0,0:0|0:0,0:0:0:0:
423,64,18666,5,4,0:0:0:0:
423,64,18999,2,0,B|357:122|357:122|304:122,1,135,8|0,0:0|0:0,0:0:0:0:
265,119,19332,1,2,0:0:0:0:
265,28,19499,1,2,0:0:0:0:
266,209,19666,1,2,0:0:0:0:
266,209,19832,6,0,B|203:235|203:235|180:204|180:204|193:165|193:165|171:96,1,180,8|2,0:0|0:0,0:0:0:0:
265,28,20332,2,0,B|296:29|296:29|339:75,1,90,8|2,0:0|0:0,0:0:0:0:
358,76,20555,2,0,L|359:126,1,30,2|2,0:0|0:0,0:0:0:0:
380,78,20666,2,0,B|411:79|411:79|454:125,1,90,2|0,0:0|0:0,0:0:0:0:
428,264,20999,2,0,B|397:263|397:263|356:219,1,90,8|2,0:0|0:0,0:0:0:0:
382,78,21332,5,4,0:0:0:0:
266,209,21499,1,2,0:0:0:0:
451,122,21666,1,8,0:0:0:0:
195,165,21832,2,0,B|161:117|199:91|199:91|252:123|302:123,1,180,4|2,0:0|0:0,0:0:0:0:
266,209,22332,1,8,0:0:0:0:
451,122,22499,6,0,B|485:170|447:196|447:196|394:164|344:164,1,180,4|2,0:0|0:0,0:0:0:0:
382,78,22999,1,8,0:0:0:0:
266,209,23166,1,4,0:0:0:0:
266,209,23499,2,0,B|252:229|252:229|257:273,1,45,2|0,0:0|0:0,0:0:0:0:
218,221,23666,2,0,B|204:241|204:241|206:261,1,45,2|0,0:0|0:0,0:0:0:0:
173,230,23832,2,0,B|159:250|159:250|164:294,1,45,2|0,0:0|0:0,0:0:0:0:
80,282,23999,6,0,B|76:227|76:227|116:176|116:176|116:111,1,180,4|8,0:0|0:0,0:0:0:0:
178,50,24499,1,2,0:0:0:0:
264,74,24666,2,0,B|288:100|288:100|288:166,1,90,2|0,0:0|0:0,0:0:0:0:
212,204,24999,1,0,0:0:0:0:
366,199,25166,6,0,B|343:225|343:225|288:241|288:241|233:229|233:229|210:202,1,180,8|2,0:0|0:0,0:0:0:0:
136,253,25666,1,8,0:0:0:0:
290,248,25832,2,0,B|267:274|267:274|212:290|212:290|157:278|157:278|134:251,1,180,2|2,0:0|0:0,0:0:0:0:
212,204,26332,1,8,0:0:0:0:
132,162,26499,1,2,0:0:0:0:
366,199,26666,5,2,0:0:0:0:
290,248,26832,1,0,0:0:0:0:
212,204,26999,1,8,0:0:0:0:
136,253,27166,2,0,B|92:260|92:260|42:248,1,90,2|0,0:0|0:0,0:0:0:0:
212,204,27499,2,0,B|240:238|240:238|254:287,1,90,2|0,0:0|0:0,0:0:0:0:
132,161,27832,2,0,B|147:119|147:119|183:82,1,90,10|0,0:0|0:0,0:0:0:0:
212,204,28166,5,2,0:0:0:0:
47,249,28332,2,0,B|92:260|92:260|136:253,1,90,8|0,0:0|0:0,0:0:0:0:
212,116,28666,1,2,0:0:0:0:
132,162,28832,1,0,0:0:0:0:
212,204,28999,1,8,0:0:0:0:
135,253,29166,1,2,0:0:0:0:
135,253,29249,1,0,0:0:0:0:
135,253,29332,5,4,0:0:0:0:
135,253,29666,2,0,B|157:292|157:292|259:331,1,135,8|0,0:0|0:0,0:0:0:0:
284,337,29999,1,2,0:0:0:0:
212,204,30166,1,2,0:0:0:0:
290,248,30332,1,2,0:0:0:0:
135,253,30499,2,0,B|130:210|130:210|144:147,1,90,8|0,0:0|0:0,0:0:0:0:
290,248,30832,2,0,B|295:291|295:291|281:354,1,90,2|8,0:0|0:0,0:0:0:0:
212,204,31166,6,0,L|250:173,3,45,2|0|2|0,0:0|0:0|0:0|0:0,0:0:0:0:
246,153,31499,2,0,B|249:129|249:129|234:80,1,45,2|0,0:0|0:0,0:0:0:0:
311,49,31666,2,0,B|308:73|308:73|323:122,1,45,8|0,0:0|0:0,0:0:0:0:
393,136,31832,1,2,0:0:0:0:
393,136,31916,1,0,0:0:0:0:
393,136,31999,5,4,0:0:0:0:
438,283,32166,1,2,0:0:0:0:
290,248,32332,1,8,0:0:0:0:
392,136,32499,2,0,P|467:119|458:196,1,180,4|2,0:0|0:0,0:0:0:0:
438,283,32999,1,8,0:0:0:0:
289,248,33166,6,0,P|236:191|306:159,1,180,4|2,0:0|0:0,0:0:0:0:
393,136,33666,1,8,0:0:0:0:
438,283,33832,1,0,3:0:0:0:
398,305,33916,1,0,0:0:0:0:
353,311,33999,1,0,3:0:0:0:
209,287,34166,1,2,0:0:0:0:
315,184,34332,2,0,B|330:228|330:228|290:248,1,90,2|0,0:0|0:0,0:0:0:0:
393,136,34666,5,2,1:0:0:0:
393,136,34832,1,0,1:0:0:0:
323,80,34999,1,0,0:0:0:0:
323,80,35166,2,0,B|279:89|279:89|235:77,1,90,2|0,0:0|0:0,0:0:0:0:
315,184,35499,5,2,0:0:0:0:
315,184,35666,1,0,0:0:0:0:
157,125,35832,2,0,B|200:136|200:136|244:127,1,90,2|0,1:0|0:0,0:0:0:0:
238,230,36166,5,8,1:2:0:0:
238,230,36332,1,2,0:0:0:0:
167,173,36499,2,0,B|123:182|123:182|80:171,1,90,2|0,0:0|0:0,0:0:0:0:
162,278,36832,5,2,0:0:0:0:
162,278,36999,1,0,0:0:0:0:
4,219,37166,2,0,B|47:230|47:230|91:221,1,90,2|0,1:0|0:0,0:0:0:0:
249,280,37499,6,0,B|206:269|206:269|162:278,1,90,0|0,1:0|0:0,0:0:0:0:
162,278,37832,1,2,0:0:0:0:
4,331,37999,2,0,B|47:342|47:342|91:333,2,90,8|0|0,1:3|1:0|1:0,0:0:0:0:
90,215,38499,6,0,B|133:226|133:226|221:211|221:211|265:227,1,180,4|0,0:0|1:0,0:0:0:0:
354,215,38999,1,0,1:0:0:0:
265,203,39166,6,0,B|221:218|221:218|133:203|133:203|90:214,1,180,4|2,0:0|0:0,0:0:0:0:
184,300,39666,1,8,0:0:0:0:
174,117,39832,1,2,0:0:0:0:
184,300,39999,6,0,B|217:299|217:299|241:313|241:313|281:312,1,90,4|0,0:0|0:0,0:0:0:0:
174,117,40332,2,0,B|141:118|141:118|117:104|117:104|77:105,1,90,8|2,0:0|0:0,0:0:0:0:
184,300,40666,1,2,0:0:0:0:
184,300,40832,2,0,B|217:299|217:299|241:313|241:313|281:312,1,90,0|8,0:0|0:0,0:0:0:0:
432,275,41166,2,0,B|403:276|403:276|379:262|379:262|346:263,1,90,2|0,0:0|0:0,0:0:0:0:
184,300,41499,5,2,0:0:0:0:
244,174,41666,1,8,0:0:0:0:
270,312,41832,1,2,0:0:0:0:
174,117,41999,1,0,0:0:0:0:
334,173,42166,1,4,1:0:0:0:
334,173,42332,1,4,1:0:0:0:
244,174,42499,1,2,0:0:0:0:
270,312,42666,6,0,B|303:315|303:315|355:293,1,90,12|2,0:2|0:0,0:0:0:0:
244,174,42999,2,0,B|211:171|211:171|158:192,1,90,8|2,0:0|0:0,0:0:0:0:
334,173,43332,2,0,B|337:140|337:140|315:87,1,90,8|2,0:0|0:0,0:0:0:0:
393,272,43666,2,0,L|384:304,7,22.5,8|0|2|0|2|0|2|0,0:0|0:0|0:0|0:0|0:0|0:0|0:0|0:0,0:0:0:0:
355,293,43999,5,8,0:0:0:0:
155,229,44166,1,2,0:0:0:0:
359,174,44332,1,8,0:0:0:0:
162,250,44499,1,2,0:0:0:0:
161,133,44666,1,8,0:0:0:0:
361,197,44832,1,2,0:0:0:0:
365,75,44999,1,8,0:0:0:0:
167,154,45166,1,2,0:0:0:0:
167,34,45332,6,0,B|210:46|210:46|251:124|251:124|312:137,1,180,4|8,0:0|0:0,0:0:0:0:
365,75,45832,1,2,0:0:0:0:
234,198,45999,1,0,3:0:0:0:
189,197,46082,1,2,0:0:0:0:
169,237,46166,1,0,3:0:0:0:
151,278,46249,1,2,0:0:0:0:
106,277,46332,1,0,3:0:0:0:
232,348,46499,1,0,1:0:0:0:
254,346,46832,6,0,L|336:295,1,90,0|2,1:0|0:0,0:0:0:0:
209,349,47166,1,0,1:0:0:0:
375,298,47332,1,0,1:0:0:0:
375,298,47666,2,0,P|401:289|428:262,1,45,0|2,0:0|0:0,0:0:0:0:
373,199,47832,2,0,P|347:208|320:235,1,45,0|2,0:0|0:0,0:0:0:0:
457,204,47999,5,0,1:0:0:0:
209,349,48332,2,0,B|185:328|185:328|165:251,1,107.999996704102,0|2,1:0|0:0,0:0:0:0:
209,121,48666,1,8,3:0:0:0:
215,148,48749,1,0,0:0:0:0:
222,175,48832,1,0,3:0:0:0:
330,170,48999,1,2,0:0:0:0:
209,121,49166,6,0,B|225:189|225:189|290:228|290:228|337:161,1,215.999993408203,4|2,0:0|0:0,0:0:0:0:
165,254,49666,1,8,0:0:0:0:
331,98,49832,2,0,B|341:155|341:155|290:228|290:228|305:302,1,215.999993408203,4|2,0:0|0:0,0:0:0:0:
419,157,50332,1,8,0:0:0:0:
303,295,50499,6,0,B|277:246|277:246|312:198|312:198|263:167|263:167|216:177,1,215.999993408203,4|8,0:0|0:0,0:0:0:0:
165,254,50999,1,2,0:0:0:0:
16,126,51166,2,0,B|22:160|22:160|83:202,1,107.999996704102,6|0,0:0|0:0,0:0:0:0:
91,52,51499,1,2,0:0:0:0:
122,57,51582,1,0,0:0:0:0:
154,62,51666,1,0,0:0:0:0:
92,51,51832,6,0,B|97:84|97:84|158:126,1,107.999996704102,4|0,0:0|0:0,0:0:0:0:
332,139,52166,2,0,B|326:105|326:105|265:63,1,107.999996704102,8|0,0:0|0:0,0:0:0:0:
16,126,52499,2,0,B|22:160|22:160|120:232|120:232|161:220|200:239,1,215.999993408203,4|2,0:0|0:0,0:0:0:0:
157,377,52999,2,0,P|148:351|150:325,1,53.9999983520508,8|2,3:2|3:2,0:0:0:0:
236,333,53166,2,0,P|254:313|305:300,1,53.9999983520508,0|2,3:0|3:2,0:0:0:0:
308,381,53332,5,0,3:0:0:0:
480,157,53666,2,0,B|459:181|459:181|382:201,1,107.999996704102,8|2,0:0|0:0,0:0:0:0:
399,103,53999,1,0,0:0:0:0:
290,223,54166,1,0,0:0:0:0:
480,157,54332,1,8,0:0:0:0:
196,248,54499,6,0,B|117:242|117:242|19:126,1,215.999993408203,4|2,0:0|0:0,0:0:0:0:
281,137,54999,1,8,0:0:0:0:
114,27,55166,2,0,B|193:33|193:33|291:149,1,215.999993408203,4|2,0:0|0:0,0:0:0:0:
142,124,55666,1,8,0:0:0:0:
316,37,55832,6,0,B|266:120|266:120|354:217,1,215.999993408203,4|2,0:0|0:0,0:0:0:0:
408,83,56332,1,8,0:0:0:0:
220,195,56499,2,0,B|318:176|318:176|397:268,1,215.999993408203,4|0,0:0|3:0,0:0:0:0:
424,302,56916,1,0,0:0:0:0:
424,302,56999,1,0,3:0:0:0:
231,332,57166,6,0,B|259:363|259:363|337:347|337:347|271:272,1,215.999993408203,4|2,0:0|0:0,0:0:0:0:
130,306,57666,2,0,B|98:270|98:270|137:262|137:262|151:277,1,107.999996704102,8|2,0:0|0:0,0:0:0:0:
220,195,57999,1,0,3:0:0:0:
183,184,58082,1,2,0:0:0:0:
146,173,58166,1,0,3:0:0:0:
109,181,58249,1,2,0:0:0:0:
72,188,58332,1,0,3:0:0:0:
90,154,58416,1,2,0:0:0:0:
107,120,58499,1,0,3:0:0:0:
101,82,58582,1,2,0:0:0:0:
97,47,58666,5,4,3:2:0:0:
368,34,58999,2,0,B|386:60|386:60|385:139,1,90,8|2,0:0|0:0,0:0:0:0:
433,195,59332,1,2,0:0:0:0:
359,282,59499,2,0,B|341:256|341:256|342:198,1,90,2|8,0:0|0:0,0:0:0:0:
274,323,59832,6,0,B|255:296|255:296|256:145,1,180,6|0,0:0|0:0,0:0:0:0:
127,322,60332,1,8,0:0:0:0:
273,323,60499,2,0,B|259:294|259:294|126:219,1,180,6|2,0:0|0:0,0:0:0:0:
329,128,60999,1,8,0:0:0:0:
130,221,61166,6,0,B|174:247|174:247|197:229|197:229|210:169|210:169|262:150,1,180,4|2,0:0|0:0,0:0:0:0:
415,179,61666,1,8,0:0:0:0:
246,156,61832,2,0,B|216:167|216:167|277:232|277:232|355:203,1,180,4|2,0:0|0:0,0:0:0:0:
501,234,62332,1,8,0:0:0:0:
332,212,62499,6,0,B|301:222|301:222|362:287|362:287|440:258,1,180,4|2,0:0|0:0,0:0:0:0:
329,128,62999,1,8,0:0:0:0:
417,265,63166,1,2,0:0:0:0:
332,212,63332,1,8,0:0:0:0:
501,234,63499,1,2,0:0:0:0:
245,156,63666,1,8,0:0:0:0:
501,234,63832,6,0,B|490:147|490:147|401:88,1,180,4|2,0:0|0:0,0:0:0:0:
497,63,64332,2,0,L|412:97,1,90,8|0,0:0|0:0,0:0:0:0:
330,129,64666,2,0,L|416:95,1,90,10|0,0:0|0:0,0:0:0:0:
497,63,64999,1,8,0:0:0:0:
245,156,65166,6,0,B|241:100|241:100|270:54,1,90,4|0,0:0|0:0,0:0:0:0:
245,156,65499,6,0,B|190:136|190:136|164:86,1,112.5,2|0,0:0|0:0,0:0:0:0:
245,156,65832,6,0,B|183:193|183:193|91:190,1,135.000005149842,2|0,0:0|0:0,0:0:0:0:
88,191,66082,1,2,0:0:0:0:
47,191,66166,5,0,3:0:0:0:
51,231,66249,1,0,3:0:0:0:
56,271,66332,1,0,3:0:0:0:
218,361,66499,6,0,B|210:273|210:273|321:281,1,180,4|2,0:0|0:0,0:0:0:0:
218,361,66999,1,8,0:0:0:0:
211,274,67166,1,2,0:0:0:0:
301,279,67332,2,0,L|328:323,1,45,0|0,3:2|0:2,0:0:0:0:
400,220,67499,2,0,L|386:274,1,45,2|0,3:2|0:2,0:0:0:0:
303,173,67666,2,0,L|330:217,1,45,0|0,3:2|0:2,3:0:0:0:
402,114,67832,2,0,L|328:104,1,45,0|0,3:0|0:0,0:0:0:0:
157,82,67999,5,0,1:0:0:0:
157,82,68832,21,8,0:0:0:0:
157,82,68999,2,0,B|138:109|138:109|136:136|136:136|112:167,1,90,8|0,0:0|0:0,0:0:0:0:
251,99,69332,6,0,B|220:139|220:139|219:170|219:170|148:256,1,180,4|2,0:0|0:0,0:0:0:0:
190,329,69832,1,8,3:0:0:0:
190,329,69916,1,0,0:0:0:0:
190,329,69999,1,0,0:0:0:0:
279,342,70166,2,0,B|297:314|297:314|299:287|299:287|324:257,1,90,2|0,0:0|0:0,0:0:0:0:
190,329,70499,6,0,B|221:289|221:289|222:258|222:258|293:172,1,180,2|0,0:0|0:0,0:0:0:0:
444,147,70999,2,0,B|416:131|416:131|359:131,1,90,0|2,0:0|0:0,0:0:0:0:
347,111,71249,1,0,0:0:0:0:
334,92,71332,1,0,0:0:0:0:
152,90,71499,1,8,0:0:0:0:
243,90,71666,1,8,0:0:0:0:
162,239,71832,6,0,B|175:205|175:205|134:186|134:186|152:90,1,180,4|2,0:0|0:0,0:0:0:0:
323,241,72332,1,8,0:0:0:0:
323,241,72499,2,0,B|311:207|311:207|352:188|352:188|334:92,1,180,4|2,0:0|0:0,0:0:0:0:
162,239,72999,1,8,0:0:0:0:
243,90,73166,6,0,L|244:306,1,180,4|2,0:0|0:0,0:0:0:0:
162,239,73666,1,8,0:0:0:0:
323,241,73832,1,0,0:0:0:0:
177,319,73999,2,0,B|140:312|127:348|89:336,1,90,8|0,0:0|0:0,0:0:0:0:
293,355,74332,22,0,B|290:328|290:328|305:321|305:321|400:358,1,112.5,2|0,0:0|0:0,0:0:0:0:
323,241,74666,22,0,B|291:239|291:239|224:273,1,90,4|0,0:0|0:0,0:0:0:0:
135,203,74999,2,0,B|167:205|167:205|218:178,1,90,8|2,0:0|0:0,0:0:0:0:
298,134,75332,1,0,0:0:0:0:
458,63,75499,2,0,B|426:61|426:61|375:88,1,90,2|8,0:0|0:0,0:0:0:0:
465,243,75832,6,0,B|480:197|480:197|465:158|465:158|426:156|426:156|380:179,1,180,4|2,0:0|0:0,0:0:0:0:
298,134,76332,1,8,0:0:0:0:
219,178,76499,1,2,0:0:0:0:
323,48,76666,5,2,0:0:0:0:
219,178,76832,1,0,0:0:0:0:
353,275,76999,1,8,0:0:0:0:
115,351,77166,6,0,B|209:349|209:349|191:264,1,180,4|2,0:0|0:0,0:0:0:0:
219,178,77666,1,8,0:0:0:0:
428,187,77832,6,0,B|335:190|335:190|353:275,1,180,4|2,0:0|0:0,0:0:0:0:
267,252,78332,1,8,0:0:0:0:
13,184,78499,6,0,B|101:165|101:165|105:255,1,180,4|2,0:0|0:0,0:0:0:0:
271,328,78999,5,8,0:0:0:0:
402,202,79166,1,2,0:0:0:0:
230,249,79332,21,8,0:0:0:0:
321,162,79499,1,2,0:0:0:0:
379,315,79666,21,8,0:0:0:0:
379,315,79832,2,0,B|359:272|359:272|303:253|303:253|288:220|288:220|228:152,1,225,4|2,0:0|0:0,0:0:0:0:
33,209,80332,5,8,0:0:0:0:
164,83,80499,1,2,0:0:0:0:
164,83,80582,1,0,0:0:0:0:
164,83,80666,1,0,0:0:0:0:
114,249,80832,1,2,0:0:0:0:
205,162,80999,1,8,0:0:0:0:
316,250,81166,6,0,B|261:242|261:242|204:250,1,112.5,4|0,0:0|0:0,0:0:0:0:
379,315,81499,2,0,L|439:315,2,56.25,4|0|0,0:0|0:0|0:0,0:0:0:0:
486,188,81832,2,0,B|430:196|430:196|375:188,1,112.5,4|0,0:0|0:0,0:0:0:0:
379,315,82166,1,2,0:0:0:0:
316,250,82332,1,8,0:0:0:0:
254,184,82499,6,0,B|220:147|220:147|78:147,1,180,4|2,0:0|0:0,0:0:0:0:
140,309,82999,1,8,0:0:0:0:
254,184,83166,1,2,0:0:0:0:
144,289,83332,5,0,0:0:0:0:
235,189,83499,1,2,0:0:0:0:
104,160,83666,1,8,0:0:0:0:
211,24,83832,6,0,B|155:57|155:57|104:160,1,180,4|2,0:0|0:0,0:0:0:0:
256,192,84332,1,8,0:0:0:0:
177,96,84499,2,0,B|120:128|120:128|70:232,1,180,4|2,0:0|0:0,0:0:0:0:
256,192,84999,1,8,0:0:0:0:
300,24,85166,6,0,B|357:57|357:57|407:160,1,180,4|2,0:0|0:0,0:0:0:0:
256,192,85666,1,8,0:0:0:0:
335,96,85832,2,0,B|391:128|391:128|441:232,1,180,4|2,0:0|0:0,0:0:0:0:
256,192,86332,1,8,0:0:0:0:
105,316,86499,6,0,B|85:203|85:203|112:144,1,180,4|2,0:0|0:0,0:0:0:0:
256,192,86999,1,8,0:0:0:0:
406,316,87166,2,0,B|426:203|426:203|400:144,1,180,4|2,0:0|0:0,0:0:0:0:
184,256,87666,1,8,0:0:0:0:
328,256,87832,1,4,0:0:0:0:
