osu file format v13

[General]
AudioFilename: Gimme! Revolution.mp3
AudioLeadIn: 500
PreviewTime: 47332
Countdown: 0
SampleSet: Soft
StackLeniency: 0.7
Mode: 0
LetterboxInBreaks: 0
WidescreenStoryboard: 0

[Editor]
DistanceSpacing: 1.2
BeatDivisor: 2
GridSize: 32
TimelineZoom: 2.46

[Metadata]
Title:Gimme! Revolution
TitleUnicode:ギミー!レボリューション
Artist:Uchida Maaya
ArtistUnicode:内田真礼
Creator:Meyrink
Version:Easy
Source:俺、ツインテールになります。
Tags:Ore, Twintails ni Narimasu. Gonna be the Twin-Tails!! Opening TV Size Kibbleru Tsukuyomi baldrace
BeatmapID:537589
BeatmapSetID:225675

[Difficulty]
HPDrainRate:2
CircleSize:2.5
OverallDifficulty:2
ApproachRate:3
SliderMultiplier:0.75
SliderTickRate:1

[Events]
//Background and Video events
0,0,"TwinTails.jpg",0,0
Video,-12,"OP.avi"
//Break Periods
//Storyboard Layer 0 (Background)
//Storyboard Layer 1 (Fail)
//Storyboard Layer 2 (Pass)
//Storyboard Layer 3 (Foreground)
//Storyboard Sound Samples

[TimingPoints]
1333,333.333333333333,4,2,1,70,1,0
1333,-100,4,2,1,60,0,0
3499,-100,4,2,2,60,0,0
7999,-100,4,2,1,70,0,0
12999,-100,4,2,1,40,0,0
13332,-100,4,2,2,60,0,0
23166,-100,4,2,2,60,0,0
47999,-100,4,2,1,75,0,0
48332,-100,4,2,1,75,0,1
67999,-100,4,2,2,40,0,0
69332,-100,4,2,2,60,0,0
74666,-100,4,2,2,70,0,0

[Colours]
Combo1 : 247,117,136
Combo2 : 255,255,128
Combo3 : 94,166,255

[HitObjects]
24,88,1333,6,0,P|48:156|48:236,1,150,4|0,0:0|0:0,0:0:0:0:
148,324,2499,2,0,P|224:312|296:324,1,150.000005722046,4|4,0:0|0:0,0:0:0:0:
382,348,3499,1,8,0:0:0:0:
428,271,3832,6,0,L|464:191,2,75.0000028610231,4|8|4,0:0|0:0|0:0,0:0:0:0:
382,349,4832,1,8,0:0:0:0:
306,300,5166,2,0,L|238:252,2,75.0000028610231,12|8|4,0:0|0:0|0:0,0:0:0:0:
123,247,7999,6,0,L|127:167,2,75,4|8|2,0:0|0:0|0:0,0:0:0:0:
232,328,9166,2,0,P|323:328|372:300,2,150.000005722046,6|4|4,0:0|0:0|0:0,0:0:0:0:
143,309,10832,2,0,L|121:247,1,37.5,2|8,0:0|0:0,0:0:0:0:
156,186,11332,2,0,P|81:192|53:229,1,112.5,4|4,0:3|0:0,0:0:0:0:
364,139,12999,5,4,0:0:0:0:
416,212,13332,2,0,L|408:296,2,75.0000028610231,6|8|0,0:0|0:0|0:0,0:0:0:0:
434,77,14499,2,0,P|367:49|277:70,1,150,8|0,0:0|0:0,0:0:0:0:
208,96,15499,2,0,L|148:120,1,37.5000014305115,2|8,0:0|0:0,0:0:0:0:
90,146,15999,6,0,P|82:202|78:234,1,75.0000028610231,2|8,0:0|0:0,0:0:0:0:
131,294,16666,2,0,P|187:306|251:286,1,112.500004291535,0|8,0:0|0:0,0:0:0:0:
252,203,17499,2,0,L|252:151,1,37.5000014305115,2|8,0:0|0:0,0:0:0:0:
224,80,17999,6,0,L|120:80,2,75.0000028610231,0|8|6,0:0|0:0|0:0,0:0:0:0:
313,96,18999,1,8,0:0:0:0:
372,164,19332,1,0,0:0:0:0:
237,176,19832,2,0,P|194:188|168:211,1,75.0000028610231,8|2,0:0|0:0,0:0:0:0:
140,292,20499,2,0,P|207:328|255:343,1,112.5,0|8,0:0|0:0,0:0:0:0:
329,360,21332,5,4,0:0:0:0:
452,305,21832,2,0,L|496:234,1,75.0000028610231,6|2,0:0|0:0,0:0:0:0:
492,151,22499,2,0,P|481:81|430:7,1,150,4|4,0:0|0:0,0:0:0:0:
311,200,23999,6,0,L|307:274,1,75.0000028610231,4|8,0:0|0:0,0:0:0:0:
254,348,24666,2,0,B|195:376|147:336,2,112.500004291535,0|8|8,0:0|0:0|0:0,0:0:0:0:
211,269,25999,2,0,L|215:177,1,75.0000028610231,0|8,0:0|0:0,0:0:0:0:
164,119,26666,2,0,P|209:103|278:127,1,112.500004291535,2|0,0:0|0:0,0:0:0:0:
311,200,27499,2,0,P|347:169|360:124,1,75,2|8,0:0|0:0,0:0:0:0:
298,22,28332,1,8,0:0:0:0:
226,76,28666,5,0,0:0:0:0:
148,29,28999,1,8,0:0:0:0:
62,56,29332,2,0,L|51:130,1,75.0000028610231,6|8,0:0|0:0,0:0:0:0:
50,220,29999,2,0,P|30:270|41:334,1,112.5,0|8,0:0|0:0,0:0:0:0:
127,341,30832,2,0,P|147:291|136:227,1,112.5,2|0,0:0|0:0,0:0:0:0:
135,144,31666,1,8,0:0:0:0:
128,54,31999,6,0,P|183:36|250:69,1,112.500004291535,4|6,0:0|0:0,0:0:0:0:
348,192,33166,2,0,P|413:165|454:92,1,150.000005722046,4|8,0:0|0:0,0:0:0:0:
337,29,34332,1,4,0:3:0:0:
250,52,34666,5,8,0:0:0:0:
92,324,35832,2,0,L|16:360,2,75.0000028610231,8|8|0,0:0|0:0|0:0,0:0:0:0:
76,144,37166,2,0,P|90:88|113:74,1,75.0000028610231,8|8,0:0|0:0,0:0:0:0:
171,22,37832,2,0,P|194:50|196:86,1,75.0000028610231,0|8,0:0|0:3,0:0:0:0:
272,135,38499,2,0,L|381:118,2,75.0000028610231,4|8|6,0:0|0:0|0:0,0:0:0:0:
138,155,39666,5,8,0:0:0:0:
53,184,39999,2,0,P|29:256|53:328,1,150.000005722046,4|2,0:0|0:0,0:0:0:0:
184,345,41166,2,0,P|205:274|171:165,1,187.5,2|2,0:0|0:0,0:0:0:0:
95,122,42332,1,8,0:0:0:0:
163,63,42666,6,0,L|255:48,1,75,12|8,0:0|0:0,0:0:0:0:
275,132,43332,2,0,L|369:115,1,75,8|8,0:0|0:0,0:0:0:0:
429,158,43999,2,0,L|419:252,1,75,8|8,0:0|0:0,0:0:0:0:
334,257,44666,2,0,L|324:351,1,75,8|8,0:0|0:0,0:0:0:0:
256,192,45166,12,4,46499,0:0:0:0:
440,84,47999,5,8,0:0:0:0:
370,28,48332,2,0,L|254:36,1,112.500004291535,12|2,0:0|0:0,0:0:0:0:
170,56,49166,2,0,P|134:68|102:96,2,75.0000028610231,4|2|4,0:0|0:0|0:0,0:0:0:0:
249,99,50166,5,2,0:0:0:0:
313,162,50499,2,0,B|365:254|365:254|361:298,1,150.000005722046,4|12,0:0|0:0,0:0:0:0:
181,284,51832,2,0,B|129:192|129:192|133:148,1,150.000005722046,12|4,0:0|0:0,0:0:0:0:
236,61,52999,6,0,P|281:51|328:59,1,75.0000028610231,8|2,0:0|0:0,0:0:0:0:
384,104,53666,1,12,0:0:0:0:
440,174,53999,2,0,P|474:250|485:309,1,112.5,8|6,0:0|0:0,0:0:0:0:
412,336,54832,2,0,L|328:342,1,75.0000028610231,2|6,0:0|0:0,0:0:0:0:
272,280,55499,5,8,0:0:0:0:
220,356,55832,2,0,P|182:300|204:218,1,150.000005722046,4|4,0:0|0:0,0:0:0:0:
172,137,56832,1,8,0:0:0:0:
94,88,57166,2,0,P|160:44|200:49,1,112.500004291535,4|8,0:0|0:0,0:0:0:0:
277,69,57999,1,8,0:0:0:0:
367,66,58332,1,8,0:0:0:0:
452,96,58666,6,0,L|449:176,1,75,4|8,0:0|0:0,0:0:0:0:
442,261,59332,2,0,P|398:327|359:338,1,112.500004291535,2|4,0:0|0:0,0:0:0:0:
280,336,60166,2,0,L|240:336,2,37.5,2|8|6,0:0|0:0|0:0,0:0:0:0:
328,260,60832,6,0,P|360:224|369:167,1,75,2|4,0:0|0:0,0:0:0:0:
340,113,61499,2,0,P|296:138|284:185,1,75,0|4,0:0|0:0,0:0:0:0:
196,167,62166,2,0,L|107:140,2,75,2|4|2,0:0|0:0|0:0,0:0:0:0:
212,255,63166,1,6,0:0:0:0:
277,316,63499,5,2,0:0:0:0:
360,344,63832,2,0,P|413:331|451:290,1,112.500004291535,4|8,0:0|0:0,0:0:0:0:
468,201,64666,2,0,L|480:87,1,112.500004291535,6|6,0:0|0:0,0:0:0:0:
432,13,65499,2,0,P|400:41|392:81,1,75.0000028610231,2|6,0:0|0:0,0:0:0:0:
321,127,66166,5,8,0:0:0:0:
240,88,66499,2,0,P|164:84|66:146,1,187.500007152558,4|8,0:0|0:0,0:0:0:0:
84,229,67666,2,0,L|108:333,1,75.0000028610231,0|12,0:0|0:0,0:0:0:0:
242,88,69332,5,4,0:0:0:0:
376,72,69832,2,0,L|400:28,2,37.5000014305115,2|2|2,0:0|0:0|0:0,0:0:0:0:
341,155,70499,2,0,P|325:207|337:279,1,112.500004291535,2|4,0:0|0:3,0:0:0:0:
364,348,71332,1,10,0:0:0:0:
233,315,71832,6,0,P|157:303|85:315,1,150.000005722046,6|6,0:0|0:0,0:0:0:0:
43,235,72832,1,2,0:0:0:0:
40,145,73166,2,0,P|47:91|96:45,1,112.500004291535,6|8,0:0|0:0,0:0:0:0:
218,284,74666,6,0,B|245:364|345:358,1,150.000005722046,6|2,0:0|0:0,0:0:0:0:
468,339,75832,2,0,P|481:267|484:189,1,150.000005722046,4|6,0:0|0:0,0:0:0:0:
420,127,76832,1,2,0:0:0:0:
348,73,77166,6,0,B|280:77|246:31|246:31|203:58,1,150.000005722046,6|4,0:0|0:0,0:0:0:0:
152,112,78166,1,2,0:0:0:0:
135,200,78499,2,0,P|208:224|275:198,1,150.000005722046,6|6,0:0|0:0,0:0:0:0:
324,124,79499,5,2,0:0:0:0:
409,94,79832,2,0,P|431:186|422:246,1,150,6|2,0:0|0:0,0:0:0:0:
271,335,81166,2,0,L|183:339,2,75.0000028610231,6|6|6,0:0|0:0|0:0,0:0:0:0:
271,244,82166,2,0,L|183:248,1,75.0000028610231,2|4,0:0|0:0,0:0:0:0:
106,243,82832,2,0,P|58:190|61:114,1,150,2|2,0:0|0:0,0:0:0:0:
132,60,83832,6,0,L|296:68,1,150.000005722046,4|4,0:0|0:0,0:0:0:0:
372,75,84832,1,2,0:0:0:0:
436,139,85166,2,0,P|447:212|435:286,1,150.000005722046,4|4,0:0|0:0,0:0:0:0:
360,337,86166,1,8,0:0:0:0:
287,284,86499,2,0,P|213:272|139:284,2,150.000005722046,4|4|4,0:0|0:0|0:0,0:0:0:0:
