osu file format v13

[General]
AudioFilename: gimme! revolution.mp3
AudioLeadIn: 0
PreviewTime: -1
Countdown: 1
SampleSet: Soft
StackLeniency: 0.7
Mode: 1
LetterboxInBreaks: 1
WidescreenStoryboard: 0

[Editor]
DistanceSpacing: 1.2
BeatDivisor: 4
GridSize: 4
TimelineZoom: 1.9

[Metadata]
Title:Gimme! Revolution
TitleUnicode:Gimme! Revolution
Artist:Uchida Maaya
ArtistUnicode:Uchida Maaya
Creator:Lvl 100
Version:LVL 100
Source:
Tags:
BeatmapID:609905
BeatmapSetID:267799

[Difficulty]
HPDrainRate:5
CircleSize:5
OverallDifficulty:5
ApproachRate:5
SliderMultiplier:1.4
SliderTickRate:1

[Events]
//Background and Video events
0,0,"bg.jpg",0,0
//Break Periods
//Storyboard Layer 0 (Background)
//Storyboard Layer 1 (Fail)
//Storyboard Layer 2 (Pass)
//Storyboard Layer 3 (Foreground)
//Storyboard Sound Samples

[TimingPoints]
-5,333.333333333333,4,2,0,100,1,0
7994,-95.2380952380952,4,2,0,100,0,1
13328,-100,4,2,0,100,0,0
47994,-95.2380952380952,4,2,0,100,0,1
69328,-100,4,2,0,100,0,0
74661,-100,4,2,0,100,0,1
87994,-100,4,2,0,100,0,0

[HitObjects]
256,192,671,5,0,0:0:0:0:
256,192,744,1,0,0:0:0:0:
256,192,828,1,0,0:0:0:0:
256,192,911,1,2,0:0:0:0:
256,192,994,1,0,0:0:0:0:
256,192,1078,1,0,0:0:0:0:
256,192,1161,1,0,0:0:0:0:
256,192,1244,1,2,0:0:0:0:
256,192,1328,1,2,0:0:0:0:
256,192,2494,1,0,0:0:0:0:
256,192,2828,1,4,0:0:0:0:
256,192,2994,1,4,0:0:0:0:
256,192,3161,1,4,0:0:0:0:
256,192,3494,1,0,0:0:0:0:
256,192,3661,1,0,0:0:0:0:
256,192,3744,1,2,0:0:0:0:
256,192,3828,1,2,0:0:0:0:
256,192,4161,1,0,0:0:0:0:
256,192,4328,1,2,0:0:0:0:
256,192,4411,1,2,0:0:0:0:
256,192,4494,1,0,0:0:0:0:
256,192,4828,1,2,0:0:0:0:
256,192,4994,1,0,0:0:0:0:
256,192,5078,1,2,0:0:0:0:
256,192,5161,1,2,0:0:0:0:
256,192,5494,1,8,0:0:0:0:
256,192,5661,1,8,0:0:0:0:
256,192,5828,1,8,0:0:0:0:
256,192,6328,1,4,0:0:0:0:
256,192,6661,1,8,0:0:0:0:
256,192,6994,1,0,0:0:0:0:
256,192,7161,1,4,0:0:0:0:
256,192,7328,1,0,0:0:0:0:
256,192,7411,1,0,0:0:0:0:
256,192,7494,1,8,0:0:0:0:
256,192,7578,1,2,0:0:0:0:
256,192,7661,1,0,0:0:0:0:
256,192,7744,1,0,0:0:0:0:
256,192,7828,1,8,0:0:0:0:
256,192,7911,1,8,0:0:0:0:
256,192,7994,1,0,0:0:0:0:
256,192,8328,1,0,0:0:0:0:
256,192,8661,1,0,0:0:0:0:
256,192,8828,1,6,0:0:0:0:
256,192,9161,1,2,0:0:0:0:
256,192,9661,1,0,0:0:0:0:
256,192,9828,1,2,0:0:0:0:
256,192,10161,5,2,0:0:0:0:
256,192,10494,1,0,0:0:0:0:
256,192,10828,1,2,0:0:0:0:
256,192,10994,1,0,0:0:0:0:
256,192,11328,1,0,0:0:0:0:
256,192,11494,1,2,0:0:0:0:
256,192,11828,1,0,0:0:0:0:
256,192,12161,1,0,0:0:0:0:
256,192,12328,1,0,0:0:0:0:
256,192,12494,1,2,0:0:0:0:
256,192,12661,1,2,0:0:0:0:
256,192,12828,1,0,0:0:0:0:
256,192,12994,1,2,0:0:0:0:
256,192,13161,1,0,0:0:0:0:
256,192,13328,1,2,0:0:0:0:
256,192,13828,1,0,0:0:0:0:
256,192,13994,1,0,0:0:0:0:
256,192,14161,1,2,0:0:0:0:
256,192,14328,1,0,0:0:0:0:
256,192,14494,1,2,0:0:0:0:
256,192,14828,1,2,0:0:0:0:
256,192,14994,1,2,0:0:0:0:
256,192,15161,1,0,0:0:0:0:
256,192,15494,1,0,0:0:0:0:
256,192,15661,1,0,0:0:0:0:
256,192,15828,1,2,0:0:0:0:
256,192,15911,1,0,0:0:0:0:
256,192,15994,1,2,0:0:0:0:
256,192,16161,1,0,0:0:0:0:
256,192,16328,1,0,0:0:0:0:
256,192,16494,1,2,0:0:0:0:
256,192,16828,1,0,0:0:0:0:
256,192,17161,1,0,0:0:0:0:
256,192,17828,1,0,0:0:0:0:
256,192,17994,1,2,0:0:0:0:
256,192,18161,1,0,0:0:0:0:
256,192,18328,1,2,0:0:0:0:
256,192,18411,1,2,0:0:0:0:
256,192,18494,1,0,0:0:0:0:
256,192,18578,1,2,0:0:0:0:
256,192,18661,1,0,0:0:0:0:
256,192,19161,1,2,0:0:0:0:
256,192,19328,1,0,0:0:0:0:
256,192,19411,1,2,0:0:0:0:
256,192,19494,1,0,0:0:0:0:
256,192,19661,1,0,0:0:0:0:
256,192,19828,1,2,0:0:0:0:
256,192,20161,1,0,0:0:0:0:
256,192,20494,1,0,0:0:0:0:
256,192,20661,1,2,0:0:0:0:
256,192,20828,1,0,0:0:0:0:
256,192,20994,1,2,0:0:0:0:
256,192,21328,1,2,0:0:0:0:
256,192,21494,1,2,0:0:0:0:
256,192,21578,1,0,0:0:0:0:
256,192,21661,1,0,0:0:0:0:
256,192,21828,1,0,0:0:0:0:
256,192,22161,1,2,0:0:0:0:
256,192,22328,1,0,0:0:0:0:
256,192,22494,1,2,0:0:0:0:
256,192,22828,1,0,0:0:0:0:
256,192,22994,1,2,0:0:0:0:
256,192,23161,1,0,0:0:0:0:
256,192,23494,1,0,0:0:0:0:
256,192,23578,1,2,0:0:0:0:
256,192,23661,1,2,0:0:0:0:
256,192,23744,1,2,0:0:0:0:
256,192,23828,1,0,0:0:0:0:
256,192,23911,1,2,0:0:0:0:
256,192,23994,1,0,0:0:0:0:
256,192,24494,1,0,0:0:0:0:
256,192,24661,1,0,0:0:0:0:
256,192,24828,5,2,0:0:0:0:
256,192,24994,1,2,0:0:0:0:
256,192,25161,1,0,0:0:0:0:
256,192,25494,1,0,0:0:0:0:
256,192,25661,1,2,0:0:0:0:
256,192,25828,1,0,0:0:0:0:
256,192,26161,1,0,0:0:0:0:
256,192,26328,1,2,0:0:0:0:
256,192,26494,1,0,0:0:0:0:
256,192,26661,1,2,0:0:0:0:
256,192,26744,1,2,0:0:0:0:
256,192,26828,1,0,0:0:0:0:
256,192,26994,1,0,0:0:0:0:
256,192,27161,1,2,0:0:0:0:
256,192,27494,1,12,0:0:0:0:
256,192,27828,1,10,0:0:0:0:
256,192,28494,1,4,0:0:0:0:
256,192,28661,5,4,0:0:0:0:
256,192,28828,1,4,0:0:0:0:
256,192,28994,1,0,0:0:0:0:
256,192,29078,1,2,0:0:0:0:
256,192,29161,1,2,0:0:0:0:
256,192,29244,1,0,0:0:0:0:
256,192,29328,1,0,0:0:0:0:
256,192,29828,1,0,0:0:0:0:
256,192,29994,1,2,0:0:0:0:
256,192,30161,1,2,0:0:0:0:
256,192,30244,1,0,0:0:0:0:
256,192,30328,1,0,0:0:0:0:
256,192,30494,1,2,0:0:0:0:
256,192,30828,1,0,0:0:0:0:
256,192,31161,1,0,0:0:0:0:
256,192,31494,1,0,0:0:0:0:
256,192,31661,1,2,0:0:0:0:
256,192,31994,1,0,0:0:0:0:
256,192,32161,1,0,0:0:0:0:
256,192,32328,1,2,0:0:0:0:
256,192,32411,1,2,0:0:0:0:
256,192,32494,1,0,0:0:0:0:
256,192,32828,1,2,0:0:0:0:
256,192,32911,1,2,0:0:0:0:
256,192,32994,1,0,0:0:0:0:
256,192,33161,1,0,0:0:0:0:
256,192,33494,1,2,0:0:0:0:
256,192,33661,1,2,0:0:0:0:
256,192,33828,1,0,0:0:0:0:
256,192,34161,1,0,0:0:0:0:
256,192,34328,5,0,0:0:0:0:
256,192,34661,1,0,0:0:0:0:
256,192,34828,1,0,0:0:0:0:
256,192,34994,1,0,0:0:0:0:
256,192,35078,1,2,0:0:0:0:
256,192,35161,1,0,0:0:0:0:
256,192,35828,5,0,0:0:0:0:
256,192,36161,1,0,0:0:0:0:
256,192,36244,1,2,0:0:0:0:
256,192,36328,1,0,0:0:0:0:
256,192,36494,1,0,0:0:0:0:
256,192,37161,1,0,0:0:0:0:
256,192,37494,1,0,0:0:0:0:
256,192,37661,1,0,0:0:0:0:
256,192,37744,1,2,0:0:0:0:
256,192,37828,1,0,0:0:0:0:
256,192,38161,1,0,0:0:0:0:
256,192,38494,1,0,0:0:0:0:
256,192,38828,1,0,0:0:0:0:
256,192,38911,1,2,0:0:0:0:
256,192,38994,1,0,0:0:0:0:
256,192,39161,1,0,0:0:0:0:
256,192,39661,1,0,0:0:0:0:
256,192,39744,1,2,0:0:0:0:
256,192,39828,1,0,0:0:0:0:
256,192,39994,1,0,0:0:0:0:
256,192,40328,1,0,0:0:0:0:
256,192,40661,1,0,0:0:0:0:
256,192,41161,1,0,0:0:0:0:
256,192,41494,1,0,0:0:0:0:
256,192,41578,1,2,0:0:0:0:
256,192,41661,1,2,0:0:0:0:
256,192,41828,1,0,0:0:0:0:
256,192,41994,1,0,0:0:0:0:
256,192,42328,1,2,0:0:0:0:
256,192,42494,1,2,0:0:0:0:
256,192,42661,1,0,0:0:0:0:
256,192,43161,1,0,0:0:0:0:
256,192,43328,1,4,0:0:0:0:
256,192,44161,1,0,0:0:0:0:
256,192,44328,1,2,0:0:0:0:
256,192,44411,1,2,0:0:0:0:
256,192,44494,1,0,0:0:0:0:
256,192,44661,1,0,0:0:0:0:
256,192,44828,1,0,0:0:0:0:
256,192,44911,1,2,0:0:0:0:
256,192,44994,1,2,0:0:0:0:
256,192,45161,1,0,0:0:0:0:
256,192,45328,1,2,0:0:0:0:
256,192,45411,1,2,0:0:0:0:
256,192,45494,1,2,0:0:0:0:
256,192,45578,1,0,0:0:0:0:
256,192,45661,1,0,0:0:0:0:
256,192,45744,1,0,0:0:0:0:
256,192,45828,1,2,0:0:0:0:
256,192,45911,1,0,0:0:0:0:
256,192,45994,1,2,0:0:0:0:
256,192,46078,1,0,0:0:0:0:
256,192,46161,1,0,0:0:0:0:
256,192,46244,1,2,0:0:0:0:
256,192,46328,1,0,0:0:0:0:
256,192,46411,1,0,0:0:0:0:
256,192,46494,1,2,0:0:0:0:
256,192,46828,1,4,0:0:0:0:
256,192,46994,1,4,0:0:0:0:
256,192,47161,1,2,0:0:0:0:
256,192,47244,1,2,0:0:0:0:
256,192,47328,1,2,0:0:0:0:
256,192,47661,1,0,0:0:0:0:
256,192,47994,1,8,0:0:0:0:
256,192,48494,1,0,0:0:0:0:
256,192,48661,1,2,0:0:0:0:
256,192,48828,1,0,0:0:0:0:
256,192,49161,1,0,0:0:0:0:
256,192,49494,1,2,0:0:0:0:
256,192,49578,1,2,0:0:0:0:
256,192,49661,1,0,0:0:0:0:
256,192,49828,1,4,0:0:0:0:
256,192,50161,1,4,0:0:0:0:
256,192,50328,1,0,0:0:0:0:
256,192,50411,1,2,0:0:0:0:
256,192,50494,1,2,0:0:0:0:
256,192,50828,1,2,0:0:0:0:
256,192,50911,1,0,0:0:0:0:
256,192,50994,1,2,0:0:0:0:
256,192,51161,1,4,0:0:0:0:
256,192,51494,1,2,0:0:0:0:
256,192,51578,1,2,0:0:0:0:
256,192,51661,1,0,0:0:0:0:
256,192,51828,1,0,0:0:0:0:
256,192,52161,1,2,0:0:0:0:
256,192,52328,1,0,0:0:0:0:
256,192,52494,1,2,0:0:0:0:
256,192,53328,1,0,0:0:0:0:
256,192,53828,1,4,0:0:0:0:
256,192,53994,1,2,0:0:0:0:
256,192,54078,1,2,0:0:0:0:
256,192,54161,1,0,0:0:0:0:
256,192,54328,1,0,0:0:0:0:
256,192,54494,1,2,0:0:0:0:
256,192,54828,5,0,0:0:0:0:
256,192,54994,1,2,0:0:0:0:
256,192,55078,1,0,0:0:0:0:
256,192,55161,1,2,0:0:0:0:
256,192,55494,1,0,0:0:0:0:
256,192,55578,1,2,0:0:0:0:
256,192,55661,1,0,0:0:0:0:
256,192,55828,1,2,0:0:0:0:
256,192,56161,1,2,0:0:0:0:
256,192,56328,1,2,0:0:0:0:
256,192,56411,1,2,0:0:0:0:
256,192,56494,1,0,0:0:0:0:
256,192,56828,5,0,0:0:0:0:
256,192,56911,1,2,0:0:0:0:
256,192,56994,1,2,0:0:0:0:
256,192,57161,1,0,0:0:0:0:
256,192,57494,1,4,0:0:0:0:
256,192,57661,1,4,0:0:0:0:
256,192,57994,1,8,0:0:0:0:
256,192,58328,1,0,0:0:0:0:
256,192,58661,1,8,0:0:0:0:
256,192,59161,5,2,0:0:0:0:
256,192,59244,1,0,0:0:0:0:
256,192,59328,1,2,0:0:0:0:
256,192,59494,1,0,0:0:0:0:
256,192,59828,1,0,0:0:0:0:
256,192,60161,1,0,0:0:0:0:
256,192,60328,1,2,0:0:0:0:
256,192,60411,1,0,0:0:0:0:
256,192,60494,1,2,0:0:0:0:
256,192,60828,1,0,0:0:0:0:
256,192,60994,1,2,0:0:0:0:
256,192,61161,1,0,0:0:0:0:
256,192,61494,1,2,0:0:0:0:
256,192,61578,1,0,0:0:0:0:
256,192,61661,1,0,0:0:0:0:
256,192,61828,1,2,0:0:0:0:
256,192,62161,1,0,0:0:0:0:
256,192,62328,1,0,0:0:0:0:
256,192,62494,1,0,0:0:0:0:
256,192,62828,1,2,0:0:0:0:
256,192,62994,1,2,0:0:0:0:
256,192,63078,1,0,0:0:0:0:
256,192,63161,1,2,0:0:0:0:
256,192,63494,1,0,0:0:0:0:
256,192,63661,1,4,0:0:0:0:
256,192,63828,1,0,0:0:0:0:
256,192,64494,5,8,0:0:0:0:
256,192,64578,1,0,0:0:0:0:
256,192,64661,1,0,0:0:0:0:
256,192,64828,1,10,0:0:0:0:
256,192,64994,1,4,0:0:0:0:
256,192,65078,1,0,0:0:0:0:
256,192,65161,1,10,0:0:0:0:
256,192,65494,1,2,0:0:0:0:
256,192,65661,1,2,0:0:0:0:
256,192,65828,1,0,0:0:0:0:
256,192,66161,1,0,0:0:0:0:
256,192,66244,1,0,0:0:0:0:
256,192,66328,1,2,0:0:0:0:
256,192,66494,1,2,0:0:0:0:
256,192,66828,1,0,0:0:0:0:
256,192,66911,1,2,0:0:0:0:
256,192,66994,1,2,0:0:0:0:
256,192,67078,1,2,0:0:0:0:
256,192,67161,1,0,0:0:0:0:
256,192,67244,1,2,0:0:0:0:
256,192,67328,1,0,0:0:0:0:
256,192,67411,1,2,0:0:0:0:
256,192,67494,1,0,0:0:0:0:
256,192,67578,1,2,0:0:0:0:
256,192,67661,1,2,0:0:0:0:
256,192,67744,1,2,0:0:0:0:
256,192,67828,1,0,0:0:0:0:
256,192,68161,1,0,0:0:0:0:
256,192,68244,1,0,0:0:0:0:
256,192,68328,1,8,0:0:0:0:
256,192,68411,1,2,0:0:0:0:
256,192,68494,1,2,0:0:0:0:
256,192,68578,1,2,0:0:0:0:
256,192,68661,1,0,0:0:0:0:
256,192,68744,1,2,0:0:0:0:
256,192,68828,1,0,0:0:0:0:
256,192,68911,1,2,0:0:0:0:
256,192,68994,1,0,0:0:0:0:
256,192,69078,1,2,0:0:0:0:
256,192,69161,1,2,0:0:0:0:
256,192,69244,1,0,0:0:0:0:
256,192,69328,1,0,0:0:0:0:
256,192,69828,1,0,0:0:0:0:
256,192,69994,1,0,0:0:0:0:
256,192,70161,1,2,0:0:0:0:
256,192,70494,1,2,0:0:0:0:
256,192,70828,1,2,0:0:0:0:
256,192,70911,1,0,0:0:0:0:
256,192,70994,1,0,0:0:0:0:
256,192,71161,1,0,0:0:0:0:
256,192,71328,1,0,0:0:0:0:
256,192,71494,1,2,0:0:0:0:
256,192,71578,1,0,0:0:0:0:
256,192,71661,1,2,0:0:0:0:
256,192,71744,1,0,0:0:0:0:
256,192,71828,1,0,0:0:0:0:
256,192,72161,1,0,0:0:0:0:
256,192,72328,1,2,0:0:0:0:
256,192,72411,1,0,0:0:0:0:
256,192,72494,1,2,0:0:0:0:
256,192,72828,1,0,0:0:0:0:
256,192,72994,1,2,0:0:0:0:
256,192,73161,1,0,0:0:0:0:
256,192,73661,1,4,0:0:0:0:
256,192,73994,1,4,0:0:0:0:
256,192,74328,1,4,0:0:0:0:
256,192,74661,1,0,0:0:0:0:
256,192,74994,1,4,0:0:0:0:
256,192,75328,1,0,0:0:0:0:
256,192,75411,1,0,0:0:0:0:
256,192,75494,1,8,0:0:0:0:
256,192,75828,1,8,0:0:0:0:
256,192,76161,1,8,0:0:0:0:
256,192,76244,1,0,0:0:0:0:
256,192,76328,1,0,0:0:0:0:
256,192,76494,1,4,0:0:0:0:
256,192,76828,1,0,0:0:0:0:
256,192,77161,1,0,0:0:0:0:
256,192,77494,1,0,0:0:0:0:
256,192,77661,1,8,0:0:0:0:
256,192,77744,1,0,0:0:0:0:
256,192,77828,1,0,0:0:0:0:
256,192,78161,5,8,0:0:0:0:
256,192,78244,1,0,0:0:0:0:
256,192,78328,5,0,0:0:0:0:
256,192,78494,1,0,0:0:0:0:
256,192,78828,1,8,0:0:0:0:
256,192,79161,1,0,0:0:0:0:
256,192,79494,1,8,0:0:0:0:
256,192,79828,1,0,0:0:0:0:
256,192,80494,5,0,0:0:0:0:
256,192,80578,1,0,0:0:0:0:
256,192,80661,1,4,0:0:0:0:
256,192,80828,1,8,0:0:0:0:
256,192,80994,1,4,0:0:0:0:
256,192,81078,1,0,0:0:0:0:
256,192,81161,1,0,0:0:0:0:
256,192,81494,1,0,0:0:0:0:
256,192,81828,1,2,0:0:0:0:
256,192,82161,1,2,0:0:0:0:
256,192,82494,5,0,0:0:0:0:
256,192,82828,1,0,0:0:0:0:
256,192,82911,1,0,0:0:0:0:
256,192,82994,1,0,0:0:0:0:
256,192,83828,1,2,0:0:0:0:
256,192,84161,1,0,0:0:0:0:
256,192,84328,1,2,0:0:0:0:
256,192,84411,1,0,0:0:0:0:
256,192,84494,1,2,0:0:0:0:
256,192,84828,1,2,0:0:0:0:
256,192,84911,1,0,0:0:0:0:
256,192,84994,1,2,0:0:0:0:
256,192,85161,1,0,0:0:0:0:
256,192,85494,1,0,0:0:0:0:
256,192,85661,1,0,0:0:0:0:
256,192,85744,1,0,0:0:0:0:
256,192,85828,1,2,0:0:0:0:
256,192,86161,1,2,0:0:0:0:
256,192,86244,1,0,0:0:0:0:
256,192,86328,1,0,0:0:0:0:
256,192,86494,1,0,0:0:0:0:
256,192,86828,1,12,0:0:0:0:
256,192,86994,1,12,0:0:0:0:
256,192,87161,1,12,0:0:0:0:
256,192,87494,1,4,0:0:0:0:
256,192,87661,1,4,0:0:0:0:
256,192,87828,1,4,0:0:0:0:
