osu file format v14

[General]
AudioFilename: audio.mp3
AudioLeadIn: 0
PreviewTime: 47333
Countdown: 0
SampleSet: Soft
StackLeniency: 0.5
Mode: 0
LetterboxInBreaks: 0
WidescreenStoryboard: 0

[Editor]
DistanceSpacing: 0.5
BeatDivisor: 4
GridSize: 32
TimelineZoom: 1

[Metadata]
Title:Gimme! Revolution
TitleUnicode:ギミー!レボリューション
Artist:Uchida Maaya
ArtistUnicode:内田真礼
Creator:Karia
Version:Light Insane
Source:俺、ツインテールになります。
Tags:Ore Twintail ni Narimasu opening Neoskylove TV Size
BeatmapID:1115856
BeatmapSetID:524464

[Difficulty]
HPDrainRate:5.2
CircleSize:4
OverallDifficulty:6.5
ApproachRate:8.5
SliderMultiplier:1.62
SliderTickRate:1

[Events]
//Background and Video events
Video,0,"VIDEO.avi"
0,0,"BG.jpg",0,0
//Break Periods
//Storyboard Layer 0 (Background)
//Storyboard Layer 1 (Fail)
//Storyboard Layer 2 (Pass)
//Storyboard Layer 3 (Foreground)
//Storyboard Sound Samples

[TimingPoints]
0,333.333333333333,4,2,1,50,1,0
1333,-100,4,2,1,60,0,0
6333,-100,4,2,1,50,0,0
7999,-100,4,2,1,60,0,0
12166,-100,4,2,99,50,0,0
13333,-105.263157894737,4,2,1,50,0,0
23999,-100,4,2,1,60,0,0
48333,-100,4,2,1,70,0,1
58583,-100,4,2,1,70,0,0
58666,-100,4,2,1,70,0,1
65416,-100,4,2,1,5,0,1
65499,-100,4,2,1,70,0,1
65749,-100,4,2,1,5,0,1
65833,-100,4,2,1,70,0,1
67999,-100,4,2,1,70,0,0
68833,-100,4,2,1,60,0,0
69333,-100,4,2,1,60,0,0
71833,-100,4,2,1,70,0,1
74666,-100,4,2,1,60,0,0
81416,-100,4,2,1,5,0,0
81499,-100,4,2,1,60,0,0
81749,-100,4,2,1,5,0,0
81833,-100,4,2,1,60,0,0
87833,-133.333333333333,4,2,1,60,0,0
87916,-133.333333333333,4,2,1,5,0,0

[Colours]
Combo1 : 164,255,255
Combo2 : 255,0,0
Combo3 : 0,118,236
Combo4 : 255,128,255

[HitObjects]
53,47,666,6,0,L|-9:55,3,40.5
80,121,999,2,0,L|17:129,3,40.5
107,195,1333,6,0,B|128:32,1,162,4|0,0:0|0:0,0:0:0:0:
384,34,2499,6,0,B|405:195,1,162,4|2,0:0|0:0,0:0:0:0:
340,300,2999,1,8,0:0:0:0:
340,300,3166,2,0,P|381:295|425:289,1,81,4|0,0:0|0:0,0:0:0:0:
279,233,3499,1,8,0:0:0:0:
279,233,3583,1,8,0:0:0:0:
279,233,3666,1,2,0:0:0:0:
236,343,3833,6,0,P|228:265|219:181,1,162,4|8,0:0|0:0,0:0:0:0:
275,76,4333,1,2,0:0:0:0:
275,76,4499,2,0,P|338:31|415:80,1,162,4|8,0:0|0:0,0:0:0:0:
459,178,5000,1,2,0:0:0:0:
459,178,5166,6,0,P|403:168|344:160,1,81,4|0,0:0|0:0,0:0:0:0:
298,243,5499,1,8,0:0:0:0:
298,243,5583,1,8,0:0:0:0:
298,243,5666,1,2,0:0:0:0:
232,153,5833,6,0,P|163:124|94:184,1,162,4|0,0:0|0:0,0:0:0:0:
57,268,6333,2,0,P|125:259|224:243,1,162
217,244,6999,2,0,L|208:341,1,81
153,175,7333,5,8,0:0:0:0:
153,175,7416,1,8,0:0:0:0:
153,175,7499,1,8,0:0:0:0:
153,175,7583,1,8,0:0:0:0:
153,175,7666,2,0,L|215:157,3,40.5,8|8|8|8,0:0|0:0|0:0|0:0,0:0:0:0:
268,183,7999,6,0,P|353:190|451:203,1,162,4|8,0:0|0:0,0:0:0:0:
498,108,8499,1,0,0:0:0:0:
498,108,8666,2,0,P|457:115|412:123,1,81,2|2,0:0|0:0,0:0:0:0:
346,222,8999,1,8,0:0:0:0:
281,99,9166,6,0,P|209:72|143:125,1,162,4|2,0:0|0:0,0:0:0:0:
102,232,9666,1,8,0:0:0:0:
102,232,9833,2,0,P|95:161|84:56,1,162,0|2,0:0|0:0,0:0:0:0:
218,147,10333,1,8,0:0:0:0:
350,66,10499,6,0,P|341:146|333:227,1,162,4|2,0:0|0:0,0:0:0:0:
223,312,10999,2,0,P|216:272|206:211,1,81,8|0,0:0|0:0,0:0:0:0:
312,339,11333,1,2,0:0:0:0:
143,326,11499,2,0,P|183:318|222:312,1,81,2|2,0:0|0:0,0:0:0:0:
72,278,11833,1,8,0:0:0:0:
72,278,12166,6,0,P|31:271|-11:264,2,81,2|2|2,0:0|0:0|0:0,0:0:0:0:
149,232,12666,1,2,0:0:0:0:
71,188,12833,2,0,L|66:134,2,40.5,2|2|2,0:0|0:0|0:0,0:0:0:0:
71,188,13333,6,0,P|111:183|254:170,1,153.899995890427,4|8,0:0|0:0,0:0:0:0:
299,248,13833,1,0,0:0:0:0:
383,158,13999,1,0,0:0:0:0:
383,158,14166,2,0,P|378:196|374:236,1,76.9499979452134,2|0,0:0|0:0,0:0:0:0:
278,321,14499,6,0,P|330:278|419:319,1,153.899995890427,8|2,0:0|0:0,0:0:0:0:
495,246,14999,1,8,0:0:0:0:
495,246,15166,2,0,P|506:204|491:154,1,76.9499979452134
427,101,15499,1,2,0:0:0:0:
357,171,15666,2,0,P|321:182|283:177,1,76.9499979452134,8|0,0:0|0:0,0:0:0:0:
193,119,15999,6,0,P|198:160|205:215,1,76.9499979452134,2|0,0:0|0:0,0:0:0:0:
276,94,16333,1,8,0:0:0:0:
276,94,16499,2,0,P|312:83|350:88,1,76.9499979452134
429,164,16833,2,0,P|388:170|351:176,1,76.9499979452134,2|0,0:0|0:0,0:0:0:0:
479,233,17166,6,0,P|419:243|302:263,1,153.899995890427,8|2,0:0|0:0,0:0:0:0:
255,190,17666,2,0,P|215:185|171:179,1,76.9499979452134,8|0,0:0|0:0,0:0:0:0:
127,266,17999,2,0,P|87:271|43:277,1,76.9499979452134,0|2,0:0|0:0,0:0:0:0:
0,189,18333,1,8,0:0:0:0:
0,189,18499,1,0,0:0:0:0:
78,81,18666,6,0,P|82:119|87:157,1,76.9499979452134,4|0,0:0|0:0,0:0:0:0:
148,237,18999,1,8,0:0:0:0:
217,162,19166,1,0,0:0:0:0:
284,239,19333,2,0,P|323:248|359:226,1,76.9499979452134,0|2,0:0|0:0,0:0:0:0:
447,155,19666,1,0,0:0:0:0:
447,155,19833,6,0,P|440:195|436:240,1,76.9499979452134,8|0,0:0|0:0,0:0:0:0:
364,135,20166,2,0,P|359:96|353:58,1,76.9499979452134,2|8,0:0|0:0,0:0:0:0:
444,18,20499,2,0,L|437:65,2,38.4749989726067
353,58,20833,1,2,0:0:0:0:
265,17,20999,2,0,P|228:13|181:33,1,76.9499979452134,8|0,0:0|0:0,0:0:0:0:
95,98,21333,6,0,P|139:103|173:107,1,76.9499979452134,4|2,0:0|0:0,0:0:0:0:
264,183,21666,1,8,0:0:0:0:
264,183,21833,2,0,P|195:191|107:200,1,153.899995890427,4|2,0:0|0:0,0:0:0:0:
41,298,22333,1,8,0:0:0:0:
41,298,22499,6,0,P|0:242|38:162,1,153.899995890427,4|2,0:0|0:0,0:0:0:0:
111,97,22999,1,8,0:0:0:0:
199,163,23166,1,2,0:3:0:0:
199,163,23499,2,0,L|145:172,5,38.4749989726067
97,212,23999,6,0,P|180:221|262:231,1,162,4|8,0:0|0:0,0:0:0:0:
374,183,24499,1,0,0:0:0:0:
341,299,24666,1,0,0:0:0:0:
341,299,24833,2,0,P|336:255|329:198,1,81,2|0,0:0|0:0,0:0:0:0:
454,176,25166,6,0,P|445:254|433:363,1,162,8|2,0:0|0:0,0:0:0:0:
331,380,25666,1,8,0:0:0:0:
241,311,25833,2,0,P|159:280|106:337,1,162,0|2,0:0|0:0,0:0:0:0:
18,256,26333,2,0,P|27:315|32:360,1,81,8|0,0:0|0:0,0:0:0:0:
93,214,26666,6,0,P|98:173|104:133,1,81,2|0,0:0|0:0,0:0:0:0:
48,41,26999,1,8,0:0:0:0:
48,41,27166,2,0,P|81:25|146:38,1,81
247,96,27499,2,0,P|207:102|169:88,1,81,2|0,0:0|0:0,0:0:0:0:
312,42,27833,6,0,P|386:17|462:78,1,162,8|2,0:0|0:0,0:0:0:0:
387,182,28333,2,0,P|382:139|378:100,1,81,8|0,0:0|0:0,0:0:0:0:
464,240,28666,1,0,0:0:0:0:
464,240,28833,1,2,0:0:0:0:
389,299,28999,2,0,P|347:293|309:288,1,81,8|0,0:0|0:0,0:0:0:0:
197,223,29333,6,0,P|243:216|298:206,1,81,4|0,0:0|0:0,0:0:0:0:
140,161,29666,1,8,0:0:0:0:
74,241,29833,1,0,0:0:0:0:
11,159,29999,2,0,P|6:118|3:79,2,81,0|2|0,0:0|0:0|0:0,0:0:0:0:
74,241,30499,6,0,P|123:246|161:257,1,81,8|0,0:0|0:0,0:0:0:0:
106,151,30833,2,0,P|145:141|185:137,1,81,2|8,0:0|0:0,0:0:0:0:
270,200,31166,2,0,L|275:262,2,40.5
347,127,31499,1,2,0:0:0:0:
347,127,31666,2,0,B|357:38,1,81,8|2,0:0|0:0,0:0:0:0:
362,41,31916,1,2,0:0:0:0:
369,36,31999,6,0,P|323:41|255:51,1,81,4|2,0:0|0:0,0:0:0:0:
219,151,32333,1,8,0:0:0:0:
219,151,32499,2,0,P|172:112|76:151,1,162,4|2,0:0|0:0,0:0:0:0:
19,250,32999,1,8,0:0:0:0:
19,250,33166,6,0,P|76:244|185:232,1,162,4|2,0:0|0:0,0:0:0:0:
269,320,33666,1,8,0:0:0:0:
342,218,33833,1,8,0:0:0:0:
342,218,33916,1,8,0:0:0:0:
342,218,33999,1,8,0:0:0:0:
415,294,34166,1,8,0:0:0:0:
495,223,34333,2,0,P|508:188|487:133,1,81,4|2,0:3|0:0,0:0:0:0:
411,58,34666,5,8,0:0:0:0:
411,58,34833,1,8,0:0:0:0:
324,142,34999,2,0,P|290:136|241:129,1,81
190,58,35333,2,0,P|230:52|269:45,2,81
80,108,35833,6,0,B|47:142|47:142|63:278,1,162,8|8,0:0|0:0,0:0:0:0:
137,328,36333,1,0,0:0:0:0:
207,249,36499,2,0,P|272:211|350:254,1,162
420,339,36999,1,0,0:0:0:0:
420,339,37166,6,0,B|437:169,1,162,8|8,0:0|0:0,0:0:0:0:
375,92,37666,2,0,P|331:99|292:103,1,81
214,192,37999,1,8,0:0:0:0:
214,192,38166,2,0,P|258:199|297:203,1,81,4|4,0:3|0:3,0:0:0:0:
197,106,38499,6,0,P|134:114|25:129,1,162,4|8,0:0|0:0,0:0:0:0:
16,255,38999,1,8,0:0:0:0:
16,255,39166,2,0,P|78:207|169:253,1,162,4|2,0:0|0:0,0:0:0:0:
222,298,39666,1,8,0:0:0:0:
222,298,39833,1,0,0:0:0:0:
299,193,39999,6,0,P|307:260|318:365,2,162,4|8|2,0:0|0:0|0:0,0:0:0:0:
348,89,40833,2,0,P|381:69|438:78,1,81,0|8,0:0|0:0,0:0:0:0:
273,118,41166,6,0,B|105:104,1,162,2|2,0:0|0:0,0:0:0:0:
21,36,41666,2,0,P|28:83|33:127,1,81,8|2,0:0|0:0,0:0:0:0:
110,200,41999,1,2,0:0:0:0:
19,294,42166,1,8,0:0:0:0:
19,294,42333,2,0,L|121:281,1,81,8|0,0:0|0:0,0:0:0:0:
200,189,42666,6,0,P|196:226|188:282,1,81,4|2,0:0|0:0,0:0:0:0:
284,179,42999,2,0,P|280:216|272:272,1,81,8|2,0:0|0:0,0:0:0:0:
237,109,43333,6,0,P|274:105|330:97,1,81,8|2,0:0|0:0,0:0:0:0:
207,30,43666,2,0,P|244:26|300:18,1,81,8|2,0:0|0:0,0:0:0:0:
156,96,43999,5,8,0:0:0:0:
287,20,44166,1,2,0:0:0:0:
156,96,44333,2,0,P|132:60|135:4,1,81,8|2,0:0|0:0,0:0:0:0:
224,157,44666,5,8,0:0:0:0:
73,117,44833,1,2,0:0:0:0:
224,157,44999,1,8,0:0:0:0:
78,209,45166,1,2,0:0:0:0:
224,157,45333,6,0,P|216:229|206:341,1,162,4|8,0:0|0:0,0:0:0:0:
319,266,45833,1,2,0:0:0:0:
420,333,45999,1,8,0:0:0:0:
420,333,46083,1,8,0:0:0:0:
420,333,46166,2,0,L|429:283,3,40.5,8|8|8|8,0:0|0:0|0:0|0:0,0:0:0:0:
387,223,46499,6,0,P|383:177|372:60,2,162,8|8|8,0:0|0:0|0:0,0:0:0:0:
408,352,47333,1,8,0:0:0:0:
502,169,47666,5,0,0:0:0:0:
502,169,47749,1,0,0:0:0:0:
502,169,47833,1,0,0:0:0:0:
502,169,47916,1,0,0:0:0:0:
502,169,47999,1,8,0:0:0:0:
487,154,48333,6,0,L|317:173,1,162,12|2,0:0|0:0,0:0:0:0:
320,172,48749,1,2,0:0:0:0:
314,173,48833,1,2,0:0:0:0:
255,249,48999,1,2,0:0:0:0:
214,124,49166,6,0,P|137:92|72:153,1,162,4|2,0:0|0:0,0:0:0:0:
8,225,49666,1,8,0:0:0:0:
8,225,49833,2,0,P|65:218|118:212,1,81,4|0,0:0|0:0,0:0:0:0:
175,288,50166,1,2,0:0:0:0:
257,212,50333,1,8,0:0:0:0:
329,320,50499,6,0,P|336:254|348:149,1,162,4|8,0:0|0:0,0:0:0:0:
349,152,50916,1,8,0:0:0:0:
351,145,50999,1,2,0:0:0:0:
233,119,51166,2,0,P|238:165|244:220,1,81,4|2,0:0|0:0,0:0:0:0:
302,84,51499,2,0,L|311:41,2,40.5,2|2|2,0:0|0:0|0:0,0:0:0:0:
242,199,51833,6,0,P|173:224|110:169,1,162,12|8,0:0|0:0,0:0:0:0:
51,85,52333,1,8,0:0:0:0:
51,85,52499,2,0,P|58:173|65:255,1,162,4|2,0:0|0:0,0:0:0:0:
154,332,52999,1,8,0:0:0:0:
156,307,53083,1,8,0:0:0:0:
160,283,53166,1,8,0:0:0:0:
164,259,53249,1,8,0:0:0:0:
170,235,53333,1,8,0:0:0:0:
172,227,53666,6,0,P|95:256|32:207,1,162,12|8,0:0|0:0,0:0:0:0:
111,139,54166,1,2,0:0:0:0:
176,222,54333,1,8,0:0:0:0:
219,106,54499,6,0,B|261:73|261:73|386:107,1,162,4|2,0:0|0:0,0:0:0:0:
472,60,54999,1,8,0:0:0:0:
472,60,55166,2,0,P|465:117|459:173,1,81,4|0,0:0|0:0,0:0:0:0:
365,200,55499,1,8,0:0:0:0:
461,264,55666,1,8,0:0:0:0:
348,332,55833,6,0,P|309:291|371:196,1,162,4|2,0:0|0:0,0:0:0:0:
411,112,56333,1,8,0:0:0:0:
411,112,56499,2,0,P|325:119|236:125,1,162,4|8,0:0|0:0,0:0:0:0:
243,125,56916,1,8,0:0:0:0:
237,126,56999,1,8,0:0:0:0:
158,30,57166,6,0,P|108:92|158:171,1,162,4|2,0:0|0:0,0:0:0:0:
197,248,57666,2,0,P|160:243|88:235,1,81,8|0,0:0|0:0,0:0:0:0:
268,197,57999,1,8,0:0:0:0:
268,197,58083,1,8,0:0:0:0:
268,197,58166,1,8,0:0:0:0:
268,197,58249,1,8,0:0:0:0:
268,197,58333,2,0,L|274:248,3,40.5,8|8|8|8,0:0|0:0|0:0|0:0,0:0:0:0:
320,300,58666,6,0,P|330:217|339:132,1,162,4|8,0:0|0:0,0:0:0:0:
400,54,59166,1,0,0:0:0:0:
400,54,59333,2,0,P|356:59|296:66,1,81,2|2,0:0|0:0,0:0:0:0:
238,129,59666,1,8,0:0:0:0:
178,42,59833,6,0,B|133:13|133:13|12:46,1,162,4|2,0:0|0:0,0:0:0:0:
108,121,60333,1,8,0:0:0:0:
18,192,60499,2,0,P|68:200|123:210,1,81,4|0,0:0|0:0,0:0:0:0:
197,135,60833,2,0,P|187:180|174:240,1,81,2|8,0:0|0:0,0:0:0:0:
281,101,61166,6,0,P|290:177|301:281,1,162,4|2,0:0|0:0,0:0:0:0:
401,316,61666,1,8,0:0:0:0:
401,316,61833,2,0,P|446:254|406:177,1,162,4|2,0:0|0:0,0:0:0:0:
299,261,62333,1,8,0:0:0:0:
299,261,62499,6,0,P|254:199|294:122,1,162,4|2,0:0|0:0,0:0:0:0:
382,52,62999,2,0,P|374:110|369:150,1,81,8|0,0:0|0:0,0:0:0:0:
292,9,63333,1,8,0:0:0:0:
372,144,63499,1,2,0:0:0:0:
292,9,63666,1,8,0:0:0:0:
372,144,63833,6,0,P|301:134|188:120,1,162,4|2,0:0|0:0,0:0:0:0:
111,56,64333,2,0,L|191:45|271:34,2,162,8|8|8,0:0|0:0|0:0,0:0:0:0:
17,134,65166,6,0,P|-5:189|47:241,1,121.5,4|0,0:0|0:0,0:0:0:0:
109,204,65499,2,0,P|100:269|90:344,1,121.5,4|0,0:0|0:0,0:0:0:0:
16,364,65833,2,0,P|75:357|189:349,1,162,4|8,0:0|0:0,0:0:0:0:
177,349,66249,1,8,0:0:0:0:
177,349,66333,1,8,0:0:0:0:
283,275,66499,6,0,P|315:208|261:140,1,162,4|2,0:0|0:0,0:0:0:0:
169,89,66999,2,0,P|176:137|182:186,1,81,8|2,0:0|0:0,0:0:0:0:
223,20,67333,5,2,0:0:0:0:
311,33,67499,1,2,0:0:0:0:
326,120,67666,5,2,0:0:0:0:
412,112,67833,1,2,0:0:0:0:
439,13,67999,5,8,0:0:0:0:
439,13,68833,5,8,0:0:0:0:
412,112,68999,1,8,0:0:0:0:
412,112,69333,6,0,P|334:102|241:91,1,162,4|4,0:0|0:3,0:0:0:0:
182,25,69833,2,0,L|234:15,2,40.5,2|2|2,0:0|0:0|0:0,0:0:0:0:
115,94,70166,2,0,P|120:133|127:188,1,81,0|4,0:0|3:0,0:0:0:0:
213,235,70499,6,0,P|139:206|80:266,1,162,2|2,0:0|0:0,0:0:0:0:
128,345,70999,2,0,P|171:339|236:334,1,81,4|0,0:3|0:0,0:0:0:0:
283,264,71333,1,2,0:0:0:0:
363,347,71499,1,8,0:0:0:0:
454,264,71666,1,8,0:0:0:0:
363,347,71833,6,0,P|357:272|346:160,1,162,4|2,0:0|0:0,0:0:0:0:
454,264,72333,1,8,0:0:0:0:
454,264,72499,2,0,P|460:189|471:77,1,162,4|2,0:0|0:0,0:0:0:0:
364,14,72999,1,8,0:0:0:0:
364,14,73166,6,0,P|296:24|175:42,1,162,4|2,0:0|0:0,0:0:0:0:
99,98,73666,1,8,0:0:0:0:
199,135,73833,1,2,0:0:0:0:
120,12,73999,1,8,0:0:0:0:
120,12,74666,6,0,P|70:64|122:147,1,162,4|8,0:0|0:0,0:0:0:0:
179,210,75166,1,0,0:0:0:0:
179,210,75333,2,0,P|139:214|96:221,1,81,2|2,0:0|0:0,0:0:0:0:
234,144,75666,1,8,0:0:0:0:
281,273,75833,6,0,P|362:308|420:233,1,162,4|2,0:0|0:0,0:0:0:0:
486,169,76333,1,8,0:0:0:0:
486,169,76499,2,0,P|405:134|347:209,1,162,2|2,0:0|0:0,0:0:0:0:
252,86,77000,1,8,0:0:0:0:
252,86,77166,6,0,P|259:161|268:263,1,162,4|2,0:0|0:0,0:0:0:0:
142,217,77666,1,8,0:0:0:0:
142,217,77833,2,0,P|149:142|158:40,1,162,2|2,0:0|0:0,0:0:0:0:
21,27,78333,1,8,0:0:0:0:
21,27,78499,6,0,P|-15:107|40:155,1,162,4|2,0:0|0:0,0:0:0:0:
147,50,78999,1,8,0:0:0:0:
147,50,79166,2,0,P|150:100|157:156,1,81,0|8,0:0|0:0,0:0:0:0:
246,199,79499,1,2,0:0:0:0:
110,226,79666,1,8,0:0:0:0:
246,199,79833,6,0,B|280:166|280:166|272:39,1,162,4|2,0:0|0:0,0:0:0:0:
176,17,80333,2,0,P|140:15|85:40,1,81,8|0,0:0|0:0,0:0:0:0:
36,104,80666,1,2,0:0:0:0:
109,164,80833,1,2,0:0:0:0:
31,244,80999,1,8,0:0:0:0:
111,323,81166,6,0,P|175:314|240:306,1,121.5,4|0,0:0|0:0,0:0:0:0:
201,228,81499,2,0,P|263:239|332:250,1,121.5,4|0,0:0|0:0,0:0:0:0:
303,331,81833,2,0,P|367:322|473:309,1,162,4|2,0:0|0:0,0:0:0:0:
370,189,82333,1,8,0:0:0:0:
479,81,82499,6,0,P|429:37|341:70,1,162,4|2,0:0|0:0,0:0:0:0:
272,153,82999,2,0,P|230:159|190:138,1,81,8|2,0:0|0:0,0:0:0:0:
102,77,83333,2,0,P|111:139|116:187,1,81,0|2,0:0|0:0,0:0:0:0:
204,240,83666,1,8,0:0:0:0:
68,295,83833,6,0,P|135:269|207:321,1,162,4|2,0:0|0:0,0:0:0:0:
169,189,84333,1,8,0:0:0:0:
169,189,84499,2,0,P|231:142|305:168,1,162,4|2,0:0|0:0,0:0:0:0:
372,260,84999,1,8,0:0:0:0:
466,138,85166,6,0,P|455:234|446:332,1,162,4|2,0:0|0:0,0:0:0:0:
330,366,85666,1,8,0:0:0:0:
330,366,85833,2,0,P|250:348|162:328,1,162,4|2,0:0|0:0,0:0:0:0:
289,261,86333,1,8,0:0:0:0:
139,186,86499,6,0,P|205:134|274:172,1,162,4|2,0:0|0:0,0:0:0:0:
341,284,86999,1,8,0:0:0:0:
341,284,87166,2,0,P|420:310|472:250,1,162,4|2,0:0|0:0,0:0:0:0:
341,173,87666,1,8,0:0:0:0:
512,105,87833,6,0,B|392:57|377:198|233:94,1,273.375010428429,4|0,0:0|0:0,0:0:0:0:
