osu file format v14

[General]
AudioFilename: audio.mp3
AudioLeadIn: 0
PreviewTime: 47333
Countdown: 0
SampleSet: Soft
StackLeniency: 0.5
Mode: 0
LetterboxInBreaks: 0
WidescreenStoryboard: 0

[Editor]
DistanceSpacing: 1.2
BeatDivisor: 4
GridSize: 32
TimelineZoom: 1

[Metadata]
Title:Gimme! Revolution
TitleUnicode:ギミー!レボリューション
Artist:Uchida Maaya
ArtistUnicode:内田真礼
Creator:Karia
Version:Hard
Source:俺、ツインテールになります。
Tags:Ore Twintail ni Narimasu opening Neoskylove TV Size
BeatmapID:1117400
BeatmapSetID:524464

[Difficulty]
HPDrainRate:4.5
CircleSize:3.8
OverallDifficulty:5.5
ApproachRate:7
SliderMultiplier:1.38
SliderTickRate:1

[Events]
//Background and Video events
Video,0,"VIDEO.avi"
0,0,"BG.jpg",0,0
//Break Periods
//Storyboard Layer 0 (Background)
//Storyboard Layer 1 (Fail)
//Storyboard Layer 2 (Pass)
//Storyboard Layer 3 (Foreground)
//Storyboard Sound Samples

[TimingPoints]
0,333.333333333333,4,2,1,40,1,0
1333,-100,4,2,1,60,0,0
6333,-100,4,2,1,50,0,0
7999,-100,4,2,1,60,0,0
13333,-100,4,2,1,50,0,0
23999,-100,4,2,1,60,0,0
48333,-100,4,2,1,70,0,1
58583,-100,4,2,1,70,0,0
58666,-100,4,2,1,70,0,1
67999,-100,4,2,1,70,0,0
68833,-100,4,2,1,60,0,0
71833,-100,4,2,1,70,0,1
74666,-100,4,2,1,60,0,0
87833,-133.333333333333,4,2,1,60,0,0
87916,-133.333333333333,4,2,1,5,0,0

[Colours]
Combo1 : 164,255,255
Combo2 : 255,0,0
Combo3 : 0,118,236
Combo4 : 255,128,255

[HitObjects]
423,46,666,6,0,L|417:90,3,34.5
392,113,999,2,0,L|397:161,3,34.5
427,174,1333,6,0,B|413:329,1,138,4|0,0:0|0:0,0:0:0:0:
336,282,1833,1,0,0:0:0:0:
336,282,1999,2,0,P|301:288|253:292,1,69
87,223,2499,6,0,P|141:189|220:215,1,138,4|2,0:0|0:0,0:0:0:0:
278,156,2999,1,8,0:0:0:0:
278,156,3166,2,0,P|310:169|361:166,1,69,4|0,0:0|0:0,0:0:0:0:
421,137,3499,2,0,L|429:188,2,34.5,8|8|2,0:0|0:0|0:0,0:0:0:0:
378,50,3833,6,0,P|306:59|233:69,1,138,4|8,0:0|0:0,0:0:0:0:
192,134,4333,1,2,0:0:0:0:
192,134,4499,2,0,P|135:93|62:129,1,138,4|8,0:0|0:0,0:0:0:0:
22,177,5000,1,2,0:0:0:0:
22,177,5166,6,0,P|30:231|36:271,1,69,4|0,0:0|0:0,0:0:0:0:
62,323,5499,2,0,L|14:335,2,34.5,8|8|2,0:0|0:0|0:0,0:0:0:0:
127,252,5833,6,0,B|285:269|285:269|248:217,1,207,4|0,0:0|0:0,0:0:0:0:
257,229,6666,2,0,P|217:291|263:348,1,138
322,373,7166,1,0,0:0:0:0:
395,334,7333,6,0,L|399:299,3,34.5,8|8|8|8,0:0|0:0|0:0|0:0,0:0:0:0:
369,271,7666,2,0,L|365:236,3,34.5,8|8|8|8,0:0|0:0|0:0|0:0,0:0:0:0:
400,214,7999,6,0,P|410:127|421:57,2,138,4|8|2,0:0|0:0|0:0,0:0:0:0:
325,177,8833,2,0,P|292:167|246:171,1,69,2|8,0:0|0:0,0:0:0:0:
201,230,9166,6,0,P|134:251|82:208,1,138,4|2,0:0|0:0,0:0:0:0:
11,173,9666,1,8,0:0:0:0:
11,173,9833,2,0,P|81:164|164:153,1,138,2|2,0:0|0:0,0:0:0:0:
215,95,10333,1,8,0:0:0:0:
273,164,10499,6,0,P|341:173|409:181,1,138,4|2,0:0|0:0,0:0:0:0:
454,109,10999,2,0,P|420:103|375:95,1,69,8|0,0:0|0:0,0:0:0:0:
373,15,11333,2,0,P|407:21|452:29,2,69,2|2|2,0:0|0:0|0:0,0:0:0:0:
306,69,11833,1,8,0:0:0:0:
83,337,13333,6,0,P|79:295|68:181,1,138,4|8,0:0|0:0,0:0:0:0:
126,137,13833,1,0,0:0:0:0:
193,187,13999,2,0,P|231:192|271:198,2,69,0|2|0,0:0|0:0|0:0,0:0:0:0:
126,137,14499,6,0,P|182:128|265:115,1,138,8|2,0:0|0:0,0:0:0:0:
336,157,14999,1,8,0:0:0:0:
336,157,15166,2,0,P|400:164|475:175,1,138,0|2,0:0|0:0,0:0:0:0:
511,249,15666,2,0,P|513:289|501:318,1,69,8|0,0:0|0:0,0:0:0:0:
427,352,15999,6,0,P|423:313|419:264,1,69,2|0,0:0|0:0,0:0:0:0:
341,253,16333,1,8,0:0:0:0:
341,253,16499,2,0,P|337:287|334:321,1,69
262,365,16833,2,0,P|225:362|191:355,1,69,2|0,0:0|0:0,0:0:0:0:
124,312,17166,6,0,P|184:302|272:288,1,138,8|2,0:0|0:0,0:0:0:0:
279,208,17666,2,0,P|243:204|203:197,1,69,8|0,0:0|0:0,0:0:0:0:
139,154,17999,2,0,P|134:194|130:236,1,69,0|2,0:0|0:0,0:0:0:0:
48,237,18333,2,0,P|53:197|57:155,1,69,8|0,0:0|0:0,0:0:0:0:
18,80,18666,6,0,P|65:44|148:73,1,138,4|8,0:0|0:0,0:0:0:0:
206,109,19166,1,0,0:0:0:0:
206,109,19333,2,0,P|240:104|277:100,2,69,0|2|0,0:0|0:0|0:0,0:0:0:0:
149,172,19833,6,0,P|157:212|161:256,1,69,8|0,0:0|0:0,0:0:0:0:
240,259,20166,2,0,P|244:224|251:190,1,69,2|8,0:0|0:0,0:0:0:0:
332,174,20499,2,0,L|339:214,2,34.5
276,112,20833,1,2,0:0:0:0:
276,112,20999,2,0,P|309:97|348:93,1,69,8|0,0:0|0:0,0:0:0:0:
426,139,21333,6,0,P|436:103|429:65,2,69,4|2|8,0:0|0:0|0:0,0:0:0:0:
361,190,21833,2,0,P|368:266|375:335,1,138,4|2,0:0|0:0,0:0:0:0:
450,363,22333,1,8,0:0:0:0:
450,363,22499,6,0,P|458:305|470:214,1,138,4|2,0:0|0:0,0:0:0:0:
426,156,22999,2,0,B|392:151|392:151|361:168,1,69,8|2,0:0|0:3,0:0:0:0:
53,196,23999,6,0,P|136:205|205:213,1,138,4|8,0:0|0:0,0:0:0:0:
254,156,24499,1,0,0:0:0:0:
254,156,24666,2,0,P|263:120|249:64,2,69,0|2|0,0:0|0:0|0:0,0:0:0:0:
190,211,25166,6,0,P|270:202|347:191,1,138,8|2,0:0|0:0,0:0:0:0:
400,244,25666,1,8,0:0:0:0:
400,244,25833,2,0,B|428:206|428:206|412:97,1,138,0|2,0:0|0:0,0:0:0:0:
356,57,26333,2,0,P|323:48|270:61,1,69,8|0,0:0|0:0,0:0:0:0:
234,115,26666,6,0,P|195:118|159:122,1,69,2|0,0:0|0:0,0:0:0:0:
86,92,26999,1,8,0:0:0:0:
86,92,27166,2,0,P|91:132|97:190,1,69
166,199,27499,2,0,P|161:239|155:297,1,69,2|0,0:0|0:0,0:0:0:0:
106,332,27833,6,0,P|172:308|229:361,1,138,8|2,0:0|0:0,0:0:0:0:
286,290,28333,2,0,P|329:285|365:280,1,69,8|0,0:0|0:0,0:0:0:0:
434,252,28666,2,0,P|430:293|426:332,1,69,0|2,0:0|0:0,0:0:0:0:
505,347,28999,2,0,P|509:306|513:267,1,69,8|0,0:0|0:0,0:0:0:0:
503,181,29333,6,0,P|439:151|361:189,1,138,4|8,0:0|0:0,0:0:0:0:
305,211,29833,1,0,0:0:0:0:
305,211,29999,2,0,P|264:206|226:205,2,69,0|2|0,0:0|0:0|0:0,0:0:0:0:
331,290,30499,6,0,P|289:292|252:297,1,69,8|0,0:0|0:0,0:0:0:0:
184,268,30833,2,0,P|142:265|105:260,1,69,2|8,0:0|0:0,0:0:0:0:
45,304,31166,2,0,L|51:361,2,34.5
4,233,31499,1,2,0:0:0:0:
4,233,31666,2,0,P|8:197|14:144,1,69,8|2,0:0|0:0,0:0:0:0:
52,76,31999,6,0,P|88:63|140:71,1,69,4|2,0:0|0:0,0:0:0:0:
145,143,32333,1,8,0:0:0:0:
145,143,32499,2,0,P|195:108|277:134,1,138,4|2,0:0|0:0,0:0:0:0:
299,202,32999,1,8,0:0:0:0:
299,202,33166,6,0,P|363:219|420:182,1,138,4|2,0:0|0:0,0:0:0:0:
463,112,33666,1,8,0:0:0:0:
502,184,33833,2,0,L|507:231,2,34.5,8|8|8,0:0|0:0|0:0,0:0:0:0:
419,182,34166,1,8,0:0:0:0:
463,112,34333,2,0,P|428:100|375:116,1,69,4|2,0:3|0:0,0:0:0:0:
318,132,34666,5,8,0:0:0:0:
318,132,34833,1,8,0:0:0:0:
255,77,34999,2,0,P|219:71|184:79,1,69
111,111,35333,2,0,P|71:105|35:99,2,69
171,167,35833,6,0,P|191:244|139:288,1,138,8|8,0:0|0:0,0:0:0:0:
95,338,36333,1,0,0:0:0:0:
95,338,36499,2,0,P|145:313|232:355,1,138
285,286,36999,1,0,0:0:0:0:
339,348,37166,6,0,P|412:365|470:330,1,138,8|8,0:0|0:0,0:0:0:0:
493,258,37666,2,0,P|497:221|501:183,1,69
439,133,37999,2,0,P|436:97|433:62,2,69,8|4|4,0:0|0:3|0:3,0:0:0:0:
355,146,38499,6,0,P|298:140|211:130,1,138,4|8,0:0|0:0,0:0:0:0:
142,173,38999,1,8,0:0:0:0:
142,173,39166,2,0,P|71:179|1:184,1,138,4|2,0:0|0:0,0:0:0:0:
31,263,39666,2,0,P|65:266|118:271,1,69,8|0,0:0|0:0,0:0:0:0:
192,241,39999,6,0,P|220:314|168:356,2,138,4|8|2,0:0|0:0|0:0,0:0:0:0:
142,173,40833,2,0,P|179:167|230:159,1,69,0|8,0:0|0:0,0:0:0:0:
278,212,41166,6,0,P|348:214|442:218,1,138,2|2,0:0|0:0,0:0:0:0:
478,163,41666,2,0,P|487:127|475:83,1,69,8|2,0:0|0:0,0:0:0:0:
413,47,41999,1,2,0:0:0:0:
343,92,42166,2,0,L|245:106,2,69,8|8|0,0:0|0:0|0:0,0:0:0:0:
413,47,42666,6,0,P|372:41|270:26,1,138,4|8,0:0|0:0,0:0:0:0:
203,67,43166,1,2,0:0:0:0:
133,22,43333,2,0,P|96:27|43:34,1,69,8|2,0:0|0:0,0:0:0:0:
60,113,43666,2,0,P|97:108|150:101,1,69,8|2,0:0|0:0,0:0:0:0:
203,67,43999,6,0,P|201:101|199:140,1,69,8|2,0:0|0:0,0:0:0:0:
133,186,44333,2,0,P|138:223|143:258,1,69,8|2,0:0|0:0,0:0:0:0:
214,299,44666,1,8,0:0:0:0:
214,299,44833,1,2,0:0:0:0:
281,248,44999,1,8,0:0:0:0:
281,248,45166,1,2,0:0:0:0:
345,320,45333,6,0,P|410:338|469:287,1,138,4|8,0:0|0:0,0:0:0:0:
494,218,45833,1,2,0:0:0:0:
434,160,45999,2,0,L|431:126,4,34.5,8|8|8|8|8,0:0|0:0|0:0|0:0|0:0,0:0:0:0:
365,206,46499,6,0,P|319:202|224:195,2,138,8|8|8,0:0|0:0|0:0,0:0:0:0:
405,277,47333,2,0,P|447:225|434:160,1,138,8|0,0:0|0:0,0:0:0:0:
356,13,47999,1,8,0:0:0:0:
356,13,48333,6,0,P|352:52|348:96,1,69,12|0,0:0|0:0,0:0:0:0:
282,131,48666,2,0,L|227:123,2,34.5,8|2|2,0:0|0:0|0:0,0:0:0:0:
347,201,48999,1,2,0:0:0:0:
347,201,49166,6,0,P|276:209|204:218,1,138,4|2,0:0|0:0,0:0:0:0:
141,170,49666,1,8,0:0:0:0:
141,170,49833,2,0,P|97:166|48:161,1,69,4|0,0:0|0:0,0:0:0:0:
11,219,50166,2,0,P|3:255|16:297,1,69,2|8,0:0|0:0,0:0:0:0:
61,367,50499,6,0,P|127:361|223:353,1,138,4|8,0:0|0:0,0:0:0:0:
261,300,50999,1,2,0:0:0:0:
261,300,51166,2,0,P|299:304|343:309,1,69,4|2,0:0|0:0,0:0:0:0:
408,339,51499,2,0,L|415:386,2,34.5,2|2|2,0:0|0:0|0:0,0:0:0:0:
450,266,51833,6,0,P|453:228|457:182,1,69,12|0,0:0|0:0,0:0:0:0:
393,145,52166,2,0,P|388:107|381:61,1,69,8|8,0:0|0:0,0:0:0:0:
442,18,52499,2,0,P|356:34|305:44,1,138,4|2,0:0|0:0,0:0:0:0:
235,88,52999,2,0,L|195:83,4,34.5,8|8|8|8|8,0:0|0:0|0:0|0:0|0:0,0:0:0:0:
70,23,53666,6,0,P|75:75|78:108,1,69,12|0,0:0|0:0,0:0:0:0:
140,146,53999,2,0,P|136:183|132:216,1,69,8|2,0:0|0:0,0:0:0:0:
56,273,54333,1,8,0:0:0:0:
56,273,54499,6,0,P|125:266|211:260,1,138,4|2,0:0|0:0,0:0:0:0:
250,321,54999,1,8,0:0:0:0:
250,321,55166,2,0,P|281:319|333:336,1,69,4|0,0:0|0:0,0:0:0:0:
389,284,55499,2,0,P|420:286|472:269,1,69,8|8,0:0|0:0,0:0:0:0:
504,191,55833,6,0,P|447:185|367:176,1,138,4|2,0:0|0:0,0:0:0:0:
391,95,56333,1,8,0:0:0:0:
391,95,56499,2,0,P|305:105|247:111,1,138,4|8,0:0|0:0,0:0:0:0:
206,178,56999,1,8,0:0:0:0:
206,178,57166,6,0,P|172:126|195:51,1,138,4|2,0:0|0:0,0:0:0:0:
263,18,57666,2,0,P|302:21|335:24,1,69,8|0,0:0|0:0,0:0:0:0:
413,16,57999,2,0,L|407:64,3,34.5,8|8|8|8,0:0|0:0|0:0|0:0,0:0:0:0:
382,83,58333,2,0,L|386:127,3,34.5,8|8|8|8,0:0|0:0|0:0|0:0,0:0:0:0:
420,140,58666,6,0,P|411:220|404:293,1,138,4|8,0:0|0:0,0:0:0:0:
335,324,59166,1,0,0:0:0:0:
335,324,59333,2,0,P|294:318|240:309,1,69,2|2,0:0|0:0,0:0:0:0:
190,348,59666,1,8,0:0:0:0:
190,348,59833,6,0,P|111:351|28:356,1,138,4|2,0:0|0:0,0:0:0:0:
8,285,60333,1,8,0:0:0:0:
8,285,60499,2,0,P|0:251|7:202,1,69,4|0,0:0|0:0,0:0:0:0:
83,245,60833,2,0,P|93:211|123:172,1,69,2|8,0:0|0:0,0:0:0:0:
157,271,61166,6,0,P|217:238|293:264,1,138,4|2,0:0|0:0,0:0:0:0:
327,325,61666,1,8,0:0:0:0:
327,325,61833,2,0,P|392:341|451:308,1,138,4|2,0:0|0:0,0:0:0:0:
489,232,62333,1,8,0:0:0:0:
489,232,62499,6,0,P|429:224|352:214,1,138,4|2,0:0|0:0,0:0:0:0:
294,157,62999,2,0,P|286:124|294:71,1,69,8|0,0:0|0:0,0:0:0:0:
367,59,63333,2,0,P|375:92|367:145,1,69,8|0,0:0|0:0,0:0:0:0:
345,219,63666,1,8,0:0:0:0:
345,219,63833,6,0,P|274:209|185:196,1,138,4|2,0:0|0:0,0:0:0:0:
154,136,64333,2,0,P|122:195|155:262,2,138,8|8|8,0:0|0:0|0:0,0:0:0:0:
209,71,65166,6,0,P|256:77|354:92,1,138,4|4,0:0|0:0,0:0:0:0:
366,172,65666,1,0,0:0:0:0:
366,172,65833,2,0,P|402:165|456:169,1,69,4|0,0:0|0:0,0:0:0:0:
508,203,66166,2,0,L|515:168,2,34.5,8|8|8,0:0|0:0|0:0,0:0:0:0:
449,282,66499,6,0,L|374:273|299:264,1,138,4|2,0:0|0:0,0:0:0:0:
258,204,66999,2,0,P|216:208|163:213,1,69,8|2,0:0|0:0,0:0:0:0:
127,266,67333,2,0,P|130:303|134:343,1,69,2|2,0:0|0:0,0:0:0:0:
213,355,67666,2,0,P|216:317|220:278,1,69,2|2,0:0|0:0,0:0:0:0:
189,210,67999,1,8,0:0:0:0:
33,344,68833,5,8,0:0:0:0:
33,344,68999,1,8,0:0:0:0:
33,344,69333,6,0,P|28:277|23:193,1,138,4|4,0:0|0:3,0:0:0:0:
69,135,69833,2,0,L|73:96,2,34.5,2|2|2,0:0|0:0|0:0,0:0:0:0:
131,190,70166,2,0,P|168:182|219:177,1,69,0|4,0:0|3:0,0:0:0:0:
252,243,70499,6,0,P|315:272|386:237,1,138,2|2,0:0|0:0,0:0:0:0:
438,193,70999,2,0,P|441:154|446:100,1,69,4|0,0:3|0:0,0:0:0:0:
392,59,71333,1,2,0:0:0:0:
392,59,71499,2,0,P|355:46|312:52,1,69,8|8,0:0|0:0,0:0:0:0:
264,123,71833,6,0,P|189:129|103:136,1,138,4|2,0:0|0:0,0:0:0:0:
48,106,72333,1,8,0:0:0:0:
48,106,72499,2,0,P|56:183|61:268,1,138,4|2,0:0|0:0,0:0:0:0:
8,309,72999,1,8,0:0:0:0:
8,309,73166,6,0,P|67:282|136:311,1,138,4|2,0:0|0:0,0:0:0:0:
199,358,73666,2,0,P|242:350|279:349,1,69,8|2,0:0|0:0,0:0:0:0:
337,301,73999,1,8,0:0:0:0:
459,142,74666,6,0,P|487:202|442:263,2,138,4|8|2,0:0|0:0|0:0,0:0:0:0:
392,96,75499,2,0,P|353:100|311:104,1,69,2|8,0:0|0:0,0:0:0:0:
273,169,75833,6,0,P|213:132|132:174,1,138,4|2,0:0|0:0,0:0:0:0:
107,221,76333,1,8,0:0:0:0:
107,221,76499,2,0,P|101:152|94:79,1,138,2|2,0:0|0:0,0:0:0:0:
11,75,77000,1,8,0:0:0:0:
11,75,77166,6,0,P|17:144|24:217,1,138,4|2,0:0|0:0,0:0:0:0:
52,292,77666,1,8,0:0:0:0:
52,292,77833,2,0,P|119:313|177:273,1,138,2|2,0:0|0:0,0:0:0:0:
223,213,78333,1,8,0:0:0:0:
223,213,78499,6,0,P|290:192|348:232,1,138,4|2,0:0|0:0,0:0:0:0:
389,298,78999,1,8,0:0:0:0:
389,298,79166,2,0,P|436:293|489:290,2,69,0|8|2,0:0|0:0|0:0,0:0:0:0:
432,212,79666,1,8,0:0:0:0:
432,212,79833,6,0,P|463:153|432:87,1,138,4|2,0:0|0:0,0:0:0:0:
370,41,80333,2,0,P|332:44|281:49,1,69,8|0,0:0|0:0,0:0:0:0:
265,121,80666,2,0,P|303:124|354:129,1,69,2|2,0:0|0:0,0:0:0:0:
352,207,80999,1,8,0:0:0:0:
352,207,81166,6,0,P|290:213|206:222,1,138,4|4,0:0|0:0,0:0:0:0:
102,99,81833,2,0,P|164:105|248:114,1,138,4|2,0:0|0:0,0:0:0:0:
311,43,82333,1,8,0:0:0:0:
311,43,82499,6,0,P|341:115|312:184,1,138,4|2,0:0|0:0,0:0:0:0:
262,225,82999,2,0,P|259:264|276:305,1,69,8|2,0:0|0:0,0:0:0:0:
336,342,83333,2,0,P|388:336|422:333,2,69,0|2|8,0:0|0:0|0:0,0:0:0:0:
349,247,83833,6,0,P|414:233|502:220,1,138,4|2,0:0|0:0,0:0:0:0:
479,140,84333,1,8,0:0:0:0:
479,140,84499,2,0,P|411:154|343:164,1,138,4|2,0:0|0:0,0:0:0:0:
299,79,84999,1,8,0:0:0:0:
299,79,85166,6,0,P|239:44|165:86,1,138,4|2,0:0|0:0,0:0:0:0:
117,123,85666,1,8,0:0:0:0:
117,123,85833,2,0,P|125:197|134:285,1,138,4|8,0:0|0:0,0:0:0:0:
210,317,86333,1,8,0:0:0:0:
210,317,86499,6,0,L|217:248|224:179,1,138,4|2,0:0|0:0,0:0:0:0:
263,90,86999,1,8,0:0:0:0:
263,90,87166,2,0,P|315:68|396:119,1,138,4|2,0:0|0:0,0:0:0:0:
423,191,87666,1,8,0:0:0:0:
423,191,87833,6,0,P|499:218|439:156,1,232.875008883477,4|0,0:0|0:0,0:0:0:0:
