osu file format v14

[General]
AudioFilename: audio.mp3
AudioLeadIn: 0
PreviewTime: 47333
Countdown: 0
SampleSet: Soft
StackLeniency: 0.5
Mode: 0
LetterboxInBreaks: 0
WidescreenStoryboard: 0

[Editor]
DistanceSpacing: 0.8
BeatDivisor: 4
GridSize: 32
TimelineZoom: 1

[Metadata]
Title:Gimme! Revolution
TitleUnicode:ギミー!レボリューション
Artist:Uchida Maaya
ArtistUnicode:内田真礼
Creator:Karia
Version:Growing Up, Next Phase
Source:俺、ツインテールになります。
Tags:Ore Twintail ni Narimasu opening Neoskylove TV Size
BeatmapID:1113159
BeatmapSetID:524464

[Difficulty]
HPDrainRate:6
CircleSize:4.3
OverallDifficulty:9
ApproachRate:9.3
SliderMultiplier:1.88
SliderTickRate:1

[Events]
//Background and Video events
Video,0,"VIDEO.avi"
0,0,"Next Phase.jpg",0,0
//Break Periods
//Storyboard Layer 0 (Background)
//Storyboard Layer 1 (Fail)
//Storyboard Layer 2 (Pass)
//Storyboard Layer 3 (Foreground)
//Storyboard Sound Samples

[TimingPoints]
0,333.333333333333,4,2,1,50,1,0
1333,-76.9230769230769,4,2,1,60,0,0
1999,-100,4,2,1,50,0,0
2499,-90.9090909090909,4,2,1,60,0,0
3416,-90.9090909090909,4,2,1,5,0,0
3499,-90.9090909090909,4,2,1,60,0,0
3833,-100,4,2,1,60,0,0
4083,-100,4,2,1,5,0,0
4166,-100,4,2,1,60,0,0
4249,-100,4,2,1,5,0,0
4333,-100,4,2,1,60,0,0
4499,-90.9090909090909,4,2,1,60,0,0
4749,-90.9090909090909,4,2,1,5,0,0
4833,-90.9090909090909,4,2,1,60,0,0
4916,-90.9090909090909,4,2,1,5,0,0
4999,-90.9090909090909,4,2,1,60,0,0
5166,-83.3333333333333,4,2,1,60,0,0
5416,-83.3333333333333,4,2,1,5,0,0
5499,-83.3333333333333,4,2,1,60,0,0
5833,-147.058823529412,4,2,1,60,0,0
6333,-147.058823529412,4,2,1,50,0,0
7999,-100,4,2,1,60,0,0
8249,-100,4,2,1,5,0,0
8333,-100,4,2,1,60,0,0
8749,-100,4,2,1,5,0,0
8833,-100,4,2,1,60,0,0
9416,-100,4,2,1,5,0,0
9499,-100,4,2,1,60,0,0
9583,-100,4,2,1,5,0,0
9666,-100,4,2,1,60,0,0
11416,-100,4,2,1,5,0,0
11499,-100,4,2,1,60,0,0
12166,-100,4,2,99,50,0,0
12208,-100,4,2,1,5,0,0
12333,-100,4,2,99,50,0,0
12374,-100,4,2,1,5,0,0
12499,-100,4,2,99,50,0,0
12541,-100,4,2,1,5,0,0
12666,-100,4,2,99,50,0,0
12708,-100,4,2,1,5,0,0
12833,-100,4,2,99,50,0,0
13333,-111.111111111111,4,2,1,50,0,0
22083,-111.111111111111,4,2,1,5,0,0
22166,-111.111111111111,4,2,1,50,0,0
22749,-111.111111111111,4,2,1,5,0,0
22833,-111.111111111111,4,2,1,50,0,0
23249,-111.111111111111,4,2,1,5,0,0
23499,-111.111111111111,4,2,1,50,0,0
23999,-100,4,2,1,60,0,0
24249,-100,4,2,1,5,0,0
24333,-100,4,2,1,60,0,0
26083,-100,4,2,1,5,0,0
26166,-100,4,2,1,60,0,0
32499,-125,4,2,1,60,0,0
33166,-100,4,2,1,60,0,0
34749,-100,4,2,1,5,0,0
34833,-100,4,2,1,60,0,0
34916,-100,4,2,1,5,0,0
34999,-100,4,2,1,60,0,0
35833,-76.9230769230769,4,2,1,60,0,0
36083,-76.9230769230769,4,2,1,5,0,0
36166,-100,4,2,1,60,0,0
36249,-100,4,2,1,5,0,0
36333,-100,4,2,1,60,0,0
37166,-76.9230769230769,4,2,1,60,0,0
37416,-76.9230769230769,4,2,1,5,0,0
37499,-100,4,2,1,60,0,0
37583,-100,4,2,1,5,0,0
37666,-100,4,2,1,60,0,0
38499,-125,4,2,1,60,0,0
38749,-125,4,2,1,5,0,0
38833,-125,4,2,1,60,0,0
39166,-100,4,2,1,60,0,0
40249,-100,4,2,1,5,0,0
40333,-100,4,2,1,60,0,0
40833,-66.6666666666667,4,2,1,60,0,0
41166,-100,4,2,1,60,0,0
41416,-100,4,2,1,5,0,0
41499,-100,4,2,1,60,0,0
42166,-66.6666666666667,4,2,1,60,0,0
42249,-100,4,2,1,5,0,0
42333,-100,4,2,1,60,0,0
45333,-66.6666666666667,4,2,1,65,0,0
45583,-66.6666666666667,4,2,1,5,0,0
45666,-66.6666666666667,4,2,1,65,0,0
46499,-166.666666666667,4,2,1,60,0,0
47333,-66.6666666666667,4,2,1,60,0,0
47583,-66.6666666666667,4,2,1,5,0,0
47666,-66.6666666666667,4,2,1,65,0,0
47999,-50,4,2,1,65,0,0
48083,-50,4,2,1,5,0,0
48333,-76.9230769230769,4,2,1,70,0,1
48583,-76.9230769230769,4,2,1,5,0,1
48666,-90.9090909090909,4,2,1,70,0,1
49416,-90.9090909090909,4,2,1,5,0,1
49499,-90.9090909090909,4,2,1,70,0,1
49749,-90.9090909090909,4,2,1,5,0,1
49833,-90.9090909090909,4,2,1,70,0,1
50083,-90.9090909090909,4,2,1,5,0,1
50166,-90.9090909090909,4,2,1,70,0,1
50749,-90.9090909090909,4,2,1,5,0,1
50833,-90.9090909090909,4,2,1,70,0,1
52083,-90.9090909090909,4,2,1,5,0,1
52166,-90.9090909090909,4,2,1,70,0,1
52749,-90.9090909090909,4,2,1,5,0,1
52833,-90.9090909090909,4,2,1,70,0,1
53333,-55.5555555555556,4,2,1,70,0,1
53416,-55.5555555555556,4,2,1,5,0,1
53666,-76.9230769230769,4,2,1,70,0,1
53916,-76.9230769230769,4,2,1,5,0,1
53999,-90.9090909090909,4,2,1,70,0,1
54416,-90.9090909090909,4,2,1,5,0,1
54499,-90.9090909090909,4,2,1,70,0,1
54749,-90.9090909090909,4,2,1,5,0,1
54833,-90.9090909090909,4,2,1,70,0,1
55083,-90.9090909090909,4,2,1,5,0,1
55166,-90.9090909090909,4,2,1,70,0,1
55416,-90.9090909090909,4,2,1,5,0,1
55499,-90.9090909090909,4,2,1,70,0,1
56083,-90.9090909090909,4,2,1,5,0,1
56166,-90.9090909090909,4,2,1,70,0,1
56416,-90.9090909090909,4,2,1,5,0,1
56499,-90.9090909090909,4,2,1,70,0,1
56749,-90.9090909090909,4,2,1,5,0,1
56833,-90.9090909090909,4,2,1,70,0,1
57916,-90.9090909090909,4,2,1,5,0,1
57999,-90.9090909090909,4,2,1,70,0,1
58583,-90.9090909090909,4,2,1,70,0,0
58666,-90.9090909090909,4,2,1,70,0,1
60083,-90.9090909090909,4,2,1,5,0,1
60166,-90.9090909090909,4,2,1,70,0,1
60416,-90.9090909090909,4,2,1,5,0,1
60499,-90.9090909090909,4,2,1,70,0,1
61416,-90.9090909090909,4,2,1,5,0,1
61499,-90.9090909090909,4,2,1,70,0,1
61749,-90.9090909090909,4,2,1,5,0,1
61833,-90.9090909090909,4,2,1,70,0,1
62083,-90.9090909090909,4,2,1,5,0,1
62166,-90.9090909090909,4,2,1,70,0,1
62416,-90.9090909090909,4,2,1,5,0,1
62499,-90.9090909090909,4,2,1,70,0,1
62749,-90.9090909090909,4,2,1,5,0,1
62833,-90.9090909090909,4,2,1,70,0,1
63749,-90.9090909090909,4,2,1,5,0,1
63833,-90.9090909090909,4,2,1,70,0,1
64416,-90.9090909090909,4,2,1,5,0,1
64666,-90.9090909090909,4,2,1,70,0,1
64749,-90.9090909090909,4,2,1,5,0,1
64999,-90.9090909090909,4,2,1,70,0,1
65083,-90.9090909090909,4,2,1,5,0,1
65166,-111.111111111111,4,2,1,70,0,1
65416,-111.111111111111,4,2,1,5,0,1
65499,-90.9090909090909,4,2,1,70,0,1
65749,-90.9090909090909,4,2,1,5,0,1
65833,-76.9230769230769,4,2,1,70,0,1
66083,-76.9230769230769,4,2,1,5,0,1
66166,-90.9090909090909,4,2,1,70,0,1
66249,-90.9090909090909,4,2,1,5,0,1
66333,-90.9090909090909,4,2,1,70,0,1
66416,-90.9090909090909,4,2,1,5,0,1
66499,-90.9090909090909,4,2,1,70,0,1
67999,-90.9090909090909,4,2,1,70,0,0
68833,-90.9090909090909,4,2,1,60,0,0
68916,-90.9090909090909,4,2,1,5,0,0
68999,-90.9090909090909,4,2,1,60,0,0
69083,-90.9090909090909,4,2,1,5,0,0
69333,-100,4,2,1,60,0,0
71583,-100,4,2,1,5,0,0
71666,-100,4,2,1,60,0,0
71749,-100,4,2,1,5,0,0
71833,-90.9090909090909,4,2,1,70,0,1
72083,-90.9090909090909,4,2,1,5,0,1
72166,-90.9090909090909,4,2,1,70,0,1
72416,-90.9090909090909,4,2,1,5,0,1
72499,-90.9090909090909,4,2,1,70,0,1
72749,-90.9090909090909,4,2,1,5,0,1
72833,-90.9090909090909,4,2,1,70,0,1
73083,-90.9090909090909,4,2,1,5,0,1
73166,-90.9090909090909,4,2,1,70,0,1
73999,-66.6666666666667,4,2,1,70,0,1
74249,-66.6666666666667,4,2,1,5,0,1
74333,-117.647058823529,4,2,1,70,0,1
74583,-117.647058823529,4,2,1,5,0,1
74666,-100,4,2,1,60,0,0
74916,-100,4,2,1,5,0,0
74999,-100,4,2,1,60,0,0
75416,-100,4,2,1,5,0,0
75499,-100,4,2,1,60,0,0
76083,-100,4,2,1,5,0,0
76166,-100,4,2,1,60,0,0
76249,-100,4,2,1,5,0,0
76333,-100,4,2,1,60,0,0
80749,-100,4,2,1,5,0,0
80833,-100,4,2,1,60,0,0
80916,-100,4,2,1,5,0,0
80999,-100,4,2,1,60,0,0
81083,-100,4,2,1,5,0,0
81166,-125,4,2,1,60,0,0
81416,-125,4,2,1,5,0,0
81499,-100,4,2,1,60,0,0
81749,-100,4,2,1,5,0,0
81833,-83.3333333333333,4,2,1,60,0,0
82083,-83.3333333333333,4,2,1,5,0,0
82166,-100,4,2,1,60,0,0
85166,-86.9565217391304,4,2,1,60,0,0
86499,-76.9230769230769,4,2,1,60,0,0
87833,-142.857142857143,4,2,1,60,0,0
87916,-142.857142857143,4,2,1,5,0,0

[Colours]
Combo1 : 164,255,255
Combo2 : 255,0,0
Combo3 : 0,118,236
Combo4 : 255,128,255

[HitObjects]
370,69,666,5,0,0:0:0:0:
379,70,749,1,0,0:0:0:0:
389,71,832,1,0,0:0:0:0:
399,73,916,1,0,0:0:0:0:
409,74,999,1,0,0:0:0:0:
419,75,1082,1,0,0:0:0:0:
429,77,1166,1,0,0:0:0:0:
438,78,1249,1,0,0:0:0:0:
505,46,1333,6,0,P|397:56|246:70,1,244.399988812256,4|0,0:0|0:0,0:0:0:0:
67,177,1999,5,0,0:0:0:0:
36,174,2083,1,0,0:0:0:0:
15,154,2166,1,0,0:0:0:0:
8,127,2249,1,0,0:0:0:0:
14,99,2333,1,0,0:0:0:0:
32,77,2416,1,0,0:0:0:0:
101,51,2499,6,0,L|110:263,1,206.800006311035,4|2,0:0|0:0,0:0:0:0:
300,212,2999,1,8,0:0:0:0:
107,276,3166,6,0,P|165:227|237:266,1,155.100004733277,4|0,0:0|0:0,0:0:0:0:
299,330,3499,1,8,0:0:0:0:
301,314,3583,1,8,0:0:0:0:
304,298,3666,1,2,0:0:0:0:
219,114,3833,6,0,P|226:195|232:286,1,141,4|0,0:0|0:0,0:0:0:0:
324,167,4166,2,0,P|319:192|316:213,1,47,8|0,0:0|0:0,0:0:0:0:
316,237,4333,1,2,0:0:0:0:
206,108,4499,6,0,P|213:189|219:282,1,155.100004733277,4|0,0:0|0:0,0:0:0:0:
338,161,4833,2,0,P|333:186|329:214,1,51.7000015777588,8|0,0:0|0:0,0:0:0:0:
328,247,5000,1,2,0:0:0:0:
192,101,5166,6,0,P|199:182|205:280,1,169.199994836426,4|0,0:0|0:0,0:0:0:0:
354,155,5499,1,8,0:0:0:0:
343,206,5583,1,8,0:0:0:0:
339,258,5666,1,2,0:0:0:0:
176,93,5833,6,0,P|183:177|193:301,1,191.76000117041,4|0,0:0|0:0,0:0:0:0:
198,290,6666,1,0,0:0:0:0:
205,296,6999,5,0,0:0:0:0:
114,236,7166,1,0,0:0:0:0:
25,298,7333,5,8,0:0:0:0:
1,260,7416,1,8,0:0:0:0:
1,215,7499,1,8,0:0:0:0:
25,176,7583,1,8,0:0:0:0:
66,160,7666,1,8,0:0:0:0:
96,127,7749,1,8,0:0:0:0:
103,82,7833,1,8,0:0:0:0:
91,38,7916,1,8,0:0:0:0:
49,19,7999,6,0,P|15:89|52:145,1,141,4|0,0:0|0:0,0:0:0:0:
123,207,8333,2,0,P|172:199|228:196,1,94,8|0,0:0|0:0,0:0:0:0:
370,104,8666,2,0,P|336:98|324:95,1,47,2|0,0:0|0:0,0:0:0:0:
256,40,8833,1,2,0:0:0:0:
327,251,8999,1,8,0:0:0:0:
457,22,9166,6,0,B|493:55|493:55|477:173,1,141,4|0,0:0|0:0,0:0:0:0:
411,203,9499,2,0,L|362:194,1,47,2|0,0:0|0:0,0:0:0:0:
290,148,9666,1,8,0:0:0:0:
441,290,9833,2,0,P|349:300|254:312,1,188,0|2,0:0|0:0,0:0:0:0:
77,231,10333,1,8,0:0:0:0:
266,331,10499,6,0,P|172:319|79:309,1,188,4|2,0:0|0:0,0:0:0:0:
222,145,10999,2,0,P|226:193|233:247,1,94,8|0,0:0|0:0,0:0:0:0:
91,98,11333,2,0,L|86:127|79:159,1,47,2|0,0:0|0:0,0:0:0:0:
49,226,11499,1,2,0:0:0:0:
4,32,11666,1,2,0:0:0:0:
39,320,11833,1,8,0:0:0:0:
39,320,12166,6,0,L|79:328,1,23.5,2|0,0:0|0:0,0:0:0:0:
124,258,12333,2,0,L|147:253,1,23.5,2|0,0:0|0:0,0:0:0:0:
200,328,12499,2,0,L|240:336,1,23.5,2|0,0:0|0:0,0:0:0:0:
285,266,12666,2,0,L|308:261,1,23.5,2|0,0:0|0:0,0:0:0:0:
361,336,12833,1,2,0:0:0:0:
384,340,12916,1,2,0:0:0:0:
407,344,12999,1,2,0:0:0:0:
407,40,13333,6,0,L|396:153,1,84.599997418213,4|0,0:0|0:0,0:0:0:0:
229,178,13666,1,8,0:0:0:0:
375,226,13833,1,0,0:0:0:0:
294,85,13999,1,0,0:0:0:0:
375,226,14166,2,0,L|287:234,1,84.599997418213,2|0,0:0|0:0,0:0:0:0:
61,157,14499,6,0,L|229:178,1,169.199994836426,8|2,0:0|0:0,0:0:0:0:
62,235,14999,1,8,0:0:0:0:
141,84,15166,2,0,P|147:129|153:178,1,84.599997418213
204,253,15499,1,2,0:0:0:0:
61,157,15666,1,8,0:0:0:0:
204,253,15833,1,0,0:0:0:0:
24,322,15999,5,2,0:0:0:0:
24,322,16166,1,0,0:0:0:0:
149,196,16333,1,8,0:0:0:0:
42,55,16499,2,0,P|88:66|134:76,1,84.599997418213
283,110,16833,2,0,P|237:121|191:131,1,84.599997418213,2|0,0:0|0:0,0:0:0:0:
398,55,17166,6,0,P|352:45|227:17,1,169.199994836426,8|2,0:0|0:0,0:0:0:0:
376,139,17666,1,8,0:0:0:0:
328,19,17833,1,0,0:0:0:0:
361,166,17999,1,0,0:0:0:0:
328,19,18166,1,2,0:0:0:0:
361,166,18333,1,8,0:0:0:0:
484,61,18499,1,0,0:0:0:0:
293,120,18666,6,0,P|277:166|290:204,1,84.599997418213,4|0,0:0|0:0,0:0:0:0:
458,248,18999,1,8,0:0:0:0:
306,284,19166,1,0,0:0:0:0:
407,165,19333,1,0,0:0:0:0:
372,339,19499,1,2,0:0:0:0:
407,165,19666,1,0,0:0:0:0:
372,339,19833,6,0,P|419:333|470:326,1,84.599997418213,8|0,0:0|0:0,0:0:0:0:
266,236,20166,2,0,P|307:241|349:247,1,84.599997418213,2|8,0:0|0:0,0:0:0:0:
165,312,20499,1,0,0:0:0:0:
165,312,20583,1,0,0:0:0:0:
165,312,20666,1,0,0:0:0:0:
209,142,20833,1,2,0:0:0:0:
49,237,20999,2,0,P|44:195|38:144,1,84.599997418213,8|0,0:0|0:0,0:0:0:0:
165,312,21333,5,4,0:0:0:0:
209,142,21499,1,2,0:0:0:0:
165,312,21666,1,8,0:0:0:0:
349,247,21833,2,0,L|207:226,1,126.899996127319,4|0,0:0|0:0,0:0:0:0:
190,237,22166,1,2,0:0:0:0:
343,165,22333,1,8,0:0:0:0:
185,67,22499,6,0,L|310:48,1,126.899996127319,4|0,0:0|0:0,0:0:0:0:
339,30,22833,1,2,0:0:0:0:
209,142,22999,1,8,0:0:0:0:
79,21,23166,2,0,B|70:15|61:17|57:25|60:34|67:37|75:32,1,42.2999987091065,2|0,0:3|0:0,0:0:0:0:
110,259,23500,5,0,0:0:0:0:
101,244,23583,1,0,0:0:0:0:
101,258,23666,1,0,0:0:0:0:
110,244,23749,1,0,0:0:0:0:
97,251,23833,1,0,0:0:0:0:
112,251,23916,1,0,0:0:0:0:
104,252,23999,6,0,L|117:109,1,141,4|0,0:0|0:0,0:0:0:0:
102,77,24333,1,8,0:0:0:0:
198,257,24499,1,0,0:0:0:0:
14,181,24666,1,0,0:0:0:0:
215,115,24833,1,2,0:0:0:0:
215,115,24999,1,0,0:0:0:0:
308,332,25166,6,0,P|358:282|315:180,1,188,8|2,0:0|0:0,0:0:0:0:
512,233,25666,1,8,0:0:0:0:
311,175,25833,2,0,P|366:167|461:153,1,141
481,132,26166,1,2,0:0:0:0:
316,256,26333,1,8,0:0:0:0:
393,61,26499,1,0,0:0:0:0:
450,254,26666,5,2,0:0:0:0:
389,165,26833,1,0,0:0:0:0:
428,366,26999,1,8,0:0:0:0:
232,281,27166,2,0,P|282:273|336:264,1,94
113,349,27499,2,0,P|163:357|217:366,1,94,2|0,0:0|0:0,0:0:0:0:
0,252,27833,6,0,B|22:208|22:208|9:293|41:348,1,188,8|2,0:0|0:0,0:0:0:0:
98,153,28333,1,8,0:0:0:0:
43,352,28499,1,0,0:0:0:0:
0,147,28666,1,0,0:0:0:0:
118,330,28833,1,2,0:0:0:0:
188,115,28999,1,8,0:0:0:0:
0,252,29166,1,0,0:0:0:0:
245,188,29333,6,0,P|236:240|228:291,1,94,4|0,0:0|0:0,0:0:0:0:
185,70,29666,1,8,0:0:0:0:
328,203,29833,1,0,0:0:0:0:
116,244,29999,1,0,0:0:0:0:
116,244,30166,1,2,0:0:0:0:
273,78,30333,1,0,0:0:0:0:
232,328,30499,6,0,P|225:281|218:231,1,94,8|0,0:0|0:0,0:0:0:0:
398,343,30833,1,2,0:0:0:0:
438,131,30999,1,8,0:0:0:0:
310,305,31166,1,0,0:0:0:0:
310,305,31249,1,0,0:0:0:0:
310,305,31333,1,0,0:0:0:0:
512,230,31499,1,2,0:0:0:0:
288,164,31666,1,8,0:0:0:0:
486,17,31833,1,2,0:0:0:0:
482,55,31916,1,2,0:0:0:0:
478,93,31999,5,4,0:0:0:0:
382,267,32166,1,2,0:0:0:0:
295,76,32333,1,8,0:0:0:0:
481,191,32499,2,0,L|303:178,1,150.4,4|2,0:0|0:0,0:0:0:0:
123,118,32999,1,8,0:0:0:0:
344,167,33166,6,0,L|151:191,1,188,4|2,0:0|0:0,0:0:0:0:
0,54,33666,1,8,0:0:0:0:
59,281,33833,5,8,0:0:0:0:
63,239,33916,1,8,0:0:0:0:
68,197,33999,1,8,0:0:0:0:
73,154,34083,1,8,0:0:0:0:
78,112,34166,1,8,0:0:0:0:
135,338,34333,5,4,0:3:0:0:
73,154,34499,1,2,0:0:0:0:
307,277,34666,6,0,L|246:286,1,47,8|0,0:0|0:0,0:0:0:0:
63,239,34833,2,0,L|124:248,1,47,8|0,0:0|0:0,0:0:0:0:
244,277,34999,1,0,0:0:0:0:
123,260,35166,1,0,0:0:0:0:
409,133,35833,6,0,P|436:92|392:133,1,183.299991609192,8|0,0:0|0:0,0:0:0:0:
480,198,36166,2,0,L|427:206,1,47,8|0,0:0|0:0,0:0:0:0:
245,142,36333,1,0,0:0:0:0:
419,214,36499,1,0,0:0:0:0:
103,133,37166,6,0,P|76:92|120:133,1,183.299991609192,8|0,0:0|0:0,0:0:0:0:
32,198,37499,2,0,L|85:206,1,47,8|0,0:0|0:0,0:0:0:0:
267,142,37666,1,0,0:0:0:0:
93,214,37833,1,0,0:0:0:0:
221,29,37999,5,8,0:0:0:0:
176,227,38166,1,4,0:3:0:0:
176,227,38333,1,4,0:3:0:0:
221,29,38499,6,0,P|229:96|239:173,1,112.8,4|0,0:0|0:0,0:0:0:0:
257,219,38833,1,8,0:0:0:0:
257,219,38999,1,8,0:0:0:0:
24,256,39166,6,0,B|70:251|93:214|93:214|133:282|220:249,1,188,4|2,0:0|0:0,0:0:0:0:
362,126,39666,1,8,0:0:0:0:
290,255,39833,1,0,0:0:0:0:
238,31,39999,6,0,P|178:3|109:54,1,141,4|0,0:0|0:0,0:0:0:0:
64,129,40333,2,0,P|111:121|172:113,1,94,8|2,0:0|0:0,0:0:0:0:
0,60,40666,1,2,0:0:0:0:
118,216,40833,6,0,P|130:263|93:221,1,141.000005378723,0|8,0:0|0:0,0:0:0:0:
258,112,41166,6,0,B|241:148|241:148|279:200|261:259,1,141,2|0,0:0|0:0,0:0:0:0:
224,323,41499,1,2,0:0:0:0:
330,146,41666,1,8,0:0:0:0:
441,323,41833,1,2,0:0:0:0:
253,248,41999,1,2,0:0:0:0:
469,166,42166,6,0,B|486:199|486:199|465:242,1,70.5000026893617,8|0,0:0|0:0,0:0:0:0:
359,262,42333,1,8,0:0:0:0:
398,49,42499,1,0,0:0:0:0:
478,249,42666,5,4,0:0:0:0:
303,183,42833,1,2,0:0:0:0:
478,147,42999,5,8,0:0:0:0:
257,209,43166,1,2,0:0:0:0:
478,249,43333,5,8,0:0:0:0:
211,183,43499,1,2,0:0:0:0:
478,147,43666,5,8,0:0:0:0:
165,209,43833,1,2,0:0:0:0:
478,249,43999,5,8,0:0:0:0:
119,183,44166,1,2,0:0:0:0:
443,44,44333,5,8,0:0:0:0:
386,348,44499,1,2,0:0:0:0:
323,30,44666,5,8,0:0:0:0:
302,327,44833,1,2,0:0:0:0:
189,30,44999,5,8,0:0:0:0:
210,327,45166,1,2,0:0:0:0:
69,44,45333,6,0,B|124:131|15:175|108:285,1,211.500008068085,4|0,0:0|0:0,0:0:0:0:
126,348,45666,5,8,0:0:0:0:
256,80,45833,1,2,0:0:0:0:
386,348,45999,5,8,0:0:0:0:
417,309,46083,1,8,0:0:0:0:
420,259,46166,1,8,0:0:0:0:
390,219,46249,1,8,0:0:0:0:
358,180,46333,1,8,0:0:0:0:
357,130,46416,1,8,0:0:0:0:
391,94,46499,6,0,P|363:90|326:81,1,56.3999982788086,8|0,0:0|0:0,0:0:0:0:
85,204,46833,2,0,P|112:195|150:191,1,56.3999982788086,8|0,0:0|0:0,0:0:0:0:
340,284,47166,1,8,0:0:0:0:
230,39,47333,6,0,B|169:126|294:171|203:269,1,211.500008068085,8|0,0:0|0:0,0:0:0:0:
168,282,47666,5,0,0:0:0:0:
111,242,47749,1,0,0:0:0:0:
132,176,47833,1,0,0:0:0:0:
202,175,47916,1,0,0:0:0:0:
224,240,47999,6,0,L|212:360,1,94,8|0,0:0|0:0,0:0:0:0:
211,346,48333,6,0,L|194:134,1,183.299991609192,12|0,0:0|0:0,0:0:0:0:
187,70,48666,1,8,0:0:0:0:
189,90,48749,1,2,0:0:0:0:
191,110,48833,1,2,0:0:0:0:
305,285,48999,1,2,0:0:0:0:
458,77,49166,6,0,P|451:156|446:243,1,155.100004733277,4|0,0:0|0:0,0:0:0:0:
491,313,49499,1,2,0:0:0:0:
301,198,49666,2,0,L|367:187,1,51.7000015777588,8|0,0:0|0:0,0:0:0:0:
211,346,49833,2,0,P|133:337|45:328,1,155.100004733277,4|0,0:0|0:0,0:0:0:0:
3,253,50166,1,2,0:0:0:0:
211,346,50333,1,8,0:0:0:0:
47,149,50499,6,0,P|105:100|182:143,1,155.100004733277,4|0,0:0|0:0,0:0:0:0:
121,214,50833,1,8,0:0:0:0:
119,193,50916,1,8,0:0:0:0:
117,172,50999,1,2,0:0:0:0:
363,86,51166,6,0,P|357:138|350:200,1,103.400003155518,4|2,0:0|0:0,0:0:0:0:
125,256,51499,1,2,0:0:0:0:
123,235,51583,1,2,0:0:0:0:
121,214,51666,1,2,0:0:0:0:
356,37,51833,6,0,P|348:108|338:206,1,155.100004733277,12|0,0:0|0:0,0:0:0:0:
329,283,52166,1,8,0:0:0:0:
268,67,52333,1,8,0:0:0:0:
492,215,52499,2,0,P|433:205|334:190,1,155.100004733277,4|0,0:0|0:0,0:0:0:0:
252,225,52833,1,2,0:0:0:0:
232,227,52916,1,2,0:0:0:0:
212,229,52999,5,8,0:0:0:0:
161,201,53083,1,8,0:0:0:0:
143,147,53166,1,8,0:0:0:0:
158,92,53249,1,8,0:0:0:0:
206,62,53333,6,0,L|302:78,1,84.599997418213,8|0,0:0|0:0,0:0:0:0:
299,85,53666,6,0,L|96:96,1,183.299991609192,12|0,0:0|0:0,0:0:0:0:
35,45,53999,1,8,0:0:0:0:
207,167,54166,1,2,0:0:0:0:
35,317,54333,2,0,L|88:304,1,51.7000015777588,8|0,0:0|0:0,0:0:0:0:
269,255,54499,6,0,L|93:224,1,155.100004733277,4|0,0:0|0:0,0:0:0:0:
35,179,54833,1,2,0:0:0:0:
276,122,54999,2,0,L|268:188,1,51.7000015777588,8|0,0:0|0:0,0:0:0:0:
95,60,55166,2,0,P|103:137|110:214,1,155.100004733277,4|0,0:0|0:0,0:0:0:0:
85,304,55499,1,8,0:0:0:0:
198,104,55666,1,8,0:0:0:0:
294,339,55833,6,0,P|371:362|431:299,1,155.100004733277,4|0,0:0|0:0,0:0:0:0:
424,318,56166,1,2,0:0:0:0:
222,236,56333,2,0,L|217:293,1,51.7000015777588,8|0,0:0|0:0,0:0:0:0:
336,130,56499,6,0,P|344:207|353:284,1,155.100004733277,4|0,0:0|0:0,0:0:0:0:
442,237,56833,1,8,0:0:0:0:
444,211,56916,1,8,0:0:0:0:
446,185,56999,1,8,0:0:0:0:
249,101,57166,6,0,P|300:48|421:93,1,206.800006311035,4|2,0:0|0:0,0:0:0:0:
199,183,57666,2,0,P|142:176|35:161,1,155.100004733277,8|0,0:0|0:0,0:0:0:0:
0,82,57999,5,8,0:0:0:0:
22,40,58083,1,8,0:0:0:0:
65,25,58166,1,8,0:0:0:0:
109,36,58249,1,8,0:0:0:0:
140,71,58333,1,8,0:0:0:0:
138,117,58416,1,8,0:0:0:0:
111,155,58499,1,8,0:0:0:0:
110,201,58583,1,8,0:0:0:0:
129,243,58666,6,0,B|168:286|168:286|349:254,1,206.800006311035,4|8,0:0|0:0,0:0:0:0:
488,114,59166,2,0,P|479:174|471:228,1,103.400003155518,0|2,0:0|0:0,0:0:0:0:
384,65,59499,1,2,0:0:0:0:
438,297,59666,1,8,0:0:0:0:
198,199,59833,6,0,L|354:176,1,155.100004733277,4|0,0:0|0:0,0:0:0:0:
411,105,60166,1,2,0:0:0:0:
282,278,60333,2,0,P|274:252|273:221,1,51.7000015777588,8|0,0:0|0:0,0:0:0:0:
299,49,60499,2,0,P|308:106|266:160,1,103.400003155518,4|0,0:0|0:0,0:0:0:0:
201,181,60749,1,0,0:0:0:0:
180,182,60833,1,2,0:0:0:0:
391,243,60999,1,8,0:0:0:0:
152,302,61166,6,0,P|108:262|164:281,1,155.100004733277,4|0,0:0|0:0,0:0:0:0:
229,315,61499,1,2,0:0:0:0:
35,360,61666,2,0,P|27:337|34:293,1,51.7000015777588,8|0,0:0|0:0,0:0:0:0:
98,126,61833,6,0,P|118:209|46:243,1,155.100004733277,4|0,0:0|0:0,0:0:0:0:
0,189,62166,1,2,0:0:0:0:
206,127,62333,2,0,P|213:161|210:195,1,51.7000015777588,8|0,0:0|0:0,0:0:0:0:
125,322,62499,6,0,P|186:311|296:298,1,155.100004733277,4|0,0:0|0:0,0:0:0:0:
372,291,62833,1,2,0:0:0:0:
118,238,62999,5,8,0:0:0:0:
335,365,63166,1,2,0:0:0:0:
104,327,63333,5,8,0:0:0:0:
372,291,63499,1,2,0:0:0:0:
104,327,63666,6,0,L|163:339,1,51.7000015777588,8|0,0:0|0:0,0:0:0:0:
365,203,63833,2,0,P|308:229|330:363,1,206.800006311035,4|2,0:0|0:0,0:0:0:0:
215,148,64333,6,0,P|226:177|232:216,1,51.7000015777588,8|0,0:0|0:0,0:0:0:0:
333,93,64666,6,0,P|312:116|293:151,1,51.7000015777588,8|0,0:0|0:0,0:0:0:0:
198,39,64999,6,0,P|225:54|254:80,1,51.7000015777588,8|0,0:0|0:0,0:0:0:0:
404,74,65166,6,0,P|343:86|301:132,1,126.899996127319,4|0,0:0|0:0,0:0:0:0:
124,120,65499,6,0,P|198:129|230:196,1,155.100004733277,4|0,0:0|0:0,0:0:0:0:
365,203,65833,6,0,P|292:249|308:348,1,183.299991609192,4|0,0:0|0:0,0:0:0:0:
155,257,66166,6,0,P|183:264|202:276,1,51.7000015777588,8|0,0:0|0:0,0:0:0:0:
409,270,66333,2,0,P|374:279|345:300,1,51.7000015777588,8|0,0:0|0:0,0:0:0:0:
134,168,66499,6,0,B|188:170|233:198|233:198|268:147|332:128,1,206.800006311035,4|2,0:0|0:0,0:0:0:0:
460,192,66999,1,8,0:0:0:0:
460,192,67166,1,2,0:0:0:0:
366,50,67333,6,0,P|367:76|376:101,1,51.7000015777588,2|0,0:0|0:0,0:0:0:0:
309,304,67499,2,0,P|319:280|335:260,1,51.7000015777588,2|0,0:0|0:0,0:0:0:0:
216,107,67666,2,0,P|233:125|255:139,1,51.7000015777588,2|0,0:0|0:0,0:0:0:0:
134,264,67833,2,0,P|156:252|182:247,1,51.7000015777588,2|0,0:0|0:0,0:0:0:0:
16,192,67999,5,8,0:0:0:0:
16,192,68833,6,0,L|70:188,1,51.7000015777588,8|0,0:0|0:0,0:0:0:0:
118,184,68999,2,0,L|67:188,1,51.7000015777588,8|0,0:0|0:0,0:0:0:0:
118,184,69333,6,0,L|310:171,1,188,4|4,0:0|0:3,0:0:0:0:
425,43,69833,1,2,0:0:0:0:
420,79,69916,1,2,0:0:0:0:
415,116,69999,1,2,0:0:0:0:
400,219,70166,1,2,0:0:0:0:
342,42,70333,1,4,0:3:0:0:
400,219,70499,6,0,P|334:161|240:206,1,188,2|2,0:0|0:0,0:0:0:0:
169,26,70999,2,0,P|176:82|180:138,1,94,4|0,0:3|0:0,0:0:0:0:
149,199,71249,1,2,0:0:0:0:
137,204,71333,1,2,0:0:0:0:
303,89,71499,2,0,L|294:155,1,47,8|0,0:0|0:0,0:0:0:0:
216,313,71666,2,0,L|206:245,1,47,8|0,0:0|0:0,0:0:0:0:
74,151,71833,6,0,P|146:164|245:183,1,155.100004733277,4|0,0:0|0:0,0:0:0:0:
226,179,72166,1,2,0:0:0:0:
21,208,72333,2,0,L|28:272,1,51.7000015777588,8|0,0:0|0:0,0:0:0:0:
156,93,72499,6,0,P|148:153|133:255,1,155.100004733277,4|0,0:0|0:0,0:0:0:0:
120,330,72833,1,2,0:0:0:0:
24,137,72999,2,0,P|54:145|76:151,1,51.7000015777588,8|0,0:0|0:0,0:0:0:0:
237,254,73166,6,0,P|294:222|248:102,1,206.800006311035,4|2,0:0|0:0,0:0:0:0:
344,328,73666,1,8,0:0:0:0:
226,179,73833,1,2,0:0:0:0:
466,268,73999,6,0,P|502:202|444:250,1,211.500008068085,8|0,0:0|0:0,0:0:0:0:
325,264,74333,6,0,L|444:250,1,119.850002285957
335,285,74666,6,0,P|274:249|200:277,1,141,4|0,0:0|0:0,0:0:0:0:
125,235,74999,2,0,P|133:284|143:344,1,94,8|0,0:0|0:0,0:0:0:0:
231,132,75333,2,0,L|225:179,1,47,2|0,0:0|0:0,0:0:0:0:
210,267,75499,1,2,0:0:0:0:
163,64,75666,1,8,0:0:0:0:
364,159,75833,6,0,B|225:178,1,141,4|0,0:0|0:0,0:0:0:0:
158,98,76166,2,0,L|206:106,1,47,2|0,0:0|0:0,0:0:0:0:
107,168,76333,1,8,0:0:0:0:
38,17,76499,2,0,P|27:112|16:204,1,188,2|2,0:0|0:0,0:0:0:0:
122,358,77000,1,8,0:0:0:0:
204,179,77166,6,0,P|288:149|357:220,1,188,4|2,0:0|0:0,0:0:0:0:
191,265,77666,1,8,0:0:0:0:
266,62,77833,2,0,P|274:154|282:249,1,188,2|2,0:0|0:0,0:0:0:0:
185,66,78333,1,8,0:0:0:0:
365,200,78499,6,0,P|420:188|409:70,1,188,4|2,0:0|0:0,0:0:0:0:
247,180,78999,1,8,0:0:0:0:
451,262,79166,1,0,0:0:0:0:
237,190,79333,1,8,0:0:0:0:
451,262,79499,1,2,0:0:0:0:
226,200,79666,1,8,0:0:0:0:
451,262,79833,6,0,B|409:243|409:243|372:266|372:266|326:221|261:256,1,188,4|2,0:0|0:0,0:0:0:0:
97,290,80333,2,0,P|138:310|202:286,1,94,8|0,0:0|0:0,0:0:0:0:
226,88,80666,6,0,L|218:135,1,47,2|0,0:0|0:0,0:0:0:0:
118,215,80833,2,0,L|172:195,1,47,2|0,0:0|0:0,0:0:0:0:
281,246,80999,2,0,L|236:208,1,47,8|0,0:0|0:0,0:0:0:0:
216,32,81166,6,0,P|196:84|218:135,1,112.8,4|0,0:0|0:0,0:0:0:0:
356,268,81499,6,0,P|313:215|245:215,1,141,4|0,0:0|0:0,0:0:0:0:
49,288,81833,6,0,P|115:281|160:183,1,169.199994836426,4|0,0:0|0:0,0:0:0:0:
217,32,82166,5,2,0:0:0:0:
320,191,82333,1,8,0:0:0:0:
470,35,82499,6,0,P|460:106|444:244,1,188,4|2,0:0|0:0,0:0:0:0:
300,89,82999,1,8,0:0:0:0:
356,268,83166,1,2,0:0:0:0:
433,100,83333,1,0,0:0:0:0:
267,216,83499,1,2,0:0:0:0:
433,100,83666,1,8,0:0:0:0:
214,158,83833,6,0,P|156:105|207:11,1,188,4|2,0:0|0:0,0:0:0:0:
194,15,84333,1,8,0:0:0:0:
298,158,84499,2,0,P|356:105|305:11,1,188,4|2,0:0|0:0,0:0:0:0:
317,15,84999,1,8,0:0:0:0:
466,199,85166,6,0,P|395:125|298:157,1,216.200004123688,4|2,0:0|0:0,0:0:0:0:
298,157,85666,1,8,0:0:0:0:
45,199,85833,2,0,P|116:125|213:157,1,216.200004123688,4|8,0:0|0:0,0:0:0:0:
213,157,86333,1,8,0:0:0:0:
137,341,86499,6,0,B|86:275|135:207|135:207|217:234|191:305,1,244.399988812256,4|2,0:0|0:0,0:0:0:0:
197,274,86999,1,8,0:0:0:0:
375,341,87166,2,0,B|426:275|377:207|377:207|295:234|321:305,1,244.399988812256,4|2,0:0|0:0,0:0:0:0:
314,274,87666,1,8,0:0:0:0:
134,125,87833,6,0,B|208:133|256:201|256:201|304:133|377:124,1,296.099990963745,4|0,0:0|0:0,0:0:0:0:
