osu file format v14

[General]
AudioFilename: gimme! revolution.mp3
AudioLeadIn: 1200
PreviewTime: 47328
Countdown: 0
SampleSet: Soft
StackLeniency: 0.7
Mode: 0
LetterboxInBreaks: 0
WidescreenStoryboard: 0

[Editor]
Bookmarks: 40831,42164,57994,60828,68828,75828,76494,77161,77828,78494,79161,79828,83828,87161
DistanceSpacing: 1.3
BeatDivisor: 4
GridSize: 4
TimelineZoom: 2.699999

[Metadata]
Title:Gimme! Revolution
TitleUnicode:ギミー!レボリューション
Artist:Uchida Maaya
ArtistUnicode:内田真礼
Creator:-Chata-
Version:Hard
Source:俺、ツインテールになります。
Tags:Ore Twintail ni Narimasu opening Laurier HabiHolic
BeatmapID:607721
BeatmapSetID:264087

[Difficulty]
HPDrainRate:5.5
CircleSize:3.8
OverallDifficulty:6
ApproachRate:7.8
SliderMultiplier:1.5
SliderTickRate:2

[Events]
//Background and Video events
0,0,"Kunka.png",0,0
Video,0,"revolution.flv"
//Break Periods
//Storyboard Layer 0 (Background)
//Storyboard Layer 1 (Fail)
//Storyboard Layer 2 (Pass)
//Storyboard Layer 3 (Foreground)
//Storyboard Sound Samples

[TimingPoints]
-5,333.333333333333,4,2,2,30,1,0
2494,-105.263157894737,4,2,2,40,0,0
5828,-133.333333333333,4,2,2,40,0,0
6328,-100,4,2,2,40,0,0
7994,-100,4,2,2,50,0,0
13328,-117.647058823529,4,2,2,35,0,0
23994,-105.263157894737,4,2,2,40,0,0
35328,-117.647058823529,4,2,2,45,0,0
39994,-105.263157894737,4,2,2,50,0,0
42661,-105.263157894737,4,2,2,50,0,0
44328,-105.263157894737,4,3,2,50,0,0
44411,-105.263157894737,4,2,2,50,0,0
48328,-100,4,2,2,50,0,1
48828,-100,4,2,2,45,0,1
49161,-100,4,2,2,50,0,1
53328,-117.647058823529,4,2,2,50,0,1
53828,-100,4,2,2,50,0,1
58578,-100,4,2,2,50,0,0
58661,-100,4,2,2,55,0,1
67994,-117.647058823529,4,2,2,40,0,0
71494,-100,4,2,2,45,0,0
73994,-100,4,2,2,40,0,0
74328,-90.9090909090909,4,2,2,60,0,0
74661,-100,4,2,2,45,0,1
74744,-100,4,2,2,45,0,0
88328,-100,4,2,2,15,0,0

[Colours]
Combo1 : 200,200,200
Combo2 : 255,70,70
Combo3 : 40,148,255
Combo4 : 255,255,66

[HitObjects]
400,154,661,6,0,L|364:148,3,37.5,2|0|0|0,0:0|0:0|0:0|0:0,0:0:0:0:
388,76,994,2,0,L|424:67,3,37.5
313,90,1328,6,0,P|285:130|328:216,1,150,4|0,1:0|0:0,0:0:0:0:
241,256,1828,1,2,0:0:0:0:
241,256,1994,2,0,B|209:248|209:248|166:254,1,75
48,132,2494,6,0,B|56:180|56:180|44:216|44:216|56:288,1,142.49999619484,4|0,1:2|1:0,0:0:0:0:
100,352,2994,1,0,1:0:0:0:
100,352,3161,2,0,P|148:376|228:348,1,142.49999619484,4|0,1:2|1:0,0:0:0:0:
240,256,3661,1,0,1:0:0:0:
312,316,3828,6,0,P|364:308|404:308,1,71.2499980974198,4|0,1:2|0:0,0:0:0:0:
476,300,4161,1,0,1:0:0:0:
388,220,4328,1,0,1:0:0:0:
480,157,4494,6,0,P|476:213|476:301,1,142.49999619484,4|0,1:2|1:0,0:0:0:0:
372,212,4994,1,0,1:0:0:0:
392,116,5161,6,0,P|340:76|260:112,1,142.49999619484,4|0,1:2|1:0,0:0:0:0:
168,64,5661,1,0,1:0:0:0:
168,64,5828,6,0,L|176:188,1,112.500004291535,4|0,1:2|0:0,0:0:0:0:
184,280,6328,1,2,0:0:0:0:
192,288,6661,1,2,0:0:0:0:
196,296,6994,6,0,P|244:292|292:292,1,75,2|2,0:0|0:0,0:0:0:0:
376,300,7328,2,0,L|380:248,3,37.5,0|0|0|0,1:0|1:0|1:0|1:0,0:0:0:0:
348,224,7661,2,0,L|352:172,3,37.5,0|0|0|0,1:0|1:0|1:0|1:0,1:0:0:0:
396,128,7994,6,0,B|368:96|368:96|350:93|324:104|324:104|296:88|296:88|248:104,1,150,4|0,1:2|1:0,0:0:0:0:
200,156,8494,1,0,0:0:0:0:
168,76,8661,2,0,L|160:-8,2,75,0|0|0,1:0|1:0|1:0,0:0:0:0:
101,225,9161,6,0,P|56:171|88:108,1,150,4|0,1:2|1:0,0:0:0:0:
208,164,9661,1,0,1:0:0:0:
208,164,9827,2,0,B|216:216|216:216|204:248|204:248|216:312,1,150,4|0,1:2|1:0,0:0:0:0:
215,310,10328,1,0,1:0:0:0:
292,252,10494,6,0,P|368:224|420:280,1,150,4|0,1:2|1:0,0:0:0:0:
452,172,10994,2,0,L|444:88,1,75,0|0,1:0|1:0,0:0:0:0:
376,28,11328,1,4,0:0:0:0:
348,120,11494,2,0,P|308:120|264:116,1,75,0|0,0:0|1:0,0:0:0:0:
176,112,11828,1,4,1:0:0:0:
240,304,12161,6,0,P|244:340|248:388,2,75,2|2|2,0:0|0:0|0:0,0:0:0:0:
204,212,12661,2,0,P|252:168|340:208,2,150,2|2|4,0:0|0:0|0:0,0:0:0:0:
76,108,13661,6,0,L|80:240,1,127.50000243187,0|2,1:0|0:0,0:0:0:0:
160,260,14161,2,0,L|156:323,1,63.7500012159348,0|0,0:0|1:0,0:0:0:0:
236,344,14494,2,0,P|312:348|344:300,1,127.50000243187,2|0,0:0|0:0,0:0:0:0:
356,200,14994,1,0,1:0:0:0:
272,132,15161,2,0,B|252:192|252:192|268:258,1,127.50000243187,2|0,0:0|0:0,0:0:0:0:
420,328,15661,6,0,P|420:288|412:244,1,63.7500012159348,0|2,1:0|0:0,0:0:0:0:
400,184,15994,2,0,P|436:184|464:180,1,63.7500012159348
412,100,16328,1,0,1:0:0:0:
412,100,16494,2,0,P|336:96|272:88,2,127.50000243187,2|0|2,0:0|0:0|0:0,0:0:0:0:
428,256,17494,1,0,0:0:0:0:
428,256,17661,1,0,1:0:0:0:
336,228,17828,6,0,P|341:262|343:291,1,63.7500012159348,2|0,0:0|0:0,0:0:0:0:
252,240,18161,2,0,P|254:202|260:168,1,63.7500012159348,0|0,0:0|1:0,0:0:0:0:
272,94,18494,1,2,0:0:0:0:
189,97,18661,2,0,P|129:105|93:29,1,127.50000243187,4|0,0:0|1:0,0:0:0:0:
14,119,19161,6,0,L|7:56,2,63.7500012159348,2|0|0,0:0|0:0|0:0,0:0:0:0:
64,185,19661,1,0,1:0:0:0:
31,261,19828,2,0,B|49:312|49:312|99:302|136:314,1,127.50000243187,2|0,0:0|0:0,0:0:0:0:
192,168,20328,1,0,1:0:0:0:
192,168,20494,2,0,P|226:216|196:285,1,127.50000243187,2|0,0:0|0:0,0:0:0:0:
299,304,20994,2,0,B|349:294|349:294|399:305,1,95.6250018239022,0|0,1:0|0:0,0:0:0:0:
408,307,21328,6,0,L|404:223,1,63.7500012159348,4|0,0:0|0:0,0:0:0:0:
402,153,21661,1,2,1:2:0:0:
311,82,21828,2,0,L|316:212,1,127.50000243187,4|0,0:0|0:0,0:0:0:0:
310,298,22328,1,2,1:2:0:0:
226,233,22494,6,0,B|220:195|220:195|230:149,1,63.7500012159348,4|0,0:0|0:0,0:0:0:0:
226,80,22827,2,0,P|194:82|162:83,1,63.7500012159348,0|2,0:0|1:2,0:0:0:0:
84,37,23161,1,4,0:0:0:0:
98,239,23494,6,0,L|82:276,5,31.8750006079674,2|2|2|2|2|2,0:0|0:0|0:0|0:0|0:0|0:0,0:0:0:0:
109,223,23994,6,0,P|184:239|190:310,1,142.49999619484,4|0,0:0|1:0,0:0:0:0:
280,180,24494,2,0,P|280:216|278:252,1,71.2499980974198,2|8,0:0|0:0,0:0:0:0:
275,345,24828,1,0,0:0:0:0:
356,300,24994,1,0,1:0:0:0:
439,341,25161,6,0,B|473:275|454:218|454:218|430:225,1,142.49999619484,2|0,0:0|0:0,0:0:0:0:
376,153,25661,1,0,1:0:0:0:
424,72,25828,2,0,P|355:52|303:93,1,142.49999619484,2|0,0:0|0:0,0:0:0:0:
215,58,26328,2,0,P|223:101|225:149,1,71.2499980974198,0|2,1:0|0:0,0:0:0:0:
216,220,26661,5,8,0:0:0:0:
138,169,26828,2,0,P|95:177|62:194,1,71.2499980974198,0|0,0:0|1:0,0:0:0:0:
38,275,27161,2,0,P|58:347|122:357,2,142.49999619484,2|0|2,0:0|1:0|0:0,0:0:0:0:
228,336,28161,2,0,B|264:322|264:322|296:322,1,71.2499980974198,0|0,0:0|1:0,0:0:0:0:
312,164,28494,6,0,L|317:235,1,71.2499980974198,2|8,0:0|0:0,0:0:0:0:
316,328,28828,1,0,0:0:0:0:
236,248,28994,2,0,P|199:244|156:244,1,71.2499980974198,0|2,1:0|0:0,0:0:0:0:
120,160,29328,2,0,P|96:88|152:44,1,142.49999619484,4|0,0:0|1:0,0:0:0:0:
228,72,29828,5,2,0:0:0:0:
228,72,29994,2,0,P|268:68|312:68,1,71.2499980974198,8|0,0:0|0:0,0:0:0:0:
382,110,30328,1,0,1:0:0:0:
459,60,30494,2,0,B|477:93|475:115|475:115|455:164|455:164|471:215,1,142.49999619484,2|0,0:0|0:0,0:0:0:0:
464,194,30994,1,0,1:0:0:0:
413,271,31161,2,0,P|347:233|281:267,1,142.49999619484,2|0,0:0|0:0,0:0:0:0:
232,328,31661,1,0,1:0:0:0:
188,248,31828,1,2,0:0:0:0:
188,249,31994,6,0,B|154:248|128:259|128:259|99:239|99:239|70:251|35:237,1,142.49999619484,12|2,0:0|0:0,0:0:0:0:
47,128,32494,2,0,P|95:81|162:129,1,142.49999619484,12|2,0:0|0:0,0:0:0:0:
235,29,32994,1,0,1:0:0:0:
235,29,33161,6,0,B|230:79|230:79|239:113|239:113|227:178,1,142.49999619484,12|0,0:0|0:0,0:0:0:0:
309,249,33661,2,0,L|398:243,1,71.2499980974198,0|4,1:0|1:0,0:0:0:0:
389,250,33911,1,0,1:0:0:0:
398,257,33994,2,0,P|402:216|400:163,1,71.2499980974198,0|2,1:0|0:0,0:0:0:0:
325,86,34328,2,0,P|322:118|321:160,1,71.2499980974198,8|0,0:0|0:0,0:0:0:0:
316,282,34661,5,4,1:0:0:0:
316,282,34828,1,0,1:0:0:0:
116,306,35161,1,0,0:0:0:0:
112,217,35328,2,0,L|239:209,1,127.50000243187,2|0,0:0|0:0,0:0:0:0:
239,209,35828,6,0,B|251:142|251:142|222:64,2,127.50000243187,4|0|2,1:0|0:0|0:0,0:0:0:0:
126,38,36828,2,0,P|125:74|132:120,1,63.7500012159348
143,202,37161,5,4,1:0:0:0:
143,202,37494,1,2,0:0:0:0:
143,202,37661,2,0,P|104:198|70:197,1,63.7500012159348,0|2,0:0|0:0,0:0:0:0:
57,296,37994,5,8,3:0:0:0:
57,296,38161,1,0,3:0:0:0:
57,296,38328,1,0,3:0:0:0:
57,296,38494,2,0,P|78:361|143:361,1,127.50000243187,4|2,1:0|0:0,0:0:0:0:
232,384,38994,1,2,0:0:0:0:
232,384,39161,6,0,L|241:256,1,127.50000243187,4|0,0:0|0:0,0:0:0:0:
350,177,39661,2,0,L|336:246,1,63.7500012159348,0|2,1:0|0:0,0:0:0:0:
318,339,39994,6,0,P|370:377|439:342,1,142.49999619484,4|0,0:0|1:0,0:0:0:0:
432,255,40494,1,0,0:0:0:0:
481,176,40661,2,0,P|489:140|501:98,2,71.2499980974198,0|2|0,0:0|0:0|1:0,0:0:0:0:
388,171,41161,6,0,P|342:126|265:165,1,142.49999619484,4|0,0:0|0:0,0:0:0:0:
231,230,41661,2,0,P|233:265|232:301,1,71.2499980974198,0|2,1:0|0:0,0:0:0:0:
167,147,41994,2,0,P|169:111|176:76,1,71.2499980974198,0|2,0:0|1:2,0:0:0:0:
293,29,42328,2,0,P|303:76|302:112,1,71.2499980974198,0|0,1:0|0:0,0:0:0:0:
321,211,42661,6,0,B|355:212|377:199|377:199|397:205,1,71.2499980974198,4|0,1:0|0:0,0:0:0:0:
447,275,42994,1,0,1:0:0:0:
499,198,43161,1,2,0:0:0:0:
458,114,43328,2,0,B|424:115|402:102|402:102|382:108,1,71.2499980974198,0|0,1:0|0:0,0:0:0:0:
296,113,43661,2,0,L|307:19,2,71.2499980974198,0|2|0,1:0|0:0|1:0,0:0:0:0:
204,98,44161,6,0,P|162:149|195:213,1,142.49999619484,0|2,0:0|0:0,0:0:0:0:
279,240,44661,1,0,1:0:0:0:
368,213,44828,2,0,L|369:133,2,71.2499980974198,0|0|2,0:0|1:0|0:0,0:0:0:0:
343,351,45328,6,0,B|296:364|262:336|262:336|242:348|242:348|192:361,1,142.49999619484,4|0,1:0|1:0,0:0:0:0:
131,306,45828,1,2,0:0:0:0:
131,306,45994,2,0,L|128:345,4,35.6249990487099,0|0|0|0|0,1:0|1:0|1:0|1:0|1:0,0:0:0:0:
75,231,46494,6,0,L|81:72,1,142.49999619484,2|0,0:0|0:0,0:0:0:0:
165,126,46994,2,0,P|204:124|236:120,1,71.2499980974198,2|0,0:0|0:0,0:0:0:0:
308,60,47328,6,0,P|350:116|323:194,2,142.49999619484,4|0|0,0:0|1:0|1:0,0:0:0:0:
232,240,48328,1,4,0:0:0:0:
419,294,48661,6,0,L|466:289,5,37.5,0|0|0|0|0|0,1:0|1:0|1:0|1:0|1:0|1:0,0:0:0:0:
431,247,49161,6,0,B|430:208|417:181|417:181|436:165|436:165|427:132|435:90,1,150,4|0,1:2|1:0,0:0:0:0:
349,56,49661,1,0,1:0:0:0:
264,105,49828,2,0,P|240:149|306:220,1,150,4|0,1:2|1:0,0:0:0:0:
355,142,50328,1,0,1:0:0:0:
332,306,50494,6,0,B|280:311|280:311|241:289|241:289|218:300|189:328,1,150,4|0,1:2|1:0,0:0:0:0:
124,254,50994,1,0,1:0:0:0:
124,254,51161,2,0,L|129:149,1,75,4|0,1:2|1:0,0:0:0:0:
167,89,51494,2,0,L|161:46,2,37.5,0|0|0,1:0|1:0|1:0,0:0:0:0:
68,90,51828,6,0,P|18:119|52:216,1,150,4|0,1:2|1:0,0:0:0:0:
47,297,52328,1,0,1:0:0:0:
175,326,52494,2,0,B|206:255|206:255|176:173,1,150,4|0,1:2|1:0,0:0:0:0:
167,89,52994,1,0,1:0:0:0:
167,89,53328,6,0,B|196:70|211:70|211:70|240:90|240:90|274:81|274:81|298:91,1,127.50000243187,0|4,1:0|1:0,0:0:0:0:
367,36,53828,2,0,P|374:88|371:123,1,75,0|0,1:0|1:0,0:0:0:0:
299,185,54161,1,0,1:0:0:0:
299,185,54328,1,0,1:0:0:0:
390,218,54494,6,0,P|421:290|370:337,1,150,4|0,1:2|1:0,0:0:0:0:
269,275,54994,1,0,1:0:0:0:
297,368,55161,2,0,B|259:382|259:382|226:362|226:362|194:373|194:373|154:365,1,150,4|0,1:2|1:0,0:0:0:0:
157,268,55661,1,0,1:0:0:0:
61,197,55828,6,0,L|64:356,1,150,4|0,1:2|1:0,0:0:0:0:
159,366,56328,1,0,1:0:0:0:
175,270,56494,2,0,P|207:225|305:268,1,150,4|0,1:2|1:0,0:0:0:0:
291,240,56994,1,0,1:0:0:0:
382,295,57161,6,0,B|389:235|389:235|372:190|372:190|377:149,1,150,4|0,1:2|1:0,0:0:0:0:
406,55,57661,2,0,P|356:50|323:44,1,75,0|0,1:0|1:0,0:0:0:0:
234,31,57994,2,0,L|241:84,3,37.5,4|4|4|4,3:0|3:0|3:0|3:0,0:0:0:0:
211,109,58328,2,0,L|204:162,3,37.5,0|0|0|0,1:0|3:0|3:0|3:0,0:0:0:0:
241,180,58661,6,0,L|248:261,1,75,4|0,1:2|0:0,0:0:0:0:
239,352,58994,1,0,1:0:0:0:
161,292,59161,2,0,B|126:288|126:288|87:297,2,75,0|8|0,0:0|0:0|0:0,0:0:0:0:
322,309,59661,1,0,1:0:0:0:
322,309,59828,6,0,P|362:246|320:190,1,150,4|0,1:2|0:0,0:0:0:0:
326,93,60328,2,0,P|372:88|418:86,1,75,0|4,1:0|1:2,0:0:0:0:
467,200,60661,2,0,P|421:195|375:193,1,75,8|0,0:0|0:0,0:0:0:0:
292,250,60994,1,0,1:0:0:0:
292,250,61161,6,0,B|260:238|239:220|239:220|220:248|220:248|192:232|139:231,1,150,4|0,1:2|1:0,0:0:0:0:
167,232,61661,1,0,1:0:0:0:
77,156,61828,2,0,L|81:284,1,112.5,4|0,1:2|1:0,0:0:0:0:
64,314,62161,2,0,L|60:218,1,75,0|0,1:0|1:0,0:0:0:0:
164,149,62494,6,0,P|183:108|290:120,1,150,4|0,1:2|1:0,0:0:0:0:
347,172,62994,1,0,1:0:0:0:
386,82,63161,2,0,P|380:42|377:3,1,75,4|0,1:2|1:0,0:0:0:0:
464,141,63494,2,0,P|458:181|455:220,1,75,0|0,1:0|1:0,0:0:0:0:
453,313,63828,6,0,P|373:279|305:320,1,150,4|0,1:2|1:0,0:0:0:0:
256,377,64328,1,0,1:0:0:0:
256,377,64661,1,0,1:0:0:0:
256,377,64994,1,0,1:0:0:0:
191,303,65161,6,0,B|203:240|203:240|191:204|191:204|208:127,2,150,0|2|0,1:0|1:2|1:0,0:0:0:0:
122,242,65994,1,2,0:0:0:0:
122,242,66078,1,2,0:0:0:0:
122,242,66161,2,0,L|82:245,2,37.5,2|2|0,0:0|0:0|3:0,0:0:0:0:
273,197,66494,6,0,P|309:238|252:324,1,150,4|0,1:0|1:0,0:0:0:0:
391,216,66994,1,0,1:0:0:0:
391,216,67161,1,0,1:0:0:0:
337,134,67328,2,0,P|334:96|332:32,1,75,0|0,1:0|1:0,0:0:0:0:
186,127,67661,2,0,P|189:171|191:229,1,75,0|0,1:0|1:0,0:0:0:0:
247,325,67994,5,4,1:0:0:0:
418,213,68828,1,0,1:0:0:0:
418,213,68994,1,0,1:0:0:0:
315,82,69328,6,0,L|318:180,1,95.6250018239022,12|0,0:0|0:0,0:0:0:0:
308,196,69661,2,0,L|311:280,1,63.7500012159348,8|0,3:0|0:0,0:0:0:0:
216,218,69995,2,0,L|213:134,1,63.7500012159348,8|0,0:0|0:0,0:0:0:0:
126,207,70328,1,8,3:0:0:0:
126,207,70494,6,0,P|98:274|151:314,1,127.50000243187
233,374,70994,2,0,P|201:375|171:384,1,63.7500012159348,8|0,3:0|0:0,0:0:0:0:
224,281,71328,2,0,P|255:282|286:290,1,63.7500012159348,8|0,0:0|1:0,0:0:0:0:
389,325,71661,5,0,1:0:0:0:
389,325,71828,2,0,B|381:266|381:266|399:227|399:227|390:159,1,150,4|0,1:2|1:0,0:0:0:0:
309,50,72328,1,0,1:0:0:0:
309,50,72495,2,0,B|317:109|317:109|299:148|299:148|308:216,1,150,4|0,1:2|1:0,0:0:0:0:
208,200,72994,1,0,1:0:0:0:
141,271,73161,6,0,P|203:307|269:278,1,150,4|0,1:2|1:0,0:0:0:0:
342,213,73661,2,0,P|348:254|351:287,1,75,0|0,1:0|1:0,0:0:0:0:
313,122,73994,6,0,P|359:118|396:112,1,75,2|0,0:0|0:0,0:0:0:0:
232,186,74328,2,0,P|227:124|220:73,1,82.5000025177003,2|0,0:0|0:0,0:0:0:0:
163,18,74661,6,0,B|152:37|135:50|135:50|146:79|146:79|117:111|127:171,1,150,4|0,1:0|1:0,0:0:0:0:
174,233,75161,1,0,0:0:0:0:
76,234,75328,2,0,P|23:220|-5:219,2,75,0|0|0,1:0|1:0|1:0,0:0:0:0:
133,327,75828,6,0,P|218:340|258:285,1,150,4|0,1:2|1:0,0:0:0:0:
287,204,76328,1,0,1:0:0:0:
287,204,76494,2,0,L|297:364,1,150,4|0,1:2|1:0,0:0:0:0:
378,300,76994,1,0,1:0:0:0:
427,215,77161,6,0,L|419:114,1,75,4|0,1:2|1:0,0:0:0:0:
329,106,77494,2,0,P|290:109|235:110,1,75,0|0,1:0|1:0,0:0:0:0:
164,68,77828,2,0,P|141:131|198:189,1,150,4|0,1:2|1:0,0:0:0:0:
191,187,78328,1,0,1:0:0:0:
179,283,78494,6,0,B|237:265|237:265|272:289|272:289|305:276|323:273,1,150,4|0,1:2|1:0,0:0:0:0:
316,274,78994,1,0,1:0:0:0:
403,318,79161,1,4,1:2:0:0:
396,220,79328,2,0,P|395:181|397:137,1,75,0|0,1:0|1:0,0:0:0:0:
463,73,79661,1,0,1:0:0:0:
463,73,79828,6,0,P|412:102|327:45,1,150,4|0,1:2|1:0,0:0:0:0:
252,13,80328,2,0,P|255:56|254:102,1,75,0|0,1:0|0:0,0:0:0:0:
236,184,80661,2,0,L|325:177,2,75,0|2|0,1:0|0:0|1:0,0:0:0:0:
180,264,81161,6,0,P|111:254|22:252,2,150,4|4|4,0:0|0:0|0:0,0:0:0:0:
152,104,82161,2,0,P|149:148|148:185,1,75,0|0,0:0|1:0,0:0:0:0:
136,332,82494,6,0,B|179:353|179:353|224:332|224:332|267:337|290:353,1,150,4|0,1:0|1:0,0:0:0:0:
324,192,82994,2,0,P|324:234|328:266,1,75,0|0,1:0|1:0,0:0:0:0:
412,320,83328,1,0,1:0:0:0:
436,224,83494,2,0,L|512:214,1,75,0|0,1:0|1:0,0:0:0:0:
418,125,83828,6,0,B|405:77|408:20|408:20|382:33|343:48,1,150,4|0,1:2|1:0,0:0:0:0:
295,103,84328,1,0,1:0:0:0:
307,199,84494,2,0,B|211:181|211:181|147:207,1,150,4|0,1:2|1:0,0:0:0:0:
65,209,84994,1,0,1:0:0:0:
64,209,85161,6,0,P|37:241|99:317,1,150,4|0,1:2|1:0,0:0:0:0:
182,344,85661,1,0,1:0:0:0:
265,292,85828,2,0,L|249:127,1,150,4|0,1:2|1:0,0:0:0:0:
250,142,86328,1,0,1:0:0:0:
336,201,86494,6,0,P|411:214|461:144,1,150,4|0,1:2|1:0,0:0:0:0:
377,96,86994,1,0,1:0:0:0:
480,117,87161,2,0,P|478:175|475:202,1,75,4|0,1:2|1:0,0:0:0:0:
396,313,87494,2,0,P|394:255|391:228,1,75,0|0,1:0|1:0,0:0:0:0:
308,151,87828,6,0,B|282:172|253:190|253:190|325:247|267:345,1,225,4|0,1:2|0:0,0:0:0:0:
