osu file format v13

[General]
AudioFilename: -Across the line-.mp3
AudioLeadIn: 0
PreviewTime: 57257
Countdown: 0
SampleSet: Soft
StackLeniency: 0.7
Mode: 0
LetterboxInBreaks: 0
WidescreenStoryboard: 0

[Editor]
Bookmarks: 87070
DistanceSpacing: 0.7
BeatDivisor: 4
GridSize: 4
TimelineZoom: 1

[Metadata]
Title:-Across the line- (short size)
TitleUnicode:-Across the line- (short size)
Artist:Uchida Maaya
ArtistUnicode:内田真礼
Creator:No Dap
Version:Horizon
Source:Takanashi Rikka ・Kai~ Gekijouban Chuunibyou demo Koi ga Shitai!~
Tags:movie opening tv size 小鳥遊六花・改 ~劇場版 中二病でも恋がしたい!~
BeatmapID:554627
BeatmapSetID:239922

[Difficulty]
HPDrainRate:7
CircleSize:4
OverallDifficulty:7
ApproachRate:8.7
SliderMultiplier:1.78
SliderTickRate:2

[Events]
//Background and Video events
0,0,"bgbgbgbg.jpg",0,0
//Break Periods
//Storyboard Layer 0 (Background)
//Storyboard Layer 1 (Fail)
//Storyboard Layer 2 (Pass)
//Storyboard Layer 3 (Foreground)
//Storyboard Sound Samples

[TimingPoints]
6667,372.670807453416,4,2,1,40,1,0
7785,-100,4,2,1,30,0,0
8064,-100,4,2,1,55,0,0
9275,-100,4,2,3,70,0,0
9368,-100,4,2,1,70,0,0
9648,-100,4,2,1,60,0,0
30517,-100,4,2,1,50,0,0
33499,-125,4,2,1,55,0,0
39462,-100,4,2,1,60,0,0
45424,-125,4,2,1,65,0,0
51387,-111.111111111111,4,2,1,70,0,0
56604,-111.111111111111,4,2,1,50,0,0
56977,-100,4,2,3,50,0,0
57070,-100,4,2,1,50,0,0
57350,-100,4,2,1,70,0,1
66294,-100,4,2,1,75,0,1
68530,-100,4,2,1,50,0,1
68903,-100,4,2,3,50,0,1
68996,-100,4,2,1,50,0,1
69275,-100,4,2,1,70,0,1
86791,-100,4,2,3,70,0,1
87163,-100,4,2,1,60,0,0
89772,-100,4,2,3,60,0,0
89865,-100,4,2,1,60,0,0
95735,-100,4,2,3,60,0,0
95828,-100,4,2,1,60,0,0

[Colours]
Combo1 : 36,255,36
Combo2 : 123,189,255
Combo3 : 255,255,96
Combo4 : 173,92,92

[HitObjects]
256,192,6666,12,0,7785,0:0:0:0:
96,292,8157,5,8,0:0:0:0:
32,160,8344,1,0,0:0:0:0:
244,84,8530,1,8,0:0:0:0:
176,208,8717,1,0,0:0:0:0:
112,64,8903,1,8,0:0:0:0:
112,64,8996,1,8,0:0:0:0:
112,64,9089,1,8,0:0:0:0:
176,208,9275,5,8,0:0:0:0:
204,225,9368,1,8,0:0:0:0:
236,232,9461,1,2,0:0:0:0:
270,228,9555,1,8,0:0:0:0:
300,216,9648,6,0,P|400:212|452:280,1,178,4|8,0:0|0:0,0:0:0:0:
368,360,10207,1,0,0:0:0:0:
272,324,10393,2,0,L|176:340,1,89,2|0,0:0|0:0,0:0:0:0:
44,272,10766,1,8,0:0:0:0:
104,368,10952,1,2,0:0:0:0:
128,208,11139,6,0,L|134:119,1,89
44,272,11511,1,10,0:0:0:0:
180,332,11698,1,0,0:0:0:0:
180,332,11791,1,0,0:0:0:0:
180,332,11884,1,0,0:0:0:0:
128,208,12070,1,0,0:0:0:0:
44,272,12257,1,8,0:0:0:0:
224,240,12443,1,2,0:0:0:0:
224,240,12536,1,2,0:0:0:0:
224,240,12629,6,0,P|276:232|328:228,1,89,2|0,0:0|0:0,0:0:0:0:
448,104,13002,2,0,P|388:144|284:112,1,178,8|2,0:0|0:0,0:0:0:0:
364,52,13561,1,0,0:0:0:0:
424,240,13747,1,8,0:0:0:0:
328,168,13934,1,2,0:0:0:0:
316,296,14120,6,0,L|332:392,1,89,2|0,0:0|0:0,0:0:0:0:
224,240,14493,1,8,0:0:0:0:
328,168,14679,2,0,P|367:190|399:221,1,89,2|0,0:0|0:0,0:0:0:0:
240,148,15052,1,0,0:0:0:0:
300,336,15238,1,8,0:0:0:0:
300,336,15331,1,0,0:0:0:0:
300,336,15424,1,0,0:0:0:0:
300,336,15517,1,0,0:0:0:0:
300,336,15611,6,0,L|292:236,1,89,2|0,0:0|0:0,0:0:0:0:
188,80,15983,2,0,P|166:118|159:162,1,89,8|2,0:0|0:0,0:0:0:0:
72,292,16356,2,0,P|64:248|43:209,1,89,2|0,0:0|0:0,0:0:0:0:
128,360,16729,1,8,0:0:0:0:
220,232,16915,1,2,0:0:0:0:
220,232,17008,1,2,0:0:0:0:
220,232,17101,6,0,L|316:224,1,89,2|0,0:0|0:0,0:0:0:0:
139,276,17474,2,0,P|92:284|48:272,1,89,8|2,0:0|0:0,0:0:0:0:
168,160,17847,1,0,0:0:0:0:
140,276,18033,1,2,0:0:0:0:
64,152,18219,1,8,0:0:0:0:
224,80,18406,1,2,0:0:0:0:
224,80,18499,1,2,0:0:0:0:
224,80,18592,6,0,P|311:87|384:32,1,178,2|8,0:0|0:0,0:0:0:0:
400,176,19151,1,2,0:0:0:0:
344,272,19337,2,0,P|347:316|356:359,1,89,0|2,0:0|0:0,0:0:0:0:
484,184,19710,1,8,0:0:0:0:
440,300,19896,1,2,0:0:0:0:
324,144,20083,6,0,P|246:104|164:131,1,178,0|10,0:0|0:0,0:0:0:0:
136,296,20642,1,0,0:0:0:0:
136,296,20735,1,8,0:0:0:0:
136,296,20828,1,0,0:0:0:0:
228,204,21014,1,0,0:0:0:0:
88,76,21201,1,8,0:0:0:0:
88,76,21573,6,0,P|166:111|243:73,1,178,4|8,0:0|0:0,0:0:0:0:
324,144,22132,1,2,0:0:0:0:
456,52,22319,2,0,P|408:48|360:56,1,89
488,224,22691,1,8,0:0:0:0:
424,132,22878,1,2,0:0:0:0:
368,264,23064,6,0,L|387:350,1,89,0|0,0:0|0:0,0:0:0:0:
488,224,23437,1,8,0:0:0:0:
336,176,23623,2,0,P|300:201|278:238,1,89,2|0,0:0|0:0,0:0:0:0:
276,360,23996,1,0,0:0:0:0:
157,228,24182,2,0,P|160:273|172:316,1,89,8|2,0:0|0:0,0:0:0:0:
60,144,24555,6,0,P|145:152|201:88,1,178,2|8,0:0|0:0,0:0:0:0:
112,64,25114,1,2,0:0:0:0:
168,172,25300,2,0,L|152:264,1,89,0|2,0:0|0:0,0:0:0:0:
104,352,25673,1,8,0:0:0:0:
56,248,25859,1,0,0:0:0:0:
236,336,26045,6,0,L|251:248,1,89,2|0,0:0|0:0,0:0:0:0:
304,136,26418,1,8,0:0:0:0:
364,224,26604,1,2,0:0:0:0:
400,76,26791,2,0,P|442:63|486:60,1,89,0|0,0:0|0:0,0:0:0:0:
304,136,27163,2,0,P|259:133|217:120,1,89,8|0,0:0|0:0,0:0:0:0:
16,32,27536,6,0,P|100:56|183:29,1,178,4|8,0:0|0:0,0:0:0:0:
156,144,28095,1,0,0:0:0:0:
219,264,28281,2,0,P|227:220|227:175,1,89,2|0,0:0|0:0,0:0:0:0:
80,248,28654,2,0,P|71:291|72:336,1,89,8|0,0:0|0:0,0:0:0:0:
292,320,29027,6,0,P|311:233|308:144,1,178,2|8,0:0|0:0,0:0:0:0:
204,96,29586,2,0,P|290:101|348:37,1,178,2|2,0:0|0:0,0:0:0:0:
112,64,30145,2,0,P|114:108|120:152,1,89,8|0,0:0|0:0,0:0:0:0:
164,280,30517,5,2,0:0:0:0:
224,208,30704,1,0,0:0:0:0:
72,260,30890,1,8,0:0:0:0:
188,368,31076,1,2,0:0:0:0:
368,272,31263,5,0,0:0:0:0:
268,280,31449,1,2,0:0:0:0:
304,172,31635,1,10,0:0:0:0:
320,360,31822,1,2,0:0:0:0:
384,140,32008,6,0,P|318:87|238:115,1,178,2|8,0:0|0:0,0:0:0:0:
368,272,32567,2,0,L|472:258,1,89,2|0,0:0|0:0,0:0:0:0:
384,140,32940,1,2,0:0:0:0:
368,272,33126,1,10,0:0:0:0:
460,100,33312,1,2,0:0:0:0:
296,187,33499,6,0,P|226:199|161:172,1,142.4,4|0,0:0|0:0,0:0:0:0:
140,72,34058,1,0,0:0:0:0:
88,216,34244,2,0,P|76:182|75:146,1,71.2,8|0,0:0|0:0,0:0:0:0:
32,288,34617,1,2,0:0:0:0:
212,336,34803,1,8,0:0:0:0:
320,140,35176,5,0,0:0:0:0:
320,140,35269,1,0,0:0:0:0:
320,140,35362,1,8,0:0:0:0:
240,60,35548,1,0,0:0:0:0:
236,224,35735,2,0,L|165:217,1,71.2,10|0,0:0|0:0,0:0:0:0:
88,88,36107,2,0,L|158:94,1,71.2,10|0,0:0|0:0,0:0:0:0:
100,276,36480,5,4,0:0:0:0:
92,92,36666,1,0,0:0:0:0:
96,96,36760,1,0,0:0:0:0:
100,100,36853,1,8,0:0:0:0:
188,244,37039,1,0,0:0:0:0:
248,124,37226,1,8,0:0:0:0:
132,180,37412,1,0,0:0:0:0:
268,352,37598,1,2,0:0:0:0:
352,224,37785,1,8,0:0:0:0:
172,332,38157,5,0,0:0:0:0:
40,280,38344,2,0,L|132:256,1,71.2,8|0,0:0|0:0,0:0:0:0:
268,352,38716,1,10,0:0:0:0:
268,352,38809,1,8,0:0:0:0:
268,352,38903,1,8,0:0:0:0:
180,244,39089,2,0,L|188:160,1,71.2,10|0,0:0|0:0,0:0:0:0:
416,44,39462,6,0,P|368:108|272:120,1,178,4|8,0:0|0:0,0:0:0:0:
200,64,40021,1,0,0:0:0:0:
288,208,40207,2,0,L|276:328,1,89,2|0,0:0|0:0,0:0:0:0:
256,368,40486,1,2,0:0:0:0:
256,368,40580,2,0,P|228:304|192:288,1,89,8|2,0:0|0:0,0:0:0:0:
404,244,40952,5,0,0:0:0:0:
368,328,41139,1,0,0:0:0:0:
288,208,41325,1,8,0:0:0:0:
448,160,41511,1,2,0:0:0:0:
372,100,41698,2,0,P|364:44|368:0,1,89,0|2,0:0|0:0,0:0:0:0:
404,244,42070,1,8,0:0:0:0:
460,136,42257,1,0,0:0:0:0:
288,208,42443,6,0,L|176:200,1,89,2|0,0:0|0:0,0:0:0:0:
404,244,42816,2,0,L|516:236,1,89,8|0,0:0|0:0,0:0:0:0:
419,23,43188,2,0,P|401:88|369:127,1,89,2|0,0:0|0:0,0:0:0:0:
312,112,43468,1,2,0:0:0:0:
312,112,43561,2,0,P|244:96|192:116,1,89,8|2,0:0|0:0,0:0:0:0:
168,240,43934,5,0,0:0:0:0:
120,120,44120,1,0,0:0:0:0:
56,264,44306,1,8,0:0:0:0:
216,160,44493,1,0,0:0:0:0:
216,160,44586,1,0,0:0:0:0:
216,160,44679,5,2,0:0:0:0:
200,328,44865,1,0,0:0:0:0:
304,184,45052,1,10,0:0:0:0:
168,240,45238,1,0,0:0:0:0:
344,260,45424,6,0,P|384:208|360:120,1,142.4,4|8,0:0|0:0,0:0:0:0:
344,260,45983,2,0,L|360:340,1,71.2,2|0,0:0|0:0,0:0:0:0:
432,284,46356,1,0,0:0:0:0:
304,184,46542,2,0,P|272:184|227:195,1,71.2,10|0,0:0|0:0,0:0:0:0:
88,124,46915,6,0,P|188:120|220:84,1,142.4,2|0,0:0|0:0,0:0:0:0:
132,36,47474,1,0,0:0:0:0:
8,132,47660,2,0,L|20:220,1,71.2,10|0,0:0|0:0,0:0:0:0:
40,36,48033,1,10,0:0:0:0:
8,132,48219,1,0,0:0:0:0:
128,212,48406,6,0,P|204:176|276:156,1,142.4,4|8,0:0|0:0,0:0:0:0:
160,300,48965,2,0,P|148:344|124:380,1,71.2,2|0,0:0|0:0,0:0:0:0:
128,212,49337,1,2,0:0:0:0:
8,132,49524,2,0,L|20:220,1,71.2,8|2,0:0|0:0,0:0:0:0:
232,232,49896,6,0,L|328:220,1,71.2,0|0,0:0|0:0,0:0:0:0:
292,128,50269,2,0,L|364:104,1,71.2,8|0,0:0|0:0,0:0:0:0:
176,164,50642,2,0,P|140:128|132:36,1,142.4,2|8,0:0|0:0,0:0:0:0:
224,76,51201,1,0,0:0:0:0:
64,164,51387,6,0,L|56:276,1,80.0999975555421,4|8,0:0|0:0,0:0:0:0:
244,236,51946,1,8,0:0:0:0:
64,164,52319,1,0,0:0:0:0:
244,236,52505,2,0,P|288:226|336:220,1,80.0999975555421,8|8,0:0|0:0,0:0:0:0:
288,136,52878,5,0,0:0:0:0:
151,224,53064,2,0,P|142:262|136:302,1,80.0999975555421,8|0,0:0|0:0,0:0:0:0:
200,148,53437,1,0,0:0:0:0:
224,328,53623,1,8,0:0:0:0:
60,208,53809,1,0,0:0:0:0:
144,64,53996,1,8,0:0:0:0:
144,64,54089,1,8,0:0:0:0:
144,64,54182,1,8,0:0:0:0:
144,64,54275,1,8,0:0:0:0:
144,64,54368,6,0,P|223:53|304:48,1,160.199995111084,2|0,0:0|0:0,0:0:0:0:
404,224,54927,2,0,P|320:236|264:156,1,160.199995111084,8|0,0:0|0:0,0:0:0:0:
228,48,55486,1,8,0:0:0:0:
176,220,55673,1,0,0:0:0:0:
320,132,55859,1,2,0:0:0:0:
126,127,56045,2,0,P|98:155|76:188,1,80.0999975555421,8|0,0:0|0:0,0:0:0:0:
128,328,56418,1,2,0:0:0:0:
240,284,56604,5,8,0:0:0:0:
278,275,56697,1,8,0:0:0:0:
317,283,56790,1,8,0:0:0:0:
353,301,56883,1,8,0:0:0:0:
390,315,56976,1,8,0:0:0:0:
430,311,57069,1,8,0:0:0:0:
462,288,57163,1,8,0:0:0:0:
478,252,57256,1,8,0:0:0:0:
474,211,57350,6,0,P|460:169|458:125,1,89,4|0,0:0|0:0,0:0:0:0:
496,44,57722,1,8,0:0:0:0:
364,136,57909,2,0,P|282:163|204:125,1,178,2|0,0:0|0:0,0:0:0:0:
140,24,58468,1,8,0:0:0:0:
288,64,58654,1,0,0:0:0:0:
158,188,58840,6,0,P|158:232|164:276,1,89,2|0,0:0|0:0,0:0:0:0:
234,332,59213,1,8,0:0:0:0:
74,232,59399,1,2,0:0:0:0:
74,232,59493,1,8,0:0:0:0:
74,232,59586,1,0,0:0:0:0:
230,124,59772,1,0,0:0:0:0:
74,232,59958,2,0,L|-14:240,1,89,8|0,0:0|0:0,0:0:0:0:
230,124,60331,6,0,P|308:126|407:135,1,178,2|8,0:0|0:0,0:0:0:0:
288,16,60890,2,0,P|244:23|203:41,1,89,2|0,0:0|0:0,0:0:0:0:
296,204,61263,1,0,0:0:0:0:
288,16,61449,1,10,0:0:0:0:
148,112,61635,1,0,0:0:0:0:
227,263,61822,6,0,P|306:295|375:247,1,178,2|8,0:0|0:0,0:0:0:0:
116,180,62381,2,0,L|24:188,1,89,2|0,0:0|0:0,0:0:0:0:
212,128,62753,1,2,0:0:0:0:
147,251,62940,2,0,P|148:295|159:339,1,89,8|2,0:0|0:0,0:0:0:0:
212,128,63312,6,0,P|188:52|104:60,1,178,4|8,0:0|0:0,0:0:0:0:
116,180,63871,1,2,0:0:0:0:
116,180,63965,1,2,0:0:0:0:
116,180,64058,2,0,L|128:272,1,89,2|0,0:0|0:0,0:0:0:0:
12,168,64430,2,0,L|24:76,1,89,8|0,0:0|0:0,0:0:0:0:
212,128,64803,5,2,0:0:0:0:
128,60,64989,1,0,0:0:0:0:
304,64,65176,1,8,0:0:0:0:
116,180,65362,1,2,0:0:0:0:
156,28,65548,1,0,0:0:0:0:
216,228,65735,1,2,0:0:0:0:
328,152,65921,2,0,P|371:141|415:133,1,89,8|0,0:0|0:0,0:0:0:0:
292,316,66294,6,0,P|209:344|128:300,1,178,4|2,0:0|0:0,0:0:0:0:
216,228,66853,1,8,0:0:0:0:
60,172,67039,2,0,P|145:146|232:133,1,178,2|4,0:0|0:0,0:0:0:0:
368,288,67598,6,0,B|330:229|296:212|296:212|328:192|328:152,1,178,2|4,0:0|0:0,0:0:0:0:
428,44,68157,1,0,0:0:0:0:
444,212,68344,1,2,0:0:0:0:
252,144,68530,5,10,0:0:0:0:
214,152,68623,1,8,0:0:0:0:
176,144,68716,1,8,0:0:0:0:
141,126,68809,1,8,0:0:0:0:
104,114,68902,1,8,0:0:0:0:
67,121,68995,1,8,0:0:0:0:
38,147,69089,1,8,0:0:0:0:
28,184,69182,1,8,0:0:0:0:
41,220,69275,6,0,L|48:332,1,89,4|0,0:0|0:0,0:0:0:0:
104,114,69648,1,8,0:0:0:0:
200,252,69834,2,0,P|288:244|344:172,1,178,2|0,0:0|0:0,0:0:0:0:
336,20,70393,1,8,0:0:0:0:
264,116,70580,1,0,0:0:0:0:
416,84,70766,6,0,P|457:69|501:60,1,89,2|0,0:0|0:0,0:0:0:0:
448,192,71139,1,8,0:0:0:0:
264,116,71325,2,0,P|221:108|176:106,1,89,2|0,0:0|0:0,0:0:0:0:
116,236,71698,1,0,0:0:0:0:
64,88,71884,1,8,0:0:0:0:
32,184,72070,1,0,0:0:0:0:
216,204,72257,6,0,P|259:195|303:189,1,89,2|0,0:0|0:0,0:0:0:0:
332,80,72629,1,8,0:0:0:0:
324,272,72816,2,0,P|320:312|316:376,1,89,2|0,0:0|0:0,0:0:0:0:
368,160,73188,1,0,0:0:0:0:
216,204,73375,2,0,P|172:197|124:196,1,89,8|0,0:0|0:0,0:0:0:0:
368,160,73747,6,0,P|380:72|276:52,1,178,2|8,0:0|0:0,0:0:0:0:
216,204,74306,2,0,L|236:296,1,89,2|0,0:0|0:0,0:0:0:0:
240,88,74679,2,0,P|190:73|144:52,1,89,2|8,0:0|0:0,0:0:0:0:
216,204,75052,1,2,0:0:0:0:
376,216,75238,6,0,P|384:124|284:120,2,178,4|8|0,0:0|0:0|0:0,0:0:0:0:
287,272,76170,2,0,P|283:316|289:360,1,89,2|8,0:0|0:0,0:0:0:0:
376,216,76542,1,0,0:0:0:0:
280,116,76729,5,2,0:0:0:0:
400,36,76915,2,0,P|436:28|488:24,1,89,0|8,0:0|0:0,0:0:0:0:
432,172,77288,1,2,0:0:0:0:
280,116,77474,2,0,P|244:108|192:104,1,89,0|2,0:0|0:0,0:0:0:0:
200,192,77847,1,8,0:0:0:0:
56,120,78033,1,0,0:0:0:0:
84,284,78219,6,0,P|172:271|260:268,1,178,2|8,0:0|0:0,0:0:0:0:
263,36,78778,2,0,P|203:95|224:177,1,178,2|2,0:0|0:0,0:0:0:0:
348,92,79337,1,8,0:0:0:0:
340,224,79524,1,2,0:0:0:0:
436,140,79710,5,0,0:0:0:0:
464,288,79896,1,2,0:0:0:0:
340,224,80083,2,0,P|288:216|240:216,1,89,8|2,0:0|0:0,0:0:0:0:
188,296,80455,1,0,0:0:0:0:
136,172,80642,1,2,0:0:0:0:
72,260,80828,1,8,0:0:0:0:
48,96,81014,1,8,0:0:0:0:
48,96,81107,1,8,0:0:0:0:
48,96,81201,6,0,P|116:88|232:88,1,178,4|8,0:0|0:0,0:0:0:0:
316,172,81760,1,2,0:0:0:0:
264,296,81946,1,0,0:0:0:0:
192,196,82132,2,0,P|148:188|103:184,1,89,2|8,0:0|0:0,0:0:0:0:
268,48,82505,6,0,P|260:96|256:152,1,89,2|0,0:0|0:0,0:0:0:0:
372,292,82878,2,0,P|336:248|308:224,1,89,2|8,0:0|0:0,0:0:0:0:
368,80,83250,2,0,P|404:124|432:148,1,89,2|0,0:0|0:0,0:0:0:0:
456,48,83623,1,2,0:0:0:0:
268,48,83809,1,8,0:0:0:0:
320,188,83996,1,2,0:0:0:0:
200,136,84182,6,0,P|136:124|96:128,1,89,2|0,0:0|0:0,0:0:0:0:
156,288,84555,2,0,P|220:300|260:296,1,89,8|0,0:0|0:0,0:0:0:0:
320,188,84927,1,2,0:0:0:0:
288,368,85114,1,2,0:0:0:0:
200,136,85300,1,8,0:0:0:0:
243,298,85486,1,2,0:0:0:0:
280,112,85673,6,0,P|321:96|365:90,1,89,0|0,0:0|0:0,0:0:0:0:
420,252,86045,1,8,0:0:0:0:
320,188,86232,1,2,0:0:0:0:
352,352,86418,1,0,0:0:0:0:
400,172,86604,1,2,0:0:0:0:
211,219,86791,2,0,P|170:204|126:196,1,89,8|0,0:0|0:0,0:0:0:0:
243,329,87163,6,0,P|310:274|319:188,1,178,4|8,0:0|0:0,0:0:0:0:
267,26,87722,2,0,B|276:84|260:140|260:140|288:108|324:112,1,178,2|0,0:0|0:0,0:0:0:0:
212,220,88281,2,0,P|123:222|34:230,1,178,8|2,0:0|0:0,0:0:0:0:
128,120,88840,5,2,0:0:0:0:
288,180,89027,2,0,P|295:223|296:268,1,89,8|0,0:0|0:0,0:0:0:0:
236,352,89399,1,2,0:0:0:0:
392,232,89586,1,2,0:0:0:0:
284,104,89772,1,10,1:2:0:0:
440,40,89958,1,2,0:0:0:0:
284,104,90145,6,0,L|100:80,1,178,4|8,0:0|0:0,0:0:0:0:
81,274,90704,2,0,B|80:216|104:160|104:160|68:160|44:128,1,178,2|0,0:0|0:0,0:0:0:0:
212,248,91263,2,0,B|280:248|320:288|320:288|356:272|378:280,1,178,10|2,0:0|0:0,0:0:0:0:
344,80,92008,1,8,0:0:0:0:
336,184,92194,1,0,0:0:0:0:
436,32,92381,5,0,0:0:0:0:
224,56,92567,1,0,0:0:0:0:
256,192,92753,1,8,0:0:0:0:
116,160,92940,1,0,0:0:0:0:
224,56,93126,5,4,0:0:0:0:
276,292,93312,1,8,0:0:0:0:
320,40,93685,5,8,0:0:0:0:
192,264,93871,1,8,0:0:0:0:
200,36,94244,5,8,0:0:0:0:
312,256,94430,1,8,0:0:0:0:
312,256,94803,5,8,0:0:0:0:
376,184,94989,2,0,L|394:96,1,89,8|8,0:0|0:0,0:0:0:0:
216,248,95362,1,8,0:0:0:0:
360,340,95548,1,8,0:0:0:0:
284,172,95735,1,8,0:0:0:0:
128,264,95921,1,8,0:0:0:0:
200,128,96107,5,8,0:0:0:0:
272,356,96294,1,8,0:0:0:0:
236,56,96666,5,8,0:0:0:0:
116,300,96853,1,8,0:0:0:0:
108,36,97226,5,8,0:0:0:0:
224,248,97413,1,8,0:0:0:0:
224,248,97785,5,8,0:0:0:0:
300,140,97971,1,8,0:0:0:0:
328,324,98157,1,8,0:0:0:0:
192,160,98344,1,8,0:0:0:0:
52,276,98530,1,8,0:0:0:0:
